osu file format v14

[General]
AudioFilename: audio.mp3
AudioLeadIn: 0
PreviewTime: 48562
Countdown: 0
SampleSet: Soft
StackLeniency: 0.7
Mode: 0
LetterboxInBreaks: 0
WidescreenStoryboard: 1

[Editor]
Bookmarks: 27517,50800,51920,52591,54830,64457,71621,78785
DistanceSpacing: 1.5
BeatDivisor: 4
GridSize: 32
TimelineZoom: 1.86

[Metadata]
Title:Startear (TV Size)
TitleUnicode:Startear (TV Size)
Artist:Haruna Luna
ArtistUnicode:春奈るな
Creator:Fanboyyou
Version:Insane
Source:ソードアート・オンラインⅡ
Tags:PGM Ultima Ratio Hecate II Gun Gale Online GGO Phantom Bullet anime ending ed sword art online II sao season second two 2 sinon シノン shino asada 朝田 詩乃 j pop j-pop jpop japanese
BeatmapID:3604187
BeatmapSetID:1750705

[Difficulty]
HPDrainRate:4.5
CircleSize:4
OverallDifficulty:7
ApproachRate:8.6
SliderMultiplier:1.8
SliderTickRate:1

[Events]
//Background and Video events
0,0,"sinon.jpg",0,0
Video,-1050,"www.mp4"
//Break Periods
//Storyboard Layer 0 (Background)
//Storyboard Layer 1 (Fail)
//Storyboard Layer 2 (Pass)
//Storyboard Layer 3 (Foreground)
//Storyboard Layer 4 (Overlay)
//Storyboard Sound Samples

[TimingPoints]
-20,447.76119402985,4,2,1,40,1,0
427,-133.333333333333,4,2,1,40,0,0
2442,-200,4,2,1,40,0,0
3562,-133.333333333333,4,2,1,40,0,0
4233,-200,4,2,1,40,0,0
5353,-133.333333333333,4,2,1,50,0,0
6360,-133.333333333333,4,2,1,5,0,0
6472,-133.333333333333,4,2,1,50,0,0
6808,-133.333333333333,4,2,1,5,0,0
6920,-133.333333333333,4,2,1,50,0,0
12517,-83.3333333333333,4,2,1,70,0,0
19681,-100,4,2,1,50,0,0
34009,-133.333333333333,4,2,1,40,0,0
41174,-100,4,2,1,60,0,0
49233,-100,4,2,1,50,0,0
50129,-83.3333333333333,4,2,1,80,0,0
63114,-71.4285714285714,4,2,1,80,0,0
64457,-83.3333333333333,4,2,1,80,0,0
86845,-100,4,2,2,60,0,0
87741,-100,4,2,1,20,0,0
88636,-100,4,2,2,5,0,0

[Colours]
Combo1 : 79,167,255
Combo2 : 117,215,232
Combo3 : 214,122,214

[HitObjects]
321,307,427,6,0,P|254:293|188:284,1,135.000005149842,2|2,0:0|0:0,0:0:0:0:
188,284,1323,1,2,0:0:0:0:
23,184,1771,6,0,P|87:182|122:236,1,135.000005149842,2|2,0:0|0:0,0:0:0:0:
189,285,2442,2,0,P|190:349|136:384,1,135.000005149842,2|0,0:0|0:0,0:0:0:0:
76,332,3338,1,2,0:0:0:0:
200,201,3562,6,0,B|240:190|271:226|255:223|281:252|320:246,1,135.000005149842,2|2,0:0|0:0,0:0:0:0:
353,323,4233,2,0,B|393:334|424:298|408:301|434:272|473:277,1,135.000005149842,2|0,0:0|0:0,0:0:0:0:
512,349,5129,1,2,0:0:0:0:
320,246,5353,6,0,P|301:181|278:117,1,135.000005149842,2|2,0:0|0:0,0:0:0:0:
331,34,6024,2,0,P|398:46|413:90,1,101.250003862381,2|0,0:0|0:0,0:0:0:0:
408,78,6472,2,0,P|341:66|326:22,1,101.250003862381,2|0,0:0|0:0,0:0:0:0:
257,0,6920,1,2,0:0:0:0:
278,117,7144,6,0,P|215:101|144:84,1,135.000005149842,0|2,0:0|0:0,0:0:0:0:
79,129,7815,2,0,P|97:193|116:258,1,135.000005149842,2|2,0:0|0:0,0:0:0:0:
181,355,8487,1,2,0:0:0:0:
239,298,8711,1,2,0:0:0:0:
49,322,8935,6,0,P|114:337|180:354,1,135.000005149842,2|2,0:0|0:0,0:0:0:0:
370,265,9606,2,0,P|304:282|239:298,1,135.000005149842,2|2,0:0|0:0,0:0:0:0:
239,298,10502,1,2,0:0:0:0:
130,16,12517,5,6,3:2:0:0:
90,92,12741,1,2,0:0:0:0:
223,191,12965,2,0,P|201:141|177:93,1,107.999996704102,2|2,1:2|0:0,0:0:0:0:
98,99,13412,1,10,3:2:0:0:
98,99,13524,1,8,0:0:0:0:
98,99,13636,1,10,0:2:0:0:
221,15,13860,2,0,P|280:18|309:76,1,107.999996704102,2|2,1:2|0:0,0:0:0:0:
308,212,14308,5,2,3:2:0:0:
341,142,14532,1,2,0:0:0:0:
177,93,14756,2,0,P|201:141|223:191,1,107.999996704102,2|2,1:2|0:0,0:0:0:0:
189,265,15203,5,10,3:2:0:0:
189,265,15315,1,8,0:2:0:0:
189,265,15427,1,10,0:2:0:0:
16,227,15651,1,2,1:2:0:0:
86,190,15875,1,2,0:0:0:0:
178,348,16099,5,2,3:2:0:0:
108,311,16323,1,2,0:0:0:0:
223,191,16547,2,0,P|263:175|324:154,1,107.999996704102,2|10,1:2|0:0,0:0:0:0:
354,163,16882,1,8,0:0:0:0:
354,163,16994,1,10,3:2:0:0:
427,219,17218,1,2,0:0:0:0:
505,137,17442,1,2,3:2:0:0:
420,295,17666,6,0,P|396:190|374:84,1,215.999993408203,2|8,1:2|0:3,0:0:0:0:
316,26,18338,1,2,3:2:0:0:
217,99,18562,1,2,1:2:0:0:
11,33,19009,6,0,P|113:65|216:98,1,215.999993408203,6|10,3:2|0:0,0:0:0:0:
235,117,19569,1,8,0:0:0:0:
235,117,19681,1,6,3:2:0:0:
121,357,20129,1,2,0:0:0:0:
109,350,20353,2,0,P|86:245|140:207,1,180,2|2,1:2|0:0,0:0:0:0:
210,190,21024,1,0,1:0:0:0:
49,151,21248,5,2,0:0:0:0:
49,151,21360,1,2,0:0:0:0:
49,151,21472,2,0,B|99:123|142:167|121:171|164:213|212:190,1,180,2|2,3:2|0:0,0:0:0:0:
327,108,22144,2,0,P|241:112|210:191,1,180,2|8,1:2|0:0,0:0:0:0:
246,257,22815,1,0,1:0:0:0:
378,234,23039,5,2,0:0:0:0:
378,234,23151,1,2,0:0:0:0:
378,234,23263,2,0,P|400:144|435:63,1,180,2|2,3:2|0:0,0:0:0:0:
376,0,23935,2,0,P|292:6|274:88,1,180,2|2,1:2|0:0,0:0:0:0:
221,203,24606,2,0,P|214:159|180:131,1,90,0|2,1:0|0:0,0:0:0:0:
99,130,25054,6,0,P|208:102|301:83,1,180,2|2,3:2|0:0,0:0:0:0:
300,186,25726,2,0,P|212:205|124:227,1,180,2|10,1:2|0:0,0:0:0:0:
48,197,26397,1,0,1:2:0:0:
0,19,26621,5,2,0:0:0:0:
0,19,26733,1,2,0:0:0:0:
0,19,26845,2,0,P|82:46|100:130,1,180,2|2,3:2|0:0,0:0:0:0:
124,227,27517,2,0,P|142:142|224:116,1,180,2|10,1:2|0:0,0:0:0:0:
276,174,28188,1,0,1:0:0:0:
377,247,28412,5,2,0:0:0:0:
377,247,28524,1,2,0:0:0:0:
377,247,28636,2,0,P|293:221|168:192,1,180,2|2,3:2|0:0,0:0:0:0:
124,227,29308,2,0,P|140:324|216:331,1,180,2|10,1:2|0:0,0:0:0:0:
278,365,29979,1,2,1:2:0:0:
369,269,30203,5,2,0:0:0:0:
369,269,30315,1,2,0:0:0:0:
369,269,30427,2,0,P|411:280|455:294,2,90,2|2|2,3:2|0:0|0:0,0:0:0:0:
342,156,31099,2,0,P|248:180|153:212,1,180,2|10,1:2|0:0,0:0:0:0:
114,262,31771,1,2,1:2:0:0:
40,129,31994,5,2,0:0:0:0:
40,129,32106,1,2,0:0:0:0:
40,129,32218,2,0,P|122:128|168:215,1,180,2|2,3:2|0:0,0:0:0:0:
242,250,32890,1,2,1:2:0:0:
307,184,33114,1,2,0:0:0:0:
378,231,33338,1,4,0:3:0:0:
387,235,33562,1,12,0:3:0:0:
512,179,34009,6,0,L|494:248,2,67.5000025749208,2|2|2,0:0|0:0|0:0,0:0:0:0:
472,107,34681,1,2,0:0:0:0:
402,65,34905,2,0,L|333:83,1,67.5000025749208,2|2,0:0|0:0,0:0:0:0:
282,143,35353,2,0,L|216:125,1,67.5000025749208,2|2,0:0|0:0,0:0:0:0:
158,69,35800,6,0,P|70:100|63:160,1,135.000005149842,2|2,0:0|0:0,0:0:0:0:
222,241,36472,2,0,P|239:149|190:113,1,135.000005149842,2|8,0:0|0:3,0:0:0:0:
142,148,37032,1,8,0:3:0:0:
142,148,37144,1,4,3:0:0:0:
63,261,37591,6,0,L|-20:231,2,67.5000025749208,2|2|2,0:0|0:0|0:0,0:0:0:0:
118,320,38263,1,2,0:0:0:0:
174,378,38487,2,0,L|257:348,1,67.5000025749208,2|2,0:0|0:0,0:0:0:0:
284,288,38935,1,2,0:0:0:0:
284,288,39159,1,2,0:0:0:0:
394,362,39382,6,0,P|457:311|449:256,1,135.000005149842,2|2,0:0|0:0,0:0:0:0:
330,110,40054,2,0,P|342:190|394:210,1,135.000005149842,2|2,0:0|0:0,0:0:0:0:
460,181,40726,1,4,3:0:0:0:
313,25,41174,6,0,P|269:35|225:46,1,90,6|2,1:2|0:0,0:0:0:0:
164,102,41621,1,2,3:2:0:0:
68,31,41845,1,2,1:2:0:0:
138,188,42069,6,0,P|151:144|163:101,1,90,2|2,3:2|0:0,0:0:0:0:
284,167,42517,2,0,P|296:210|309:253,1,90,2|2,1:2|0:0,0:0:0:0:
110,354,42965,6,0,P|146:282|245:287,1,180,6|2,3:2|3:2,0:0:0:0:
290,335,43636,2,0,B|263:247|263:247|251:197|284:167,1,180,2|2,1:2|0:0,0:0:0:0:
361,147,44308,1,2,1:2:0:0:
389,314,44532,5,10,0:0:0:0:
389,314,44644,1,8,0:0:0:0:
389,314,44756,2,0,P|372:272|357:229,1,90,10|0,3:2|3:2,0:0:0:0:
412,41,45203,2,0,P|396:83|379:125,1,90,2|2,1:2|1:2,0:0:0:0:
361,147,45539,1,0,1:2:0:0:
361,147,45651,1,0,1:2:0:0:
145,110,45875,1,2,1:2:0:0:
145,110,46323,6,0,P|181:202|213:295,1,180,6|0,3:2|3:2,0:0:0:0:
63,354,46994,2,0,P|72:295|111:265,1,90,2|0,1:2|1:2,0:0:0:0:
120,258,47330,1,0,1:2:0:0:
120,258,47442,2,0,P|165:267|245:290,1,90,2|4,1:2|3:0,0:0:0:0:
326,211,47890,1,8,3:0:0:0:
151,384,48114,6,0,P|238:361|326:343,1,180,6|2,1:2|1:2,0:0:0:0:
405,176,48785,1,2,1:2:0:0:
194,59,50129,6,0,P|82:126|108:205,1,215.999993408203,6|2,3:2|1:2,0:0:0:0:
218,301,50800,1,2,1:2:0:0:
218,301,50912,1,0,1:2:0:0:
218,301,51024,1,0,3:2:0:0:
310,255,51248,1,2,0:0:0:0:
411,384,51472,1,0,1:2:0:0:
328,340,51696,1,2,3:2:0:0:
500,169,51920,6,0,P|452:250|395:405,1,215.999993408203,6|2,3:2|1:2,0:0:0:0:
356,170,52591,1,10,0:0:0:0:
356,170,52703,1,8,0:0:0:0:
356,170,52815,1,8,3:2:0:0:
420,222,53039,1,8,0:0:0:0:
502,97,53263,1,0,1:2:0:0:
436,138,53487,1,2,3:2:0:0:
203,89,53711,6,0,B|229:64|222:27|222:27|240:88|266:173,1,215.999993408203,6|2,3:2|1:2,0:0:0:0:
338,323,54382,2,0,P|317:274|269:252,1,107.999996704102,6|0,0:0|3:2,0:0:0:0:
149,368,54830,2,0,P|201:374|244:344,1,107.999996704102,2|0,0:0|1:2,0:0:0:0:
147,184,55278,5,10,0:2:0:0:
147,184,55390,1,8,0:0:0:0:
147,184,55502,2,0,L|179:287,1,107.999996704102,12|2,3:2|0:0,0:0:0:0:
287,158,55950,1,2,1:2:0:0:
212,124,56174,1,2,0:0:0:0:
324,244,56397,1,8,3:2:0:0:
324,244,56509,1,8,0:0:0:0:
324,244,56621,1,10,0:0:0:0:
419,99,56845,2,0,P|404:151|393:204,1,107.999996704102,2|2,1:2|3:2,0:0:0:0:
387,23,57293,6,0,P|291:55|286:157,1,215.999993408203,6|2,3:2|1:2,0:0:0:0:
428,270,57965,2,0,P|367:253|305:240,1,107.999996704102,10|8,0:0|3:2,0:0:0:0:
200,384,58412,2,0,P|252:376|289:338,1,107.999996704102,10|0,0:0|1:2,0:0:0:0:
246,272,58860,1,2,0:0:0:0:
24,295,59084,6,0,B|88:273|137:327|104:324|159:380|219:352,1,215.999993408203,4|2,3:2|1:2,0:0:0:0:
199,155,59756,1,2,0:0:0:0:
145,228,59979,1,10,3:2:0:0:
145,228,60091,1,0,1:2:0:0:
145,228,60203,1,10,0:2:0:0:
30,99,60427,1,2,1:2:0:0:
95,144,60651,1,2,0:0:0:0:
242,23,60875,6,0,P|136:47|32:76,1,215.999993408203,6|2,3:2|1:2,0:0:0:0:
136,235,61547,1,10,0:0:0:0:
136,235,61659,1,8,0:0:0:0:
136,235,61771,2,0,P|128:174|77:138,1,107.999996704102,8|10,3:2|0:0,0:0:0:0:
8,212,62218,1,6,1:2:0:0:
222,285,62442,2,0,P|118:253|13:227,1,215.999993408203,6|2,1:2|0:0,0:0:0:0:
303,301,63114,6,0,P|295:240|246:203,1,125.999996154785,2|0,1:2|0:0,0:0:0:0:
104,280,63562,2,0,P|114:341|163:377,1,125.999996154785,6|0,3:2|1:0,0:0:0:0:
182,369,63897,1,0,1:0:0:0:
182,369,64009,2,0,P|193:334|215:269,1,62.9999980773926,2|0,1:2|1:0,0:0:0:0:
222,285,64233,1,8,0:3:0:0:
89,119,64457,6,0,B|75:99|45:89|45:89|145:75|201:154,1,215.999993408203,6|2,3:2|1:2,0:0:0:0:
323,19,65129,1,2,0:2:0:0:
264,81,65353,1,8,3:2:0:0:
264,81,65465,1,8,0:2:0:0:
264,81,65577,1,8,0:0:0:0:
381,198,65800,2,0,P|365:146|348:95,1,107.999996704102,0|2,1:2|3:2,0:0:0:0:
309,257,66248,6,0,P|404:292|473:218,1,215.999993408203,6|2,3:2|1:2,0:0:0:0:
259,173,66920,1,10,0:0:0:0:
191,213,67144,1,8,3:2:0:0:
191,213,67256,1,8,0:0:0:0:
191,213,67368,1,8,0:0:0:0:
53,85,67591,2,0,P|104:96|156:110,1,107.999996704102,0|2,1:2|3:2,0:0:0:0:
170,313,68039,6,0,P|152:247|293:188,1,215.999993408203,6|2,3:2|1:2,0:0:0:0:
386,276,68711,2,0,P|334:284|300:245,1,107.999996704102,6|8,0:0|3:2,0:0:0:0:
296,95,69159,2,0,P|347:86|381:125,1,107.999996704102,10|0,0:0|1:2,0:0:0:0:
257,171,69606,1,2,3:2:0:0:
480,143,69830,6,0,P|380:159|239:186,1,215.999993408203,4|2,3:2|1:2,0:0:0:0:
202,244,70502,1,10,0:0:0:0:
202,244,70614,1,8,0:0:0:0:
202,244,70726,1,8,3:2:0:0:
95,95,70950,1,10,0:0:0:0:
173,137,71174,1,2,1:2:0:0:
173,137,71285,1,0,1:0:0:0:
173,137,71397,1,2,3:2:0:0:
75,281,71621,6,0,B|45:249|23:235|23:235|52:175|81:100,1,215.999993408203,6|2,3:2|3:2,0:0:0:0:
225,0,72293,2,0,P|236:53|250:105,1,107.999996704102,6|0,1:2|3:0,0:0:0:0:
361,225,72741,1,2,0:0:0:0:
394,140,72965,1,0,3:2:0:0:
161,185,73188,6,0,B|225:161|272:210|254:204|296:261|357:240,1,215.999993408203,6|2,1:2|0:0,0:0:0:0:
474,89,73860,2,0,P|421:96|394:139,1,107.999996704102,2|10,1:2|0:0,0:0:0:0:
454,306,74308,1,8,3:2:0:0:
454,306,74420,1,8,0:0:0:0:
454,306,74532,1,10,0:0:0:0:
393,139,74756,1,2,1:2:0:0:
365,248,74979,5,2,1:2:0:0:
365,248,75091,1,0,1:0:0:0:
365,248,75203,2,0,P|302:222|231:210,1,107.999996704102,6|0,3:2|3:0,0:0:0:0:
448,210,75651,1,2,1:2:0:0:
236,288,75875,2,0,P|335:246|441:225,1,215.999993408203,6|2,3:2|3:2,0:0:0:0:
503,281,76547,1,2,1:2:0:0:
365,150,76771,6,0,P|325:244|391:323,1,215.999993408203,6|2,3:2|3:2,0:0:0:0:
467,142,77442,2,0,P|414:142|372:174,1,107.999996704102,2|2,1:2|3:2,0:0:0:0:
331,239,77778,1,0,1:2:0:0:
331,239,77890,2,0,P|277:239|235:207,1,107.999996704102,2|8,1:2|0:0,0:0:0:0:
234,135,78226,1,10,0:0:0:0:
234,135,78338,2,0,P|244:101|270:61,1,53.9999983520508,0|0,1:2|1:2,0:0:0:0:
138,17,78562,2,0,P|149:41|156:67,1,53.9999983520508,2|0,1:2|1:2,0:0:0:0:
4,155,78785,6,0,P|76:149|103:197,1,107.999996704102,6|0,3:2|3:0,0:0:0:0:
85,384,79233,2,0,P|47:347|52:296,1,107.999996704102,2|2,1:2|3:2,0:0:0:0:
122,261,79569,1,0,3:0:0:0:
122,261,79681,2,0,P|176:269|234:308,1,107.999996704102,2|0,1:2|3:0,0:0:0:0:
265,152,80129,2,0,P|211:144|165:117,1,107.999996704102,2|2,1:2|3:2,0:0:0:0:
312,330,80577,6,0,P|325:280|351:221,1,107.999996704102,6|0,1:2|0:0,0:0:0:0:
381,162,80912,1,2,3:2:0:0:
381,162,81024,2,0,P|437:174|457:232,1,107.999996704102,2|2,1:2|3:2,0:0:0:0:
504,384,81472,2,0,P|486:329|526:283,1,107.999996704102,2|2,1:2|3:2,0:0:0:0:
299,253,81920,2,0,P|351:266|402:283,1,107.999996704102,2|2,1:2|3:2,0:0:0:0:
190,359,82368,6,0,P|292:325|397:297,1,215.999993408203,6|2,1:2|1:2,0:0:0:0:
486,159,83039,1,2,3:2:0:0:
417,199,83263,2,0,P|365:182|313:168,1,107.999996704102,2|0,1:2|1:0,0:0:0:0:
278,106,83599,1,0,1:0:0:0:
278,106,83711,2,0,P|288:81|309:64,1,53.9999983520508,0|8,1:2|0:3,0:0:0:0:
438,98,83935,2,0,P|411:101|386:91,1,53.9999983520508,4|4,0:3|0:3,0:0:0:0:
372,11,84159,5,4,3:2:0:0:
73,319,85950,5,4,3:2:0:0:
256,192,86062,12,0,89084,0:0:0:0:
