osu file format v14

[General]
AudioFilename: audio.mp3
AudioLeadIn: 0
PreviewTime: 48562
Countdown: 0
SampleSet: Soft
StackLeniency: 0.7
Mode: 0
LetterboxInBreaks: 0
WidescreenStoryboard: 1

[Editor]
Bookmarks: 54830,64457,71621,78785
DistanceSpacing: 1.05
BeatDivisor: 4
GridSize: 8
TimelineZoom: 1.86

[Metadata]
Title:Startear (TV Size)
TitleUnicode:Startear (TV Size)
Artist:Haruna Luna
ArtistUnicode:春奈るな
Creator:Fanboyyou
Version:Hard
Source:ソードアート・オンラインⅡ
Tags:PGM Ultima Ratio Hecate II Gun Gale Online GGO Phantom Bullet anime ending ed sword art online II sao season second two 2 sinon シノン shino asada 朝田 詩乃 j pop j-pop jpop japanese
BeatmapID:3619265
BeatmapSetID:1750705

[Difficulty]
HPDrainRate:4
CircleSize:3.7
OverallDifficulty:6
ApproachRate:6.5
SliderMultiplier:1.4
SliderTickRate:1

[Events]
//Background and Video events
0,0,"sinon.jpg",0,0
Video,-1050,"www.mp4"
//Break Periods
//Storyboard Layer 0 (Background)
//Storyboard Layer 1 (Fail)
//Storyboard Layer 2 (Pass)
//Storyboard Layer 3 (Foreground)
//Storyboard Layer 4 (Overlay)
//Storyboard Sound Samples

[TimingPoints]
-20,447.76119402985,4,2,1,40,1,0
427,-125,4,2,1,40,0,0
5353,-125,4,2,1,50,0,0
12517,-100,4,2,1,70,0,0
19681,-125,4,2,1,50,0,0
34009,-125,4,2,1,40,0,0
41174,-100,4,2,1,60,0,0
46323,-100,4,2,1,70,0,0
50129,-90.9090909090909,4,2,1,80,0,0
86845,-90.9090909090909,4,2,1,60,0,0
87741,-90.9090909090909,4,2,1,20,0,0
88636,-90.9090909090909,4,2,1,5,0,0

[Colours]
Combo1 : 79,167,255
Combo2 : 117,215,232
Combo3 : 214,122,214

[HitObjects]
202,207,427,6,0,P|255:191|311:182,2,112,2|2|2,0:0|0:0|0:0,0:0:0:0:
95,322,1771,2,0,P|20:302|7:265,1,112,2|2,0:0|0:0,0:0:0:0:
15,198,2442,1,2,0:0:0:0:
270,76,3338,5,2,0:0:0:0:
270,76,3562,2,0,P|290:150|264:180,1,112,2|2,0:0|0:0,0:0:0:0:
202,207,4233,1,2,0:0:0:0:
0,15,5129,5,2,0:0:0:0:
0,15,5353,2,0,P|55:24|109:35,1,112,2|2,0:0|0:0,0:0:0:0:
160,96,6024,2,0,P|214:84|269:75,1,112,2|2,0:0|0:0,0:0:0:0:
93,137,6920,6,0,P|81:193|128:246,1,112,2|2,0:0|0:0,0:0:0:0:
186,267,7591,1,2,0:0:0:0:
186,267,7815,2,0,P|241:248|262:182,1,112,2|2,0:0|0:0,0:0:0:0:
244,127,8487,1,2,0:0:0:0:
244,127,8935,6,0,P|301:137|352:153,1,112,2|2,0:0|0:0,0:0:0:0:
385,224,9606,2,0,P|442:214|493:198,2,112,2|2|2,0:0|0:0|0:0,0:0:0:0:
256,192,10614,12,2,12069,0:0:0:0:
92,84,12517,6,0,P|58:70|26:58,2,70,6|2|2,3:2|0:0|1:2,0:0:0:0:
147,137,13188,1,2,0:0:0:0:
226,116,13412,1,10,3:2:0:0:
226,116,13524,1,8,0:0:0:0:
226,116,13636,1,10,0:2:0:0:
283,167,13860,2,0,P|298:206|315:259,1,70,2|2,1:2|0:0,0:0:0:0:
400,273,14308,6,0,P|411:239|424:207,2,70,2|2|2,3:2|0:0|1:2,0:0:0:0:
406,349,14979,1,2,0:0:0:0:
332,372,15203,1,10,3:2:0:0:
332,372,15315,1,8,0:2:0:0:
332,372,15427,1,10,0:2:0:0:
273,305,15651,2,0,P|231:277|187:281,1,70,2|2,1:2|0:0,0:0:0:0:
172,341,16099,6,0,P|145:363|112:372,2,70,2|2|2,3:2|0:0|1:2,0:0:0:0:
221,283,16771,1,10,0:0:0:0:
221,283,16882,1,8,0:0:0:0:
221,283,16994,1,10,3:2:0:0:
159,216,17218,1,2,0:0:0:0:
220,161,17442,1,2,3:2:0:0:
118,109,17666,6,0,B|210:113|166:149|257:152,1,140,2|8,1:2|0:3,0:0:0:0:
304,98,18338,1,2,3:2:0:0:
369,202,18562,1,2,1:2:0:0:
369,202,19009,2,0,P|383:147|413:65,1,140,6|10,3:2|0:0,0:0:0:0:
429,36,19569,5,8,0:0:0:0:
428,35,19681,2,0,P|387:0|329:14,1,112,6|2,3:2|0:0,0:0:0:0:
278,65,20353,2,0,P|268:118|308:162,1,112,2|2,1:2|0:0,0:0:0:0:
369,202,21024,2,0,P|401:191|428:185,1,56,0|2,1:0|0:0,0:0:0:0:
347,283,21472,6,0,P|294:264|239:251,1,112,2|2,3:2|0:0,0:0:0:0:
167,220,22144,1,2,1:2:0:0:
113,367,22591,1,8,0:0:0:0:
192,370,22815,2,0,P|218:360|245:354,1,56,0|2,1:0|0:0,0:0:0:0:
287,348,23151,5,2,0:0:0:0:
287,348,23263,2,0,P|326:297|309:249,1,112,2|2,3:2|0:0,0:0:0:0:
240,228,23935,2,0,P|203:188|212:135,1,112,2|2,1:2|0:0,0:0:0:0:
279,94,24606,2,0,P|308:86|336:81,1,56,0|2,1:0|0:0,0:0:0:0:
366,58,24942,5,2,0:0:0:0:
366,58,25054,2,0,P|419:73|474:86,1,112,2|2,3:2|0:0,0:0:0:0:
512,154,25726,1,2,1:2:0:0:
393,256,26174,1,10,0:0:0:0:
346,193,26397,1,0,1:2:0:0:
269,190,26621,5,2,0:0:0:0:
269,190,26733,1,2,0:0:0:0:
269,190,26845,2,0,B|234:196|216:175|226:171|202:149|168:154,1,112,2|2,3:2|0:0,0:0:0:0:
93,179,27517,1,2,1:2:0:0:
138,329,27965,1,10,0:0:0:0:
74,378,28188,2,0,P|46:372|26:354,1,56,0|2,1:0|0:0,0:0:0:0:
13,322,28524,5,2,0:0:0:0:
13,322,28636,2,0,P|25:267|42:213,1,112,2|2,3:2|0:0,0:0:0:0:
24,136,29308,2,0,P|71:88|126:102,1,112,2|10,1:2|0:0,0:0:0:0:
175,142,29979,2,0,P|217:132|242:128,1,56,2|2,1:2|0:0,0:0:0:0:
257,102,30315,5,2,0:0:0:0:
257,102,30427,2,0,P|312:111|366:125,1,112,2|2,3:2|0:0,0:0:0:0:
432,168,31099,2,0,P|416:207|407:248,1,84,2|8,1:2|0:0,0:0:0:0:
427,282,31547,1,10,0:0:0:0:
462,351,31771,2,0,P|420:366|405:379,1,56,2|2,1:2|0:0,0:0:0:0:
333,367,32218,6,0,P|287:314|304:258,1,112,2|2,3:2|0:0,0:0:0:0:
295,198,32890,1,2,1:2:0:0:
250,133,33114,2,0,P|208:142|180:154,1,56,2|4,0:0|0:3,0:0:0:0:
146,207,33562,1,12,0:3:0:0:
0,46,34009,6,0,P|52:62|69:67,1,56,2|2,0:0|0:0,0:0:0:0:
124,27,34457,2,0,P|150:18|177:10,1,56,2|2,0:0|0:0,0:0:0:0:
246,47,34905,2,0,L|228:122,2,56,2|2|2,0:0|0:0|0:0,0:0:0:0:
318,16,35577,1,2,0:0:0:0:
393,34,35800,6,0,P|427:78|424:138,1,112,2|2,0:0|0:0,0:0:0:0:
468,198,36472,2,0,P|446:249|393:276,1,112,2|8,0:0|0:3,0:0:0:0:
364,266,37032,1,8,0:3:0:0:
364,266,37144,1,4,3:0:0:0:
234,353,37591,6,0,P|241:322|249:299,1,56,2|2,0:0|0:0,0:0:0:0:
179,261,38039,2,0,P|173:233|164:207,1,56,2|2,0:0|0:0,0:0:0:0:
214,146,38487,2,0,P|250:152|280:163,2,56,2|2|2,0:0|0:0|0:0,0:0:0:0:
155,93,39159,1,2,0:0:0:0:
86,130,39382,6,0,P|37:105|24:50,1,112,2|2,0:0|0:0,0:0:0:0:
93,15,40054,2,0,P|141:39|154:94,1,112,2|2,0:0|0:0,0:0:0:0:
214,146,40726,1,4,3:0:0:0:
440,4,41174,6,0,P|399:13|347:30,1,70,6|2,1:2|0:0,0:0:0:0:
322,78,41621,2,0,P|320:113|339:143,1,70,2|2,3:2|1:2,0:0:0:0:
413,162,42069,2,0,P|443:146|460:114,1,70,2|2,3:2|0:0,0:0:0:0:
426,51,42517,1,2,1:2:0:0:
426,51,42741,1,2,0:0:0:0:
337,141,42965,6,0,P|363:222|380:292,1,140,6|2,3:2|3:2,0:0:0:0:
334,339,43636,2,0,P|266:320|198:305,1,140,2|2,1:2|0:0,0:0:0:0:
160,238,44308,1,2,1:2:0:0:
104,289,44532,5,10,0:0:0:0:
104,289,44644,1,8,0:0:0:0:
104,288,44756,2,0,P|69:288|43:266,1,70,10|0,3:2|3:2,0:0:0:0:
36,189,45203,2,0,P|19:158|24:124,1,70,2|2,1:2|1:2,0:0:0:0:
54,100,45539,1,0,1:2:0:0:
54,100,45651,2,0,P|99:108|141:117,1,70,0|2,1:2|1:2,0:0:0:0:
278,0,46323,6,0,P|220:51|246:124,1,140,6|0,3:2|3:2,0:0:0:0:
292,150,46994,2,0,P|306:193|312:230,1,70,2|0,1:2|1:2,0:0:0:0:
286,247,47330,1,0,1:2:0:0:
286,247,47442,2,0,P|272:290|266:327,1,70,2|4,1:2|3:0,0:0:0:0:
308,380,47890,1,8,3:0:0:0:
380,246,48114,6,0,P|434:249|469:324,1,140,6|2,1:2|1:2,0:0:0:0:
431,384,48785,1,2,1:2:0:0:
28,73,50129,6,0,B|16:95|3:119|3:119|27:168|46:218,1,154.000004699707,6|2,3:2|1:2,0:0:0:0:
125,251,50800,1,2,1:2:0:0:
125,251,50912,1,0,1:2:0:0:
125,251,51024,2,0,P|166:241|225:229,1,77.0000023498536,0|2,3:2|0:0,0:0:0:0:
215,154,51472,2,0,P|256:164|315:176,1,77.0000023498536,0|2,1:2|3:2,0:0:0:0:
349,274,51920,6,0,P|362:202|460:196,1,154.000004699707,6|2,3:2|1:2,0:0:0:0:
496,231,52591,1,10,0:0:0:0:
502,311,52815,2,0,P|458:323|415:341,1,77.0000023498536,8|8,3:2|0:0,0:0:0:0:
365,384,53263,1,0,1:2:0:0:
365,384,53487,1,2,3:2:0:0:
257,318,53711,6,0,P|229:259|303:182,1,154.000004699707,6|2,3:2|1:2,0:0:0:0:
343,151,54382,2,0,P|371:92|297:15,1,154.000004699707,6|2,0:0|0:0,0:0:0:0:
249,25,55054,1,0,1:2:0:0:
195,85,55278,5,10,0:2:0:0:
195,85,55390,1,8,0:0:0:0:
194,84,55502,2,0,P|157:73|121:61,1,77.0000023498536,12|2,3:2|0:0,0:0:0:0:
59,113,55950,1,2,1:2:0:0:
59,113,56174,2,0,P|72:150|83:186,1,77.0000023498536,2|8,0:0|3:2,0:0:0:0:
94,266,56621,1,10,0:0:0:0:
168,297,56845,2,0,P|204:284|241:273,1,77.0000023498536,2|2,1:2|3:2,0:0:0:0:
331,183,57293,6,0,B|317:212|305:229|305:229|323:269|340:323,1,154.000004699707,6|2,3:2|1:2,0:0:0:0:
423,301,57965,1,10,0:0:0:0:
423,301,58077,1,8,0:0:0:0:
423,301,58188,2,0,P|433:255|445:211,1,77.0000023498536,8|10,3:2|0:0,0:0:0:0:
488,161,58636,1,0,1:2:0:0:
488,161,58860,1,2,0:0:0:0:
462,41,59084,6,0,B|415:33|388:67|401:69|374:103|326:92,1,154.000004699707,4|2,3:2|1:2,0:0:0:0:
273,33,59756,1,2,0:0:0:0:
192,38,59979,2,0,L|175:-2,2,38.5000011749268,10|0|10,3:2|1:2|0:2,0:0:0:0:
212,116,60427,2,0,P|196:155|183:195,1,77.0000023498536,2|2,1:2|0:0,0:0:0:0:
142,288,60875,6,0,P|193:235|281:264,1,154.000004699707,6|2,3:2|1:2,0:0:0:0:
354,244,61547,1,10,0:0:0:0:
354,244,61659,1,8,0:0:0:0:
354,244,61771,2,0,P|330:299|322:338,1,77.0000023498536,8|10,3:2|0:0,0:0:0:0:
232,367,62218,1,6,1:2:0:0:
163,323,62442,2,0,P|91:297|0:283,1,154.000004699707,6|2,1:2|0:0,0:0:0:0:
7,203,63114,6,0,P|28:162|91:154,1,77.0000023498536,2|0,1:2|0:0,0:0:0:0:
88,75,63562,2,0,P|134:72|172:123,1,77.0000023498536,6|0,3:2|1:0,0:0:0:0:
184,119,63897,1,0,1:0:0:0:
184,119,64009,2,0,P|178:137|172:155,1,38.5000011749268,2|0,1:2|1:0,0:0:0:0:
155,192,64233,2,0,P|160:210|166:228,1,38.5000011749268,8|4,0:3|0:3,0:0:0:0:
168,269,64457,6,0,B|191:297|233:291|233:291|312:272,1,154.000004699707,6|2,3:2|1:2,0:0:0:0:
395,249,65129,1,2,1:2:0:0:
395,249,65241,1,8,0:0:0:0:
395,249,65353,2,0,P|386:211|375:174,1,77.0000023498536,8|8,3:2|0:0,0:0:0:0:
432,118,65800,1,0,1:2:0:0:
432,118,66024,1,2,3:2:0:0:
408,2,66248,6,0,P|335:11|308:80,1,154.000004699707,6|2,3:2|1:2,0:0:0:0:
249,134,66920,1,10,0:0:0:0:
249,134,67032,1,8,0:0:0:0:
249,134,67144,2,0,P|199:121|155:111,1,77.0000023498536,8|8,3:2|0:0,0:0:0:0:
107,80,67591,1,0,1:2:0:0:
107,80,67815,1,2,3:2:0:0:
13,171,68039,6,0,P|45:262|61:323,1,154.000004699707,6|2,3:2|1:2,0:0:0:0:
140,318,68711,2,0,P|178:289|226:295,1,77.0000023498536,6|8,0:0|3:2,0:0:0:0:
273,243,69159,2,0,P|317:261|335:305,1,77.0000023498536,10|0,0:0|1:2,0:0:0:0:
359,360,69606,1,2,3:2:0:0:
456,299,69830,6,0,P|480:225|511:155,1,154.000004699707,4|2,3:2|1:2,0:0:0:0:
495,81,70502,1,10,0:0:0:0:
495,81,70614,1,8,0:0:0:0:
495,81,70726,2,0,P|431:93|422:121,1,77.0000023498536,8|10,3:2|0:0,0:0:0:0:
389,169,71174,2,0,P|396:191|400:221,2,38.5000011749268,2|0|2,1:2|1:0|3:2,0:0:0:0:
308,100,71621,6,0,P|236:122|185:55,1,154.000004699707,6|2,3:2|3:2,0:0:0:0:
130,12,72293,2,0,P|60:-10|8:41,1,154.000004699707,6|2,1:2|0:0,0:0:0:0:
55,107,72965,1,0,3:2:0:0:
1,197,73188,6,0,P|24:265|53:375,1,154.000004699707,6|2,1:2|0:0,0:0:0:0:
122,384,73860,1,2,1:2:0:0:
122,384,74084,1,10,0:0:0:0:
185,334,74308,2,0,L|247:355,2,38.5000011749268,8|8|10,3:2|0:0|0:0,0:0:0:0:
145,263,74756,2,0,P|149:225|176:198,1,77.0000023498536,2|2,1:2|1:2,0:0:0:0:
215,189,75091,5,0,1:0:0:0:
215,189,75203,2,0,P|253:198|289:210,1,77.0000023498536,6|0,3:2|3:0,0:0:0:0:
360,249,75651,1,2,1:2:0:0:
468,173,75875,2,0,B|448:196|427:210|427:210|445:258|457:303,1,154.000004699707,6|2,3:2|3:2,0:0:0:0:
445,384,76547,1,2,1:2:0:0:
334,351,76771,6,0,P|263:324|189:301,1,154.000004699707,6|2,3:2|3:2,0:0:0:0:
116,338,77442,1,2,1:2:0:0:
56,286,77666,1,2,3:2:0:0:
56,286,77778,1,0,1:2:0:0:
56,286,77890,2,0,P|44:241|30:203,1,77.0000023498536,2|8,1:2|0:0,0:0:0:0:
113,102,78338,2,0,P|109:121|104:140,3,38.5000011749268,0|0|2|0,1:2|1:2|1:2|1:2,0:0:0:0:
127,172,78785,6,0,P|158:194|199:193,1,77.0000023498536,6|0,3:2|3:0,0:0:0:0:
265,236,79233,2,0,P|295:214|308:175,1,77.0000023498536,2|2,1:2|3:2,0:0:0:0:
335,148,79569,1,0,3:0:0:0:
335,148,79681,2,0,P|384:132|428:122,1,77.0000023498536,2|0,1:2|3:0,0:0:0:0:
474,173,80129,2,0,P|457:231|448:269,1,77.0000023498536,2|2,1:2|3:2,0:0:0:0:
500,384,80577,6,0,P|483:349|450:331,1,77.0000023498536,6|0,1:2|0:0,0:0:0:0:
381,288,81024,2,0,P|343:284|311:304,1,77.0000023498536,2|2,1:2|3:2,0:0:0:0:
259,367,81472,2,0,P|208:353|135:342,2,115.50000352478,2|2|2,1:2|0:0|3:2,0:0:0:0:
311,304,82368,6,0,P|297:268|285:231,1,77.0000023498536,6|0,1:2|0:0,0:0:0:0:
308,197,82703,1,0,3:0:0:0:
308,197,82815,2,0,P|321:161|333:124,1,77.0000023498536,2|2,1:2|3:2,0:0:0:0:
295,52,83263,1,2,1:2:0:0:
214,44,83487,1,0,1:0:0:0:
214,44,83599,1,0,1:0:0:0:
214,44,83711,2,0,P|168:57|147:69,1,38.5000011749268,0|8,1:2|0:3,0:0:0:0:
148,83,83935,2,0,P|129:77|110:73,1,38.5000011749268,4|4,0:3|0:3,0:0:0:0:
81,44,84159,5,4,3:2:0:0:
353,315,85950,5,4,3:2:0:0:
256,192,86062,12,0,89084,0:0:0:0:
