osu file format v14

[General]
AudioFilename: FZ ed.mp3
AudioLeadIn: 2000
PreviewTime: 46078
Countdown: 0
SampleSet: None
StackLeniency: 0.7
Mode: 3
LetterboxInBreaks: 0
SpecialStyle: 0
WidescreenStoryboard: 1

[Editor]
DistanceSpacing: 0.5
BeatDivisor: 8
GridSize: 4
TimelineZoom: 2.899999

[Metadata]
Title:Sora wa Takaku Kaze wa Utau (TV Size)
TitleUnicode:Sora wa Takaku Kaze wa Utau (TV Size)
Artist:Haruna Luna
ArtistUnicode:Haruna Luna
Creator:Freek
Version:Advanced
Source:Fate/Zero
Tags:ending Yuki Kajiura fate zero
BeatmapID:2603773
BeatmapSetID:754811

[Difficulty]
HPDrainRate:8
CircleSize:6
OverallDifficulty:7.5
ApproachRate:8
SliderMultiplier:1.8
SliderTickRate:1

[Events]
//Background and Video events
0,0,"363c3d4ebfcbec4ad0c86aef.jpg",0,0
Video,0,"Fate Zero2 ED.avi"
//Break Periods
//Storyboard Layer 0 (Background)
//Storyboard Layer 1 (Fail)
//Storyboard Layer 2 (Pass)
//Storyboard Layer 3 (Foreground)
//Storyboard Layer 4 (Overlay)
//Storyboard Sound Samples

[TimingPoints]
140,625,4,2,1,60,1,0
140,-117.647058823529,4,2,1,60,0,0
20140,-100,4,1,1,50,0,0
20296,-100,4,2,1,70,0,0
25140,-133.333333333333,4,2,1,70,0,0
26077,-100,4,2,1,70,0,0
34515,-95.2380952380952,4,2,1,40,0,0
35140,-95.2380952380952,4,2,1,30,0,0
47640,-90.9090909090909,4,2,1,80,0,1
67483,-90.9090909090909,4,2,1,80,0,0
67640,-90.9090909090909,4,2,1,80,0,1
85140,-111.111111111111,4,2,1,60,0,0

[Colours]
Combo1 : 132,255,255
Combo2 : 128,128,255
Combo3 : 5,5,240
SliderBorder : 195,193,194

[HitObjects]
298,192,140,5,0,0:0:0:0:
384,192,140,1,0,0:0:0:0:
213,192,296,1,0,0:0:0:0:
128,192,452,1,0,0:0:0:0:
42,192,452,1,0,0:0:0:0:
298,192,608,1,0,0:0:0:0:
213,192,765,1,0,0:0:0:0:
384,192,765,1,0,0:0:0:0:
128,192,921,1,0,0:0:0:0:
298,192,1077,1,0,0:0:0:0:
384,192,1077,1,0,0:0:0:0:
42,192,1233,1,0,0:0:0:0:
384,192,1390,1,0,0:0:0:0:
469,192,1390,1,0,0:0:0:0:
298,192,1546,1,0,0:0:0:0:
213,192,1702,1,0,0:0:0:0:
128,192,1702,1,0,0:0:0:0:
384,192,1858,1,0,0:0:0:0:
298,192,2015,1,0,0:0:0:0:
213,192,2015,1,0,0:0:0:0:
469,192,2171,1,0,0:0:0:0:
384,192,2327,1,0,0:0:0:0:
298,192,2327,1,0,0:0:0:0:
213,192,2483,1,0,0:0:0:0:
469,192,2640,1,0,0:0:0:0:
384,192,2640,1,0,0:0:0:0:
128,192,2796,1,0,0:0:0:0:
298,192,2952,1,0,0:0:0:0:
213,192,2952,1,0,0:0:0:0:
42,192,3108,1,0,0:0:0:0:
384,192,3265,1,0,0:0:0:0:
298,192,3265,1,0,0:0:0:0:
469,192,3421,1,0,0:0:0:0:
213,192,3577,1,0,0:0:0:0:
298,192,3577,1,0,0:0:0:0:
128,192,3733,1,0,0:0:0:0:
298,192,3890,1,0,0:0:0:0:
384,192,3890,1,0,0:0:0:0:
469,192,4046,1,0,0:0:0:0:
128,192,4202,1,0,0:0:0:0:
213,192,4202,1,0,0:0:0:0:
298,192,4358,1,0,0:0:0:0:
213,192,4515,1,0,0:0:0:0:
42,192,4515,1,0,0:0:0:0:
384,192,4515,1,0,0:0:0:0:
469,192,4671,1,0,0:0:0:0:
128,192,4827,1,0,0:0:0:0:
42,192,4827,1,0,0:0:0:0:
298,192,4983,1,0,0:0:0:0:
213,192,5140,1,0,0:0:0:0:
384,192,5140,1,0,0:0:0:0:
298,192,5296,1,0,0:0:0:0:
42,192,5452,1,0,0:0:0:0:
128,192,5452,1,0,0:0:0:0:
298,192,5608,1,0,0:0:0:0:
128,192,5765,1,0,0:0:0:0:
213,192,5765,1,0,0:0:0:0:
384,192,5921,1,0,0:0:0:0:
213,192,6077,1,0,0:0:0:0:
298,192,6077,1,0,0:0:0:0:
469,192,6233,1,0,0:0:0:0:
298,192,6390,1,0,0:0:0:0:
384,192,6390,1,0,0:0:0:0:
213,192,6546,1,0,0:0:0:0:
128,192,6702,1,0,0:0:0:0:
42,192,6702,1,0,0:0:0:0:
384,192,6858,1,0,0:0:0:0:
213,192,7015,1,0,0:0:0:0:
298,192,7015,1,0,0:0:0:0:
469,192,7171,1,0,0:0:0:0:
298,192,7327,1,0,0:0:0:0:
384,192,7327,1,0,0:0:0:0:
213,192,7483,1,0,0:0:0:0:
384,192,7640,1,0,0:0:0:0:
469,192,7640,1,0,0:0:0:0:
128,192,7796,1,0,0:0:0:0:
298,192,7952,1,0,0:0:0:0:
213,192,7952,1,0,0:0:0:0:
42,192,8108,1,0,0:0:0:0:
469,192,8265,1,0,0:0:0:0:
384,192,8265,1,0,0:0:0:0:
128,192,8421,1,0,0:0:0:0:
298,192,8577,1,0,0:0:0:0:
213,192,8577,1,0,0:0:0:0:
469,192,8733,1,0,0:0:0:0:
384,192,8890,1,0,0:0:0:0:
298,192,8890,1,0,0:0:0:0:
469,192,9046,1,0,0:0:0:0:
213,192,9202,1,0,0:0:0:0:
298,192,9202,1,0,0:0:0:0:
128,192,9358,1,0,0:0:0:0:
298,192,9515,1,0,0:0:0:0:
384,192,9515,1,0,0:0:0:0:
213,192,9671,1,0,0:0:0:0:
128,192,9827,1,0,0:0:0:0:
42,192,9827,1,0,0:0:0:0:
384,192,9983,1,0,0:0:0:0:
213,192,10140,1,0,0:0:0:0:
298,192,10140,1,0,0:0:0:0:
469,192,10296,1,0,0:0:0:0:
42,192,10452,1,0,0:0:0:0:
128,192,10452,1,0,0:0:0:0:
298,192,10608,1,0,0:0:0:0:
128,192,10765,1,0,0:0:0:0:
213,192,10765,1,0,0:0:0:0:
384,192,10921,1,0,0:0:0:0:
213,192,11077,1,0,0:0:0:0:
298,192,11077,1,0,0:0:0:0:
469,192,11233,1,0,0:0:0:0:
384,192,11390,1,0,0:0:0:0:
298,192,11390,1,0,0:0:0:0:
42,192,11546,1,0,0:0:0:0:
213,192,11702,1,0,0:0:0:0:
128,192,11702,1,0,0:0:0:0:
384,192,11858,1,0,0:0:0:0:
298,192,12015,1,0,0:0:0:0:
213,192,12015,1,0,0:0:0:0:
128,192,12171,1,0,0:0:0:0:
384,192,12327,1,0,0:0:0:0:
469,192,12327,1,0,0:0:0:0:
298,192,12483,1,0,0:0:0:0:
213,192,12640,1,0,0:0:0:0:
128,192,12640,1,0,0:0:0:0:
384,192,12796,1,0,0:0:0:0:
128,192,12952,1,0,0:0:0:0:
42,192,12952,1,0,0:0:0:0:
298,192,13108,1,0,0:0:0:0:
213,192,13265,1,0,0:0:0:0:
128,192,13265,1,0,0:0:0:0:
384,192,13421,1,0,0:0:0:0:
298,192,13577,1,0,0:0:0:0:
213,192,13577,1,0,0:0:0:0:
469,192,13733,1,0,0:0:0:0:
213,192,13890,1,0,0:0:0:0:
128,192,13890,1,0,0:0:0:0:
298,192,14046,1,0,0:0:0:0:
42,192,14202,1,0,0:0:0:0:
128,192,14202,1,0,0:0:0:0:
298,192,14358,1,0,0:0:0:0:
128,192,14515,1,0,0:0:0:0:
213,192,14515,1,0,0:0:0:0:
384,192,14671,1,0,0:0:0:0:
213,192,14827,1,0,0:0:0:0:
298,192,14827,1,0,0:0:0:0:
128,192,14983,1,0,0:0:0:0:
298,192,15140,1,0,0:0:0:0:
384,192,15140,1,0,0:0:0:0:
469,192,15296,1,0,0:0:0:0:
213,192,15452,1,0,0:0:0:0:
128,192,15452,1,0,0:0:0:0:
42,192,15608,1,0,0:0:0:0:
298,192,15765,1,0,0:0:0:0:
213,192,15765,1,0,0:0:0:0:
128,192,15921,1,0,0:0:0:0:
384,192,16077,1,0,0:0:0:0:
298,192,16077,1,0,0:0:0:0:
213,192,16233,1,0,0:0:0:0:
469,192,16390,1,0,0:0:0:0:
384,192,16390,1,0,0:0:0:0:
213,192,16546,1,0,0:0:0:0:
384,192,16702,1,0,0:0:0:0:
298,192,16702,1,0,0:0:0:0:
128,192,16858,1,0,0:0:0:0:
298,192,17015,1,0,0:0:0:0:
213,192,17015,1,0,0:0:0:0:
42,192,17171,1,0,0:0:0:0:
213,192,17327,1,0,0:0:0:0:
128,192,17327,1,0,0:0:0:0:
298,192,17483,1,0,0:0:0:0:
128,192,17640,1,0,0:0:0:0:
42,192,17640,1,0,0:0:0:0:
298,192,17796,1,0,0:0:0:0:
42,192,17952,1,0,0:0:0:0:
469,192,17952,1,0,0:0:0:0:
384,192,18108,1,0,0:0:0:0:
128,192,18265,1,0,0:0:0:0:
213,192,18265,1,0,0:0:0:0:
384,192,18421,1,0,0:0:0:0:
213,192,18577,1,0,0:0:0:0:
42,192,18577,1,0,0:0:0:0:
128,192,18577,1,0,0:0:0:0:
469,192,18733,1,0,0:0:0:0:
298,192,18890,1,0,0:0:0:0:
213,192,18890,1,0,0:0:0:0:
384,192,18942,1,0,0:0:0:0:
469,192,18994,1,0,0:0:0:0:
42,192,19046,1,0,0:0:0:0:
128,192,19202,1,0,0:0:0:0:
213,192,19515,1,0,0:0:0:0:
298,192,19515,1,0,0:0:0:0:
384,192,19671,1,0,0:0:0:0:
128,192,19827,1,0,0:0:0:0:
298,192,19983,1,0,0:0:0:0:
128,192,20140,1,0,0:0:0:0:
384,192,20140,1,0,0:0:0:0:
469,192,20140,1,0,0:0:0:0:
213,192,20296,1,0,0:0:0:0:
42,192,20452,1,0,0:0:0:0:
384,192,20452,1,0,0:0:0:0:
298,192,20452,1,0,0:0:0:0:
213,192,20608,1,0,0:0:0:0:
128,192,20765,1,0,0:0:0:0:
469,192,20765,1,0,0:0:0:0:
298,192,20765,1,0,0:0:0:0:
384,192,20921,1,0,0:0:0:0:
213,192,21077,1,0,0:0:0:0:
42,192,21077,1,0,0:0:0:0:
128,192,21233,1,0,0:0:0:0:
298,192,21390,1,0,0:0:0:0:
384,192,21390,1,0,0:0:0:0:
213,192,21546,1,0,0:0:0:0:
128,192,21702,1,0,0:0:0:0:
384,192,21702,1,0,0:0:0:0:
42,192,21702,1,0,0:0:0:0:
298,192,21858,1,0,0:0:0:0:
213,192,22015,1,0,0:0:0:0:
469,192,22015,1,0,0:0:0:0:
128,192,22015,1,0,0:0:0:0:
384,192,22171,1,0,0:0:0:0:
298,192,22327,1,0,0:0:0:0:
213,192,22327,1,0,0:0:0:0:
469,192,22483,1,0,0:0:0:0:
384,192,22640,1,0,0:0:0:0:
42,192,22640,1,0,0:0:0:0:
213,192,22640,1,0,0:0:0:0:
128,192,22796,1,0,0:0:0:0:
213,192,22952,1,0,0:0:0:0:
42,192,22952,1,0,0:0:0:0:
298,192,22952,1,0,0:0:0:0:
384,192,23108,1,0,0:0:0:0:
298,192,23265,1,0,0:0:0:0:
128,192,23265,1,0,0:0:0:0:
469,192,23265,1,0,0:0:0:0:
384,192,23421,1,0,0:0:0:0:
128,192,23577,1,0,0:0:0:0:
298,192,23577,1,0,0:0:0:0:
42,192,23733,1,0,0:0:0:0:
213,192,23890,1,0,0:0:0:0:
298,192,23890,1,0,0:0:0:0:
128,192,24046,1,0,0:0:0:0:
42,192,24202,1,0,0:0:0:0:
384,192,24202,1,0,0:0:0:0:
213,192,24202,1,0,0:0:0:0:
298,192,24358,1,0,0:0:0:0:
128,192,24515,1,0,0:0:0:0:
469,192,24515,1,0,0:0:0:0:
384,192,24515,1,0,0:0:0:0:
298,192,24671,1,0,0:0:0:0:
213,192,24827,1,0,0:0:0:0:
384,192,24827,1,0,0:0:0:0:
128,192,24983,1,0,0:0:0:0:
469,192,25140,1,0,0:0:0:0:
42,192,25140,1,0,0:0:0:0:
298,192,25140,1,0,0:0:0:0:
384,192,25296,1,0,0:0:0:0:
213,192,25452,1,0,0:0:0:0:
42,192,25452,1,0,0:0:0:0:
298,192,25452,1,0,0:0:0:0:
469,192,25608,1,0,0:0:0:0:
298,192,25765,1,0,0:0:0:0:
128,192,25765,1,0,0:0:0:0:
384,192,25765,1,0,0:0:0:0:
42,192,25921,1,0,0:0:0:0:
384,192,26077,1,0,0:0:0:0:
213,192,26077,1,0,0:0:0:0:
298,192,26233,1,0,0:0:0:0:
42,192,26390,1,0,0:0:0:0:
384,192,26390,1,0,0:0:0:0:
213,192,26546,1,0,0:0:0:0:
128,192,26702,1,0,0:0:0:0:
384,192,26702,1,0,0:0:0:0:
42,192,26702,1,0,0:0:0:0:
298,192,26858,1,0,0:0:0:0:
213,192,27015,1,0,0:0:0:0:
469,192,27015,1,0,0:0:0:0:
128,192,27015,1,0,0:0:0:0:
384,192,27171,1,0,0:0:0:0:
298,192,27327,1,0,0:0:0:0:
213,192,27327,1,0,0:0:0:0:
42,192,27483,1,0,0:0:0:0:
384,192,27640,1,0,0:0:0:0:
213,192,27640,1,0,0:0:0:0:
128,192,27640,1,0,0:0:0:0:
469,192,27796,1,0,0:0:0:0:
42,192,27952,1,0,0:0:0:0:
213,192,27952,1,0,0:0:0:0:
298,192,27952,1,0,0:0:0:0:
469,192,28108,1,0,0:0:0:0:
128,192,28265,1,0,0:0:0:0:
298,192,28265,1,0,0:0:0:0:
384,192,28265,1,0,0:0:0:0:
42,192,28421,1,0,0:0:0:0:
213,192,28577,1,0,0:0:0:0:
128,192,28577,1,0,0:0:0:0:
42,192,28733,1,0,0:0:0:0:
298,192,28890,1,0,0:0:0:0:
213,192,28890,1,0,0:0:0:0:
469,192,29046,1,0,0:0:0:0:
128,192,29202,1,0,0:0:0:0:
384,192,29202,1,0,0:0:0:0:
213,192,29202,1,0,0:0:0:0:
298,192,29358,1,0,0:0:0:0:
213,192,29515,1,0,0:0:0:0:
469,192,29515,1,0,0:0:0:0:
42,192,29515,1,0,0:0:0:0:
128,192,29671,1,0,0:0:0:0:
298,192,29827,1,0,0:0:0:0:
213,192,29827,1,0,0:0:0:0:
42,192,29983,1,0,0:0:0:0:
384,192,30140,1,0,0:0:0:0:
213,192,30140,1,0,0:0:0:0:
128,192,30140,1,0,0:0:0:0:
469,192,30296,1,0,0:0:0:0:
42,192,30452,1,0,0:0:0:0:
213,192,30452,1,0,0:0:0:0:
298,192,30452,1,0,0:0:0:0:
469,192,30608,1,0,0:0:0:0:
128,192,30765,1,0,0:0:0:0:
298,192,30765,1,0,0:0:0:0:
384,192,30765,1,0,0:0:0:0:
42,192,30921,1,0,0:0:0:0:
213,192,31077,1,0,0:0:0:0:
298,192,31077,1,0,0:0:0:0:
128,192,31233,1,0,0:0:0:0:
298,192,31390,1,0,0:0:0:0:
384,192,31390,1,0,0:0:0:0:
469,192,31546,1,0,0:0:0:0:
128,192,31702,1,0,0:0:0:0:
384,192,31702,1,0,0:0:0:0:
298,192,31702,1,0,0:0:0:0:
42,192,31858,1,0,0:0:0:0:
213,192,32015,1,0,0:0:0:0:
469,192,32015,1,0,0:0:0:0:
298,192,32015,1,0,0:0:0:0:
128,192,32171,1,0,0:0:0:0:
298,192,32327,1,0,0:0:0:0:
384,192,32327,1,0,0:0:0:0:
213,192,32483,1,0,0:0:0:0:
469,192,32640,1,0,0:0:0:0:
42,192,32640,1,0,0:0:0:0:
298,192,32640,1,0,0:0:0:0:
213,192,32796,1,0,0:0:0:0:
298,192,32952,1,0,0:0:0:0:
42,192,32952,1,0,0:0:0:0:
128,192,32952,1,0,0:0:0:0:
213,192,33108,1,0,0:0:0:0:
384,192,33265,1,0,0:0:0:0:
128,192,33265,1,0,0:0:0:0:
298,192,33265,1,0,0:0:0:0:
213,192,33421,1,0,0:0:0:0:
469,192,33577,1,0,0:0:0:0:
42,192,33577,1,0,0:0:0:0:
298,192,33577,1,0,0:0:0:0:
128,192,33733,1,0,0:0:0:0:
384,192,33890,1,0,0:0:0:0:
298,192,33890,1,0,0:0:0:0:
213,192,34515,1,0,0:0:0:0:
128,192,35140,1,8,3:0:0:0:
384,192,35140,1,8,3:0:0:0:
213,192,35296,1,0,0:0:0:0:
298,192,35452,1,0,0:0:0:0:
213,192,35556,1,0,0:0:0:0:
384,192,35608,1,8,3:0:0:0:
128,192,35608,1,8,3:0:0:0:
298,192,35660,1,0,0:0:0:0:
42,192,35765,1,8,0:0:0:0:
469,192,35765,1,8,0:0:0:0:
213,192,35765,1,0,0:0:0:0:
298,192,36077,1,0,0:0:0:0:
213,192,36390,1,0,0:0:0:0:
128,192,36702,1,8,3:0:0:0:
384,192,36702,1,8,3:0:0:0:
298,192,36702,1,0,0:0:0:0:
213,192,36806,1,0,0:0:0:0:
298,192,36910,1,0,0:0:0:0:
42,192,37015,1,8,0:0:0:0:
469,192,37015,1,8,0:0:0:0:
213,192,37015,1,0,0:0:0:0:
298,192,37327,1,0,0:0:0:0:
128,192,37640,1,8,3:0:0:0:
384,192,37640,1,8,3:0:0:0:
213,192,37640,1,0,0:0:0:0:
298,192,37952,1,0,0:0:0:0:
128,192,38108,1,8,3:0:0:0:
384,192,38108,1,8,3:0:0:0:
42,192,38265,1,8,0:0:0:0:
469,192,38265,1,8,0:0:0:0:
213,192,38265,1,0,0:0:0:0:
298,192,38577,1,0,0:0:0:0:
213,192,38890,1,0,0:0:0:0:
128,192,39202,1,8,0:3:0:0:
384,192,39202,1,8,0:3:0:0:
42,192,39515,1,8,0:0:0:0:
469,192,39515,1,8,0:0:0:0:
298,192,39515,1,0,0:0:0:0:
213,192,39827,1,0,0:0:0:0:
128,192,40140,1,8,0:3:0:0:
384,192,40140,1,8,0:3:0:0:
298,192,40140,1,0,0:0:0:0:
298,192,40452,1,0,0:0:0:0:
213,192,40556,1,0,0:0:0:0:
128,192,40608,1,8,0:3:0:0:
384,192,40608,1,8,0:3:0:0:
298,192,40660,1,0,0:0:0:0:
42,192,40765,1,8,0:0:0:0:
469,192,40765,1,8,0:0:0:0:
213,192,40765,1,0,0:0:0:0:
298,192,41077,1,0,0:0:0:0:
213,192,41390,1,0,0:0:0:0:
128,192,41702,1,8,0:3:0:0:
384,192,41702,1,8,0:3:0:0:
298,192,41702,1,0,0:0:0:0:
213,192,41806,1,0,0:0:0:0:
298,192,41910,1,0,0:0:0:0:
42,192,42015,1,8,0:0:0:0:
469,192,42015,1,8,0:0:0:0:
213,192,42015,1,0,0:0:0:0:
298,192,42327,1,0,0:0:0:0:
128,192,42640,1,8,0:3:0:0:
384,192,42640,1,8,0:3:0:0:
213,192,42640,1,0,0:0:0:0:
128,192,42952,1,8,0:3:0:0:
384,192,42952,1,8,0:3:0:0:
298,192,42952,1,0,0:0:0:0:
42,192,43265,1,8,0:0:0:0:
469,192,43265,1,8,0:0:0:0:
213,192,43265,1,0,0:0:0:0:
128,192,43577,1,8,0:3:0:0:
384,192,43577,1,8,0:3:0:0:
298,192,43577,1,0,0:0:0:0:
213,192,43890,1,0,0:0:0:0:
42,192,43890,1,0,0:0:0:0:
128,192,44046,1,0,0:0:0:0:
128,192,44202,1,8,0:3:0:0:
384,192,44202,1,8,0:3:0:0:
213,192,44202,1,0,0:0:0:0:
298,192,44358,1,0,0:0:0:0:
42,192,44515,1,8,0:0:0:0:
469,192,44515,1,8,0:0:0:0:
384,192,44515,1,0,0:0:0:0:
298,192,44723,1,0,0:0:0:0:
128,192,44827,1,8,0:3:0:0:
384,192,44827,1,8,0:3:0:0:
213,192,44931,1,0,0:0:0:0:
128,192,45140,1,8,0:3:0:0:
384,192,45140,1,8,0:3:0:0:
42,192,45140,1,0,0:0:0:0:
298,192,45765,1,0,0:0:0:0:
128,192,46077,1,8,0:3:0:0:
384,192,46077,1,8,0:3:0:0:
384,192,46936,1,0,0:0:0:0:
42,192,47015,1,0,0:0:0:0:
469,192,47093,1,0,0:0:0:0:
128,192,47171,1,0,0:0:0:0:
384,192,47249,1,0,0:0:0:0:
42,192,47327,1,0,0:0:0:0:
469,192,47405,1,0,0:0:0:0:
128,192,47483,1,0,0:0:0:0:
384,192,47561,1,0,0:0:0:0:
298,192,47640,128,0,49515:0:0:0:0:
213,192,47640,1,8,0:3:0:0:
469,192,47640,1,0,0:0:0:0:
42,192,47640,1,0,0:0:0:0:
42,192,47952,1,0,0:0:0:0:
128,192,48108,1,0,0:0:0:0:
213,192,48108,1,0,0:0:0:0:
384,192,48265,1,0,0:0:0:0:
469,192,48265,1,0,0:0:0:0:
213,192,48421,1,0,0:0:0:0:
42,192,48577,1,0,0:0:0:0:
128,192,48577,1,0,0:0:0:0:
213,192,48890,1,0,0:0:0:0:
128,192,49046,1,0,0:0:0:0:
384,192,49202,1,0,0:0:0:0:
42,192,49202,1,0,0:0:0:0:
128,192,49515,128,0,50140:0:0:0:0:
469,192,49515,1,0,0:0:0:0:
42,192,49515,1,0,0:0:0:0:
213,192,49515,1,0,0:0:0:0:
298,192,49827,1,0,0:0:0:0:
469,192,50140,128,0,52640:0:0:0:0:
213,192,50140,1,0,0:0:0:0:
384,192,50140,1,0,0:0:0:0:
42,192,50140,1,0,0:0:0:0:
298,192,50296,1,0,0:0:0:0:
42,192,50452,1,0,0:0:0:0:
128,192,50608,1,0,0:0:0:0:
298,192,50608,1,0,0:0:0:0:
384,192,50765,1,0,0:0:0:0:
213,192,50765,1,0,0:0:0:0:
298,192,50921,1,0,0:0:0:0:
213,192,51077,1,0,0:0:0:0:
42,192,51077,1,0,0:0:0:0:
128,192,51233,1,0,0:0:0:0:
42,192,51390,1,0,0:0:0:0:
384,192,51546,1,0,0:0:0:0:
298,192,51702,1,0,0:0:0:0:
213,192,52015,1,0,0:0:0:0:
128,192,52327,1,0,0:0:0:0:
213,192,52640,128,0,53890:0:0:0:0:
298,192,52640,1,0,0:0:0:0:
384,192,52640,1,0,0:0:0:0:
128,192,52640,1,0,0:0:0:0:
42,192,52796,1,0,0:0:0:0:
128,192,52952,1,0,0:0:0:0:
42,192,53108,1,0,0:0:0:0:
298,192,53108,1,0,0:0:0:0:
384,192,53265,1,0,0:0:0:0:
128,192,53265,1,0,0:0:0:0:
469,192,53421,1,0,0:0:0:0:
42,192,53577,1,0,0:0:0:0:
128,192,53577,1,0,0:0:0:0:
298,192,53733,1,0,0:0:0:0:
384,192,53890,128,0,55140:0:0:0:0:
469,192,53890,1,0,0:0:0:0:
128,192,53890,1,0,0:0:0:0:
213,192,54046,1,0,0:0:0:0:
128,192,54202,1,0,0:0:0:0:
469,192,54202,1,0,0:0:0:0:
213,192,54358,1,0,0:0:0:0:
298,192,54515,1,0,0:0:0:0:
42,192,54515,1,0,0:0:0:0:
128,192,54827,1,0,0:0:0:0:
213,192,55140,128,0,55765:0:0:0:0:
42,192,55140,1,0,0:0:0:0:
469,192,55140,1,0,0:0:0:0:
298,192,55140,1,0,0:0:0:0:
128,192,55296,1,0,0:0:0:0:
298,192,55452,1,0,0:0:0:0:
384,192,55608,1,0,0:0:0:0:
42,192,55608,1,0,0:0:0:0:
128,192,55765,128,0,56390:0:0:0:0:
469,192,55765,1,0,0:0:0:0:
298,192,55765,1,0,0:0:0:0:
384,192,55921,1,0,0:0:0:0:
42,192,56077,1,0,0:0:0:0:
298,192,56077,1,0,0:0:0:0:
213,192,56233,1,0,0:0:0:0:
42,192,56390,128,0,57015:0:0:0:0:
469,192,56390,1,0,0:0:0:0:
298,192,56390,1,0,0:0:0:0:
213,192,56546,1,0,0:0:0:0:
298,192,56702,1,0,0:0:0:0:
128,192,56702,1,0,0:0:0:0:
384,192,56858,1,0,0:0:0:0:
128,192,57015,128,0,57640:0:0:0:0:
298,192,57015,1,0,0:0:0:0:
469,192,57015,1,0,0:0:0:0:
384,192,57171,1,0,0:0:0:0:
298,192,57327,1,0,0:0:0:0:
42,192,57483,1,0,0:0:0:0:
213,192,57640,128,0,60140:0:0:0:0:
298,192,57640,1,0,0:0:0:0:
469,192,57640,1,0,0:0:0:0:
384,192,57640,1,0,0:0:0:0:
42,192,57796,1,0,0:0:0:0:
298,192,57952,1,0,0:0:0:0:
384,192,58108,1,0,0:0:0:0:
42,192,58108,1,0,0:0:0:0:
298,192,58265,1,0,0:0:0:0:
469,192,58265,1,0,0:0:0:0:
128,192,58421,1,0,0:0:0:0:
469,192,58577,1,0,0:0:0:0:
384,192,58577,1,0,0:0:0:0:
128,192,58733,1,0,0:0:0:0:
384,192,58890,1,0,0:0:0:0:
128,192,59046,1,0,0:0:0:0:
42,192,59202,1,0,0:0:0:0:
298,192,59202,1,0,0:0:0:0:
128,192,59358,1,0,0:0:0:0:
469,192,59515,1,0,0:0:0:0:
384,192,59515,1,0,0:0:0:0:
128,192,59671,1,0,0:0:0:0:
298,192,59827,1,0,0:0:0:0:
42,192,59983,1,0,0:0:0:0:
128,192,60140,128,0,61390:0:0:0:0:
298,192,60140,1,0,0:0:0:0:
469,192,60140,1,0,0:0:0:0:
384,192,60140,1,0,0:0:0:0:
42,192,60296,1,0,0:0:0:0:
213,192,60452,1,0,0:0:0:0:
298,192,60608,1,0,0:0:0:0:
469,192,60608,1,0,0:0:0:0:
384,192,60765,1,0,0:0:0:0:
42,192,60765,1,0,0:0:0:0:
298,192,60921,1,0,0:0:0:0:
384,192,61077,1,0,0:0:0:0:
213,192,61077,1,0,0:0:0:0:
42,192,61233,1,0,0:0:0:0:
298,192,61390,128,0,62640:0:0:0:0:
469,192,61390,1,0,0:0:0:0:
213,192,61390,1,0,0:0:0:0:
128,192,61702,1,0,0:0:0:0:
469,192,61702,1,0,0:0:0:0:
213,192,62015,1,0,0:0:0:0:
469,192,62015,1,0,0:0:0:0:
384,192,62171,1,0,0:0:0:0:
213,192,62327,1,0,0:0:0:0:
128,192,62483,1,0,0:0:0:0:
469,192,62640,128,0,65140:0:0:0:0:
42,192,62640,1,0,0:0:0:0:
213,192,62640,1,0,0:0:0:0:
384,192,62640,1,0,0:0:0:0:
128,192,62796,1,0,0:0:0:0:
213,192,62952,1,0,0:0:0:0:
128,192,63108,1,0,0:0:0:0:
298,192,63108,1,0,0:0:0:0:
384,192,63265,1,0,0:0:0:0:
213,192,63265,1,0,0:0:0:0:
298,192,63421,1,0,0:0:0:0:
213,192,63577,1,0,0:0:0:0:
384,192,63577,1,0,0:0:0:0:
128,192,63733,1,0,0:0:0:0:
298,192,63890,1,0,0:0:0:0:
213,192,64202,1,0,0:0:0:0:
128,192,64202,1,0,0:0:0:0:
42,192,64515,1,0,0:0:0:0:
384,192,64515,1,0,0:0:0:0:
213,192,64827,1,0,0:0:0:0:
298,192,64983,1,0,0:0:0:0:
384,192,65140,128,0,67640:0:0:0:0:
213,192,65140,1,0,0:0:0:0:
42,192,65140,1,0,0:0:0:0:
213,192,65452,1,0,0:0:0:0:
298,192,65452,1,0,0:0:0:0:
128,192,65765,1,0,0:0:0:0:
213,192,65765,1,0,0:0:0:0:
128,192,66077,1,0,0:0:0:0:
42,192,66390,1,0,0:0:0:0:
128,192,66546,1,0,0:0:0:0:
42,192,66702,1,0,0:0:0:0:
213,192,66702,1,0,0:0:0:0:
128,192,66858,1,0,0:0:0:0:
298,192,66858,1,0,0:0:0:0:
213,192,67015,1,0,0:0:0:0:
469,192,67015,1,0,0:0:0:0:
128,192,67327,1,0,0:0:0:0:
298,192,67640,128,0,69515:0:0:0:0:
213,192,67640,1,8,0:3:0:0:
469,192,67640,1,0,0:0:0:0:
42,192,67640,1,0,0:0:0:0:
128,192,67640,1,0,0:0:0:0:
42,192,67952,1,0,0:0:0:0:
128,192,68108,1,0,0:0:0:0:
213,192,68108,1,0,0:0:0:0:
384,192,68265,1,0,0:0:0:0:
469,192,68265,1,0,0:0:0:0:
213,192,68421,1,0,0:0:0:0:
128,192,68577,1,0,0:0:0:0:
42,192,68577,1,0,0:0:0:0:
384,192,68733,1,0,0:0:0:0:
213,192,68890,1,0,0:0:0:0:
128,192,69046,1,0,0:0:0:0:
384,192,69202,1,0,0:0:0:0:
42,192,69202,1,0,0:0:0:0:
128,192,69515,128,0,70140:0:0:0:0:
469,192,69515,1,0,0:0:0:0:
42,192,69515,1,0,0:0:0:0:
213,192,69515,1,0,0:0:0:0:
298,192,69827,1,0,0:0:0:0:
469,192,70140,128,0,72640:0:0:0:0:
213,192,70140,1,0,0:0:0:0:
384,192,70140,1,0,0:0:0:0:
42,192,70140,1,0,0:0:0:0:
298,192,70296,1,0,0:0:0:0:
42,192,70452,1,0,0:0:0:0:
128,192,70608,1,0,0:0:0:0:
298,192,70608,1,0,0:0:0:0:
384,192,70765,1,0,0:0:0:0:
213,192,70765,1,0,0:0:0:0:
298,192,70921,1,0,0:0:0:0:
42,192,71077,1,0,0:0:0:0:
213,192,71077,1,0,0:0:0:0:
128,192,71233,1,0,0:0:0:0:
42,192,71390,1,0,0:0:0:0:
128,192,71546,1,0,0:0:0:0:
42,192,71702,1,0,0:0:0:0:
213,192,71702,1,0,0:0:0:0:
298,192,71858,1,0,0:0:0:0:
213,192,72015,1,0,0:0:0:0:
384,192,72015,1,0,0:0:0:0:
128,192,72327,1,0,0:0:0:0:
213,192,72640,128,0,73890:0:0:0:0:
298,192,72640,1,0,0:0:0:0:
384,192,72640,1,0,0:0:0:0:
128,192,72640,1,0,0:0:0:0:
42,192,72796,1,0,0:0:0:0:
128,192,72952,1,0,0:0:0:0:
469,192,73108,1,0,0:0:0:0:
42,192,73108,1,0,0:0:0:0:
128,192,73265,1,0,0:0:0:0:
384,192,73265,1,0,0:0:0:0:
298,192,73421,1,0,0:0:0:0:
42,192,73577,1,0,0:0:0:0:
384,192,73577,1,0,0:0:0:0:
469,192,73733,1,0,0:0:0:0:
384,192,73890,128,0,75140:0:0:0:0:
298,192,73890,1,0,0:0:0:0:
42,192,73890,1,0,0:0:0:0:
213,192,74046,1,0,0:0:0:0:
128,192,74202,1,0,0:0:0:0:
469,192,74202,1,0,0:0:0:0:
213,192,74358,1,0,0:0:0:0:
298,192,74515,1,0,0:0:0:0:
42,192,74515,1,0,0:0:0:0:
213,192,74827,1,0,0:0:0:0:
213,192,75140,128,0,75765:0:0:0:0:
42,192,75140,1,0,0:0:0:0:
469,192,75140,1,0,0:0:0:0:
298,192,75140,1,0,0:0:0:0:
128,192,75296,1,0,0:0:0:0:
298,192,75452,1,0,0:0:0:0:
42,192,75608,1,0,0:0:0:0:
384,192,75608,1,0,0:0:0:0:
128,192,75765,128,0,76390:0:0:0:0:
469,192,75765,1,0,0:0:0:0:
298,192,75765,1,0,0:0:0:0:
384,192,75921,1,0,0:0:0:0:
298,192,76077,1,0,0:0:0:0:
42,192,76077,1,0,0:0:0:0:
213,192,76233,1,0,0:0:0:0:
42,192,76390,128,0,77015:0:0:0:0:
298,192,76390,1,0,0:0:0:0:
469,192,76390,1,0,0:0:0:0:
213,192,76546,1,0,0:0:0:0:
384,192,76702,1,0,0:0:0:0:
128,192,76702,1,0,0:0:0:0:
213,192,76858,1,0,0:0:0:0:
128,192,77015,128,0,77640:0:0:0:0:
298,192,77015,1,0,0:0:0:0:
469,192,77015,1,0,0:0:0:0:
213,192,77171,1,0,0:0:0:0:
298,192,77327,1,0,0:0:0:0:
384,192,77483,1,0,0:0:0:0:
213,192,77640,128,0,80140:0:0:0:0:
298,192,77640,1,0,0:0:0:0:
469,192,77640,1,0,0:0:0:0:
42,192,77640,1,0,0:0:0:0:
384,192,77796,1,0,0:0:0:0:
42,192,77952,1,0,0:0:0:0:
469,192,78108,1,0,0:0:0:0:
128,192,78108,1,0,0:0:0:0:
298,192,78265,1,0,0:0:0:0:
384,192,78265,1,0,0:0:0:0:
128,192,78421,1,0,0:0:0:0:
42,192,78577,1,0,0:0:0:0:
298,192,78577,1,0,0:0:0:0:
128,192,78733,1,0,0:0:0:0:
298,192,78890,1,0,0:0:0:0:
128,192,79046,1,0,0:0:0:0:
42,192,79202,1,0,0:0:0:0:
298,192,79202,1,0,0:0:0:0:
128,192,79358,1,0,0:0:0:0:
469,192,79515,1,0,0:0:0:0:
384,192,79515,1,0,0:0:0:0:
128,192,79671,1,0,0:0:0:0:
298,192,79827,1,0,0:0:0:0:
42,192,79983,1,0,0:0:0:0:
128,192,80140,128,0,81390:0:0:0:0:
298,192,80140,1,0,0:0:0:0:
469,192,80140,1,0,0:0:0:0:
384,192,80140,1,0,0:0:0:0:
42,192,80296,1,0,0:0:0:0:
213,192,80452,1,0,0:0:0:0:
298,192,80608,1,0,0:0:0:0:
469,192,80608,1,0,0:0:0:0:
384,192,80765,1,0,0:0:0:0:
42,192,80765,1,0,0:0:0:0:
298,192,80921,1,0,0:0:0:0:
384,192,81077,1,0,0:0:0:0:
213,192,81077,1,0,0:0:0:0:
298,192,81390,128,0,82640:0:0:0:0:
469,192,81390,1,0,0:0:0:0:
42,192,81390,1,0,0:0:0:0:
128,192,81546,1,0,0:0:0:0:
42,192,81702,1,0,0:0:0:0:
384,192,81702,1,0,0:0:0:0:
213,192,81858,1,0,0:0:0:0:
42,192,82015,1,0,0:0:0:0:
469,192,82015,1,0,0:0:0:0:
128,192,82171,1,0,0:0:0:0:
213,192,82327,1,0,0:0:0:0:
384,192,82483,1,0,0:0:0:0:
469,192,82640,128,0,85140:0:0:0:0:
42,192,82640,1,0,0:0:0:0:
213,192,82640,1,0,0:0:0:0:
128,192,82640,1,0,0:0:0:0:
384,192,82796,1,0,0:0:0:0:
42,192,82952,1,0,0:0:0:0:
128,192,83108,1,0,0:0:0:0:
298,192,83108,1,0,0:0:0:0:
384,192,83265,1,0,0:0:0:0:
213,192,83265,1,0,0:0:0:0:
298,192,83421,1,0,0:0:0:0:
213,192,83577,1,0,0:0:0:0:
384,192,83577,1,0,0:0:0:0:
128,192,83733,1,0,0:0:0:0:
298,192,83890,1,0,0:0:0:0:
213,192,84202,1,0,0:0:0:0:
128,192,84202,1,0,0:0:0:0:
298,192,84515,1,0,0:0:0:0:
384,192,84515,1,0,0:0:0:0:
128,192,84593,1,0,0:0:0:0:
298,192,84671,1,0,0:0:0:0:
42,192,84749,1,0,0:0:0:0:
384,192,84827,1,0,0:0:0:0:
128,192,84905,1,0,0:0:0:0:
298,192,84983,1,0,0:0:0:0:
42,192,85061,1,0,0:0:0:0:
384,192,85140,128,0,87952:0:0:0:0:
213,192,85140,1,0,0:0:0:0:
128,192,85140,1,0,0:0:0:0:
