osu file format v14

[General]
AudioFilename: audio.mp3
AudioLeadIn: 0
PreviewTime: 59524
Countdown: 0
SampleSet: Soft
StackLeniency: 0.5
Mode: 0
LetterboxInBreaks: 0
WidescreenStoryboard: 0

[Editor]
DistanceSpacing: 1.1
BeatDivisor: 4
GridSize: 4
TimelineZoom: 1.9

[Metadata]
Title:Ripple Effect (TV Size)
TitleUnicode:Ripple Effect (TV Size)
Artist:Haruna Luna
ArtistUnicode:春奈るな
Creator:kuaib
Version:Rippling
Source:ハイスクール・フリート
Tags:High School Fleet はいふり Hai-Furi haifuri ZAQ ending ed Seto Kousuke Wuab
BeatmapID:1754568
BeatmapSetID:838060

[Difficulty]
HPDrainRate:6
CircleSize:4
OverallDifficulty:7
ApproachRate:8.5
SliderMultiplier:1.8
SliderTickRate:1

[Events]
//Background and Video events
0,0,"boatymcboatface.jpg",0,0
Video,927,"piratelyfe.avi"
//Break Periods
//Storyboard Layer 0 (Background)
//Storyboard Layer 1 (Fail)
//Storyboard Layer 2 (Pass)
//Storyboard Layer 3 (Foreground)
//Storyboard Sound Samples

[TimingPoints]
64,431.654676258993,4,2,4,60,1,0
927,-142.857142857143,4,2,4,30,0,0
1790,-100,4,2,4,45,0,0
13876,-100,4,2,5,45,0,0
13930,-100,4,2,4,45,0,0
15171,-66.6666666666667,4,2,4,60,0,0
15603,-100,4,2,4,60,0,0
28984,-66.6666666666667,4,2,4,60,0,0
29416,-125,4,2,4,60,0,0
50135,-125,4,2,4,30,0,0
50243,-125,4,2,4,60,0,0
58337,-125,4,2,4,30,0,0
58984,-80,4,2,4,60,0,0
59200,-80,4,2,4,5,0,0
59308,-80,4,2,4,60,0,0
59524,-80,4,2,4,5,0,0
59632,-66.6666666666667,4,2,4,60,0,0
60495,-100,4,2,4,75,0,1
60927,-100,4,2,5,75,0,1
61035,-100,4,2,4,75,0,1
64380,-100,4,2,5,75,0,1
64488,-100,4,2,4,75,0,1
72581,-66.6666666666667,4,2,4,75,0,1
72797,-66.6666666666667,4,2,4,5,0,1
72905,-66.6666666666667,4,2,4,75,0,1
73121,-66.6666666666667,4,2,4,5,0,1
73229,-66.6666666666667,4,2,4,75,0,1
73337,-66.6666666666667,4,2,4,5,0,1
73445,-100,4,2,4,75,0,1
73876,-100,4,2,4,75,0,0
73930,-100,4,2,4,30,0,0
74308,-100,4,2,4,75,0,1
74740,-100,4,2,5,75,0,1
74848,-100,4,2,4,75,0,1
81215,-100,4,2,4,90,0,1
81430,-100,4,2,4,5,0,1
81538,-80,4,2,4,90,0,1
81754,-80,4,2,4,5,0,1
81862,-80,4,2,4,90,0,1
82294,-100,4,2,4,75,0,1
86394,-100,4,2,5,60,0,1
86448,-100,4,2,4,60,0,1
87689,-100,4,2,4,45,0,1
88121,-100,4,2,4,45,0,0
89848,-100,4,2,4,5,0,0

[Colours]
Combo1 : 255,128,128
Combo2 : 116,232,252
Combo3 : 255,85,85
Combo4 : 55,155,255

[HitObjects]
64,8,927,6,4,L|-20:1,1,62.9999980773926,2|2,0:0|0:0,0:0:0:0:
176,64,1358,2,4,L|92:71,1,62.9999980773926,2|2,0:0|0:0,0:0:0:0:
269,108,1790,6,0,P|255:66|268:24,1,90,2|0,0:0|0:0,0:0:0:0:
348,136,2222,1,2,0:0:0:0:
311,204,2438,2,0,P|226:215|209:312,1,180,2|2,0:0|0:0,0:0:0:0:
284,368,3085,1,2,0:0:0:0:
452,272,3301,6,0,B|406:261|406:261|364:273|321:284|321:284|276:275,2,180,2|2|2,0:0|0:0|0:0,0:0:0:0:
320,204,4380,1,2,0:0:0:0:
325,189,4596,1,2,0:0:0:0:
304,92,4812,1,2,0:0:0:0:
309,77,5028,1,2,0:0:0:0:
183,135,5243,6,0,P|141:121|99:135,1,90,2|0,0:0|0:0,0:0:0:0:
232,200,5675,1,2,0:0:0:0:
167,252,5891,2,0,P|175:335|257:354,1,180,2|2,0:0|0:0,0:0:0:0:
311,252,6538,1,2,0:0:0:0:
408,340,6754,6,0,B|384:289|384:289|395:162,2,180,2|2|2,0:0|0:0|0:0,0:0:0:0:
311,252,7833,1,2,0:0:0:0:
232,259,8049,1,2,0:0:0:0:
144,332,8265,1,2,0:0:0:0:
64,325,8481,1,2,0:0:0:0:
43,199,8697,6,0,P|69:236|106:262,1,90,2|0,0:3|0:0,0:0:0:0:
100,91,9128,2,0,P|104:136|123:177,1,90,2|2,0:3|0:0,0:0:0:0:
202,26,9560,2,0,P|182:66|179:111,1,90,2|2,0:3|0:0,0:0:0:0:
255,208,9992,1,2,0:3:0:0:
255,208,10207,1,2,0:0:0:0:
353,122,10423,6,0,P|308:114|265:122,1,90,2|0,0:3|0:0,0:0:0:0:
391,232,10855,2,0,P|434:240|478:232,1,90,2|2,0:3|0:0,0:0:0:0:
414,319,11287,1,2,0:3:0:0:
310,207,11502,1,2,0:0:0:0:
246,331,11718,1,2,0:3:0:0:
310,207,11934,1,2,0:0:0:0:
176,272,12150,6,0,L|56:261,1,90,2|0,0:3|0:0,0:0:0:0:
12,184,12581,2,0,L|131:173,1,90,2|2,0:3|0:0,0:0:0:0:
184,101,13013,1,2,0:3:0:0:
278,242,13229,1,2,0:3:0:0:
117,185,13445,1,2,0:3:0:0:
283,137,13661,1,2,0:3:0:0:
176,272,13876,5,2,0:0:0:0:
176,272,13984,1,2,0:0:0:0:
311,379,14200,1,2,0:0:0:0:
311,379,14308,1,2,0:0:0:0:
418,244,14524,1,2,0:0:0:0:
418,244,14632,1,2,0:0:0:0:
283,137,14848,1,2,0:0:0:0:
283,137,14956,1,2,0:0:0:0:
295,264,15171,6,0,B|309:198|309:198|279:128,1,135.000005149842,4|2,0:3|0:0,0:0:0:0:
184,80,15603,6,0,L|84:71,1,90,2|2,0:3|0:0,0:0:0:0:
40,0,16035,1,10,0:0:0:0:
72,148,16251,2,0,P|82:191|70:234,1,90,2|2,0:0|0:3,0:0:0:0:
163,320,16682,2,0,P|152:276|164:233,1,90,2|8,0:0|0:0,0:0:0:0:
262,361,17114,6,0,P|283:274|257:189,1,180,2|2,0:0|0:0,0:0:0:0:
163,104,17761,2,0,P|207:112|279:88,1,90,10|0,0:0|0:0,0:0:0:0:
360,16,18193,1,2,0:3:0:0:
344,152,18409,1,2,0:0:0:0:
473,80,18625,2,0,L|384:87,1,90,10|0,0:0|0:0,0:0:0:0:
512,11,19056,5,2,0:3:0:0:
412,192,19488,2,0,P|420:240|416:304,1,90,10|0,0:0|0:0,0:0:0:0:
324,164,19920,1,2,0:3:0:0:
256,280,20135,1,2,0:0:0:0:
140,212,20351,1,10,0:0:0:0:
208,96,20567,6,0,P|152:104|100:84,1,90,2|2,0:0|0:3,0:0:0:0:
44,44,20999,1,2,0:0:0:0:
4,124,21215,1,10,0:0:0:0:
68,252,21430,2,0,L|77:140,1,90,2|2,0:0|0:3,0:0:0:0:
148,332,21862,1,2,0:0:0:0:
156,243,22078,2,0,L|165:131,1,90,8|0,0:0|0:0,0:0:0:0:
221,293,22510,6,0,P|265:298|309:289,1,90,2|2,0:3|0:0,0:0:0:0:
390,252,22941,1,10,0:0:0:0:
391,136,23157,2,0,P|387:88|369:31,1,90,2|2,0:0|0:3,0:0:0:0:
466,193,23589,2,0,P|469:145|487:87,1,90,2|8,0:0|0:0,0:0:0:0:
390,252,24020,6,0,P|306:264|282:352,1,180,2|2,0:0|0:0,0:0:0:0:
446,332,24668,2,0,L|346:323,1,90,10|0,0:0|0:0,0:0:0:0:
274,232,25099,1,2,0:3:0:0:
185,330,25315,1,2,0:0:0:0:
178,189,25531,2,0,P|178:140|188:79,1,90,10|0,0:0|0:0,0:0:0:0:
124,268,25963,5,2,0:3:0:0:
16,75,26394,2,0,P|58:86|102:77,1,90,10|0,0:0|0:0,0:0:0:0:
215,0,26826,1,2,0:3:0:0:
291,113,27042,1,2,0:0:0:0:
178,189,27258,1,10,0:0:0:0:
306,292,27474,6,0,L|290:103,1,180,2|0,0:0|0:0,0:0:0:0:
446,79,28121,1,8,0:0:0:0:
424,252,28337,1,2,0:0:0:0:
424,252,28445,1,2,0:0:0:0:
424,252,28553,1,2,0:3:0:0:
290,112,28769,1,0,0:0:0:0:
512,148,28984,6,0,B|447:169|447:169|383:149,1,135.000005149842,12|0,0:3|0:0,0:0:0:0:
445,53,29416,5,2,0:3:0:0:
371,240,29848,2,0,P|303:263|229:232,1,144,10|2,0:0|0:3,0:0:0:0:
161,198,30495,2,0,L|170:293,1,72,2|8,0:0|0:0,0:0:0:0:
188,359,30927,6,0,P|151:362|110:338,2,72,2|2|0,0:0|0:3|0:0,0:0:0:0:
258,308,31574,1,8,0:0:0:0:
204,240,31790,2,0,P|226:163|306:163,1,144,2|2,0:0|0:0,0:0:0:0:
363,197,32438,2,0,P|356:161|369:113,1,72,10|2,0:0|0:0,0:0:0:0:
488,64,32869,5,2,0:3:0:0:
356,32,33085,1,2,0:0:0:0:
281,151,33301,1,10,0:0:0:0:
149,183,33517,1,2,0:0:0:0:
219,58,33733,2,0,P|219:93|206:131,1,72,2|0,0:3|0:0,0:0:0:0:
68,200,34164,1,10,0:0:0:0:
68,200,34380,6,0,P|112:258|194:253,1,144,2|2,0:0|0:0,0:0:0:0:
285,159,35028,1,10,0:0:0:0:
345,287,35243,1,2,0:0:0:0:
425,171,35459,1,2,0:3:0:0:
266,250,35674,1,2,0:0:0:0:
285,78,35891,2,0,P|319:85|347:107,1,72,10|2,0:0|0:0,0:0:0:0:
388,13,36322,5,4,0:3:0:0:
484,184,36754,2,0,L|470:330,1,144,10|2,0:0|0:3,0:0:0:0:
387,302,37402,2,0,L|395:206,1,72,2|8,0:0|0:0,0:0:0:0:
425,116,37833,6,0,P|354:148|300:109,1,144,2|2,0:0|0:0,0:0:0:0:
244,51,38481,1,10,0:0:0:0:
170,97,38697,2,0,P|176:135|160:193,1,72,2|2,0:0|0:3,0:0:0:0:
97,213,39128,1,0,0:0:0:0:
97,213,39344,1,8,0:0:0:0:
131,362,39560,1,2,0:0:0:0:
208,240,39776,6,0,L|200:329,1,72,2|2,0:3|0:0,0:0:0:0:
172,168,40207,1,10,0:0:0:0:
286,246,40423,1,2,0:0:0:0:
239,117,40639,1,2,0:3:0:0:
125,39,40855,1,2,0:0:0:0:
284,28,41071,1,10,0:0:0:0:
361,150,41287,2,0,L|351:45,1,72,2|2,0:0|0:3,0:0:0:0:
239,117,41718,5,2,0:0:0:0:
159,111,41934,1,10,0:0:0:0:
79,104,42150,1,2,0:0:0:0:
204,44,42366,5,2,0:3:0:0:
274,190,42581,1,10,0:0:0:0:
366,57,42797,1,10,0:0:0:0:
387,77,42905,1,2,0:0:0:0:
399,101,43013,1,2,0:0:0:0:
399,129,43121,1,2,0:0:0:0:
391,153,43229,6,0,P|383:221|399:293,1,108,2|2,0:3|0:3,0:0:0:0:
405,282,43661,1,10,0:0:0:0:
336,360,43876,1,2,0:0:0:0:
317,358,43984,1,2,0:3:0:0:
301,357,44092,1,2,0:0:0:0:
116,360,44956,6,0,P|128:326|131:290,1,72,2|2,0:3|0:0,0:0:0:0:
124,264,45279,1,2,0:3:0:0:
124,264,45387,1,10,0:0:0:0:
184,176,45603,1,2,0:3:0:0:
184,176,45711,2,0,P|126:158|89:109,1,108,8|2,0:0|0:3,0:0:0:0:
200,44,46251,1,2,0:0:0:0:
227,41,46358,1,2,0:3:0:0:
255,39,46466,1,2,0:0:0:0:
283,36,46574,1,2,0:3:0:0:
311,34,46682,6,0,P|363:51|439:32,1,108,2|2,0:0|0:3,0:0:0:0:
436,27,47114,1,10,0:0:0:0:
408,144,47330,1,2,0:0:0:0:
408,144,47438,1,2,0:3:0:0:
408,144,47546,2,0,P|395:195|424:265,2,108,2|2|2,0:0|0:0|0:0,0:0:0:0:
278,172,48409,6,0,L|159:161,1,108,2|2,0:3|0:3,0:0:0:0:
143,159,48840,1,8,0:0:0:0:
57,103,49056,1,2,0:3:0:0:
57,103,49164,2,0,P|35:151|49:204,1,108,8|2,0:0|0:3,0:0:0:0:
148,248,49704,1,10,0:0:0:0:
146,276,49812,1,10,0:3:0:0:
144,304,49920,1,10,0:0:0:0:
141,331,50028,1,2,0:3:0:0:
139,359,50135,6,0,P|171:363|226:353,1,72,12|0,0:3|0:0,0:0:0:0:
230,339,50459,1,2,0:3:0:0:
230,339,50567,2,0,P|274:333|316:342,1,72,10|2,0:0|0:0,0:0:0:0:
323,354,50891,1,2,0:3:0:0:
323,354,50999,1,2,0:0:0:0:
384,257,51215,1,8,0:0:0:0:
472,377,51430,1,10,0:0:0:0:
472,377,51538,1,8,0:0:0:0:
472,377,51646,1,8,0:0:0:0:
384,257,51862,6,0,P|364:186|374:145,1,108,2|2,0:0|0:0,0:0:0:0:
388,132,52294,1,8,0:0:0:0:
324,47,52510,2,0,P|263:25|183:54,1,144,2|2,0:0|0:3,0:0:0:0:
117,157,53157,1,10,0:0:0:0:
114,130,53265,1,2,0:3:0:0:
112,102,53373,1,2,0:0:0:0:
109,74,53481,1,10,0:3:0:0:
107,46,53589,5,2,0:0:0:0:
200,128,53805,1,2,0:0:0:0:
200,128,53912,1,2,0:0:0:0:
275,10,54128,1,2,0:0:0:0:
275,10,54236,1,2,0:3:0:0:
393,85,54452,1,2,0:0:0:0:
393,85,54560,1,2,0:0:0:0:
188,40,54776,1,2,0:0:0:0:
188,40,54884,1,10,0:0:0:0:
364,0,55099,1,2,0:0:0:0:
311,188,55315,6,0,B|288:264|339:242|312:328,1,144,4|8,0:3|0:0,0:0:0:0:
230,384,55963,2,0,B|252:307|201:329|228:243,1,144,2|10,0:0|0:0,0:0:0:0:
180,92,56610,1,10,0:0:0:0:
148,247,56826,1,2,0:0:0:0:
250,145,57042,6,0,P|288:151|330:141,1,72,10|0,0:0|0:0,0:0:0:0:
320,37,57474,2,0,P|281:30|240:40,1,72,8|0,0:0|0:0,0:0:0:0:
152,112,57905,1,10,0:0:0:0:
124,109,58013,1,8,0:0:0:0:
96,107,58121,1,8,0:0:0:0:
68,104,58229,1,10,0:0:0:0:
40,101,58337,2,0,L|36:129,8,18,8|8|8|8|8|8|8|8|8,0:0|0:3|0:3|0:3|0:3|0:3|0:3|0:3|0:3,0:3:0:0:
108,203,58984,6,0,P|126:271|100:335,1,112.5,10|0,0:0|0:0,0:0:0:0:
225,351,59308,2,0,P|203:288|221:224,1,112.5,10|0,0:0|0:0,0:0:0:0:
240,228,59632,1,10,0:0:0:0:
267,247,59740,1,2,0:3:0:0:
299,255,59848,1,2,0:0:0:0:
331,247,59956,1,2,0:3:0:0:
359,228,60064,6,0,B|339:164|339:164|363:92,1,135.000005149842,4|0,0:3|0:0,0:0:0:0:
420,332,60495,6,0,P|368:348|308:328,1,90,2|0,0:3|0:0,0:0:0:0:
267,247,60927,1,12,0:0:0:0:
172,296,61143,2,0,P|181:349|154:406,1,90,2|2,0:0|0:3,0:0:0:0:
192,220,61574,1,2,0:0:0:0:
104,340,61790,1,10,0:0:0:0:
8,260,62006,2,0,P|61:269|118:242,1,90,2|2,0:0|0:3,0:0:0:0:
48,136,62438,5,0,0:0:0:0:
80,155,62545,1,0,0:0:0:0:
116,161,62653,1,8,0:0:0:0:
152,155,62761,1,0,0:0:0:0:
183,136,62869,1,0,0:0:0:0:
240,0,63085,5,2,0:3:0:0:
396,28,63301,1,2,0:0:0:0:
508,152,63517,5,10,0:0:0:0:
352,180,63733,1,2,0:0:0:0:
260,304,63948,6,0,P|308:296|360:308,1,90,2|0,0:3|0:0,0:0:0:0:
456,350,64380,1,12,0:0:0:0:
500,246,64596,2,0,P|452:238|400:250,1,90,2|2,0:0|0:3,0:0:0:0:
344,319,65028,1,2,0:0:0:0:
305,205,65243,1,10,0:0:0:0:
172,248,65459,1,2,0:0:0:0:
221,97,65675,6,0,P|173:141|133:141,1,90,2|2,0:3|0:0,0:0:0:0:
126,136,65999,1,0,0:0:0:0:
126,136,66107,1,10,0:0:0:0:
0,104,66322,1,2,0:0:0:0:
8,258,66538,1,2,0:3:0:0:
172,248,66754,1,2,0:0:0:0:
172,248,66862,1,0,0:0:0:0:
172,248,66970,1,10,0:0:0:0:
337,229,67186,1,2,0:0:0:0:
248,360,67402,6,0,P|260:284|240:180,1,180,2|10,0:3|0:0,0:0:0:0:
164,108,68049,2,0,L|267:98,1,90,2|2,0:0|0:3,0:0:0:0:
104,36,68481,1,2,0:0:0:0:
156,192,68697,1,10,0:0:0:0:
204,28,68912,2,0,L|303:19,1,90,2|2,0:0|0:3,0:0:0:0:
457,43,69344,5,2,0:0:0:0:
341,99,69560,1,10,0:0:0:0:
453,151,69776,1,2,0:0:0:0:
453,151,69884,1,0,0:0:0:0:
453,151,69992,2,0,P|445:195|457:243,1,90,2|0,0:3|0:0,0:0:0:0:
369,334,70423,2,0,P|377:290|365:242,1,90,10|2,0:0|0:0,0:0:0:0:
281,370,70855,6,0,P|229:330|217:246,1,135,2|2,0:3|0:0,0:0:0:0:
229,242,71287,2,0,L|125:232,1,90,10|0,0:0|0:0,0:0:0:0:
257,166,71718,1,2,0:3:0:0:
301,290,71934,1,2,0:0:0:0:
301,290,72042,1,0,0:0:0:0:
301,290,72150,1,10,0:0:0:0:
401,202,72366,1,0,0:0:0:0:
345,80,72581,6,0,P|294:118|243:81,1,135.000005149842,10|0,0:0|0:0,0:0:0:0:
173,116,72905,2,0,P|121:79|71:117,1,135.000005149842,10|0,0:0|0:0,0:0:0:0:
10,79,73229,2,12,L|15:12,1,67.5000025749208,10|0,0:0|0:0,0:0:0:0:
7,156,73445,1,10,0:0:0:0:
112,233,73661,1,8,0:0:0:0:
112,233,73769,1,8,0:0:0:0:
112,233,73876,2,0,L|148:236,6,22.5,14|8|8|8|8|8|8,0:0|0:0|0:0|0:0|0:0|0:0|0:0,0:0:0:0:
92,249,74308,6,0,P|80:301|100:353,1,90,2|0,0:3|0:0,0:0:0:0:
220,320,74740,1,12,0:0:0:0:
312,380,74956,2,0,L|415:370,1,90,2|2,0:0|0:3,0:0:0:0:
500,300,75387,1,2,0:0:0:0:
356,260,75603,1,10,0:0:0:0:
472,140,75819,2,0,P|455:187|475:239,1,90,2|2,0:0|0:3,0:0:0:0:
328,156,76251,5,0,0:0:0:0:
295,138,76358,1,0,0:0:0:0:
259,133,76466,1,8,0:0:0:0:
223,141,76574,1,0,0:0:0:0:
193,161,76682,1,2,0:0:0:0:
182,274,76898,5,2,0:3:0:0:
19,212,77114,1,2,0:0:0:0:
250,215,77330,5,10,0:0:0:0:
87,277,77546,1,2,0:0:0:0:
223,141,77761,6,0,P|172:208|217:288,1,180,2|10,0:3|0:0,0:0:0:0:
340,207,78409,2,0,L|251:215,1,90,2|2,0:0|0:3,0:0:0:0:
399,265,78840,1,2,0:0:0:0:
484,144,79056,1,10,0:0:0:0:
400,20,79272,1,2,0:0:0:0:
302,136,79488,6,0,P|243:145|200:127,1,90,2|0,0:3|0:0,0:0:0:0:
199,119,79812,1,0,0:0:0:0:
199,119,79920,1,8,0:0:0:0:
73,152,80135,1,2,0:0:0:0:
100,24,80351,1,2,0:3:0:0:
73,152,80567,1,2,0:3:0:0:
77,187,80675,1,2,0:3:0:0:
80,223,80783,2,2,L|83:267,1,45,10|2,0:0|0:0,0:0:0:0:
168,280,80999,2,2,L|165:234,1,45
171,368,81215,6,0,P|212:354|246:381,1,90,6|0,0:0|0:0,0:0:0:0:
321,290,81538,6,0,P|305:341|339:383,1,112.5,6|0,0:0|0:0,0:0:0:0:
168,280,81862,6,0,P|260:256|232:121,1,225,6|2,0:0|0:0,0:0:0:0:
112,177,82510,2,0,P|152:197|196:199,1,90,10|2,0:0|0:0,0:0:0:0:
274,55,82941,5,2,0:3:0:0:
465,83,83157,1,2,0:0:0:0:
252,89,83373,5,10,0:0:0:0:
61,61,83589,1,2,0:0:0:0:
296,21,83805,5,2,0:3:0:0:
332,168,84020,1,2,0:3:0:0:
328,203,84128,1,2,0:3:0:0:
325,239,84236,2,2,L|320:282,1,45,10|2,0:0|0:0,0:0:0:0:
402,311,84452,2,2,L|406:266,1,45
315,381,84668,6,0,P|286:306|174:298,1,180,2|8,0:3|0:0,0:0:0:0:
122,366,85315,1,0,0:0:0:0:
18,282,85531,2,0,P|66:294|122:278,1,90,2|0,0:3|0:0,0:0:0:0:
122,266,85855,1,0,0:0:0:0:
122,266,85963,1,8,0:0:0:0:
158,154,86179,1,0,0:0:0:0:
296,240,86394,5,2,0:0:0:0:
296,240,86502,1,2,0:0:0:0:
360,356,86718,1,2,0:0:0:0:
360,356,86826,1,10,0:0:0:0:
490,330,87042,1,2,0:0:0:0:
490,330,87150,1,2,0:0:0:0:
505,198,87365,1,2,0:0:0:0:
505,198,87474,1,2,0:0:0:0:
384,142,87689,6,0,B|392:99|392:99|427:68,1,90,4|2,0:3|0:0,0:0:0:0:
501,19,88121,1,2,0:0:0:0:
256,192,88229,12,0,89848,0:0:0:0:
