osu file format v14

[General]
AudioFilename: audio.mp3
AudioLeadIn: 0
PreviewTime: 59524
Countdown: 0
SampleSet: Soft
StackLeniency: 0.7
Mode: 0
LetterboxInBreaks: 0
WidescreenStoryboard: 1

[Editor]
DistanceSpacing: 1.4
BeatDivisor: 4
GridSize: 4
TimelineZoom: 1

[Metadata]
Title:Ripple Effect
TitleUnicode:Ripple Effect
Artist:Haruna Luna
ArtistUnicode:春奈るな
Creator:Karen
Version:Normal
Source:ハイスクール・フリート
Tags:High School Fleet はいふり Hai-Furi haifuri ZAQ ending Kawaiwkyik Rizia
BeatmapID:966648
BeatmapSetID:446205

[Difficulty]
HPDrainRate:4
CircleSize:3.5
OverallDifficulty:4
ApproachRate:5
SliderMultiplier:1.2
SliderTickRate:1

[Events]
//Background and Video events
0,0,"1.jpg",0,0
//Break Periods
//Storyboard Layer 0 (Background)
//Storyboard Layer 1 (Fail)
//Storyboard Layer 2 (Pass)
//Storyboard Layer 3 (Foreground)
//Storyboard Sound Samples

[TimingPoints]
64,431.654676258993,4,2,1,50,1,0
1790,-125,4,2,1,30,0,0
8697,-125,4,2,1,30,0,0
15171,-125,4,2,2,50,0,0
15603,-100,4,2,1,50,0,0
28984,-100,4,2,2,50,0,0
29416,-125,4,2,2,40,0,0
42581,-125,4,2,1,40,0,0
60064,-125,4,2,2,50,0,0
60495,-100,4,2,1,50,0,1
73876,-100,4,2,2,50,0,0
74308,-100,4,2,1,50,0,1
87689,-133.333333333333,4,2,2,30,0,0

[Colours]
Combo1 : 255,173,134
Combo2 : 205,241,252
Combo3 : 117,186,255
Combo4 : 255,210,166

[HitObjects]
63,165,1790,6,0,L|174:148,1,96,2|0,0:0|0:0,0:0:0:0:
194,111,2438,2,0,L|304:94,1,96,2|2,0:0|0:0,0:0:0:0:
339,79,3085,1,0,0:0:0:0:
339,79,3301,2,0,P|330:130|352:187,1,96,2|2,0:0|0:0,0:0:0:0:
375,272,4164,2,0,L|260:277,1,96,2|0,0:0|0:0,0:0:0:0:
238,242,4812,2,0,L|177:244,1,48,2|0,0:0|0:0,0:0:0:0:
138,232,5243,6,0,P|153:261|140:332,1,96,2|0,0:0|0:0,0:0:0:0:
122,369,5891,1,2,0:0:0:0:
57,285,6322,2,0,L|-7:296,2,48,2|0|2,0:0|0:0|0:0,0:0:0:0:
100,255,6970,1,0,0:0:0:0:
132,213,7186,2,0,P|141:167|115:106,1,96,2|2,0:0|0:0,0:0:0:0:
76,103,7833,2,0,L|61:46,1,48,0|0,0:0|0:0,0:0:0:0:
116,47,8265,2,0,L|125:-10,1,48,2|0,0:0|0:0,0:0:0:0:
175,9,8697,6,0,P|221:27|283:5,1,96,0|0,1:0|1:0,0:0:0:0:
316,5,9344,1,0,0:0:0:0:
411,49,9776,2,0,L|480:34,2,48
384,87,10423,2,0,P|372:140|392:194,1,96,0|0,1:0|1:0,0:0:0:0:
340,276,11287,2,0,L|275:266,1,48,0|0,1:0|0:0,0:0:0:0:
249,298,11718,2,0,L|182:289,1,48,0|0,1:0|0:0,0:0:0:0:
152,312,12150,6,0,P|162:258|144:199,1,96,0|0,1:0|1:0,0:0:0:0:
119,177,12797,1,0,0:0:0:0:
128,125,13013,2,0,L|223:115,1,96,0|0,1:0|1:0,0:0:0:0:
308,52,13876,2,0,P|423:71|326:143,1,288,0|8,0:0|0:0,0:0:0:0:
240,191,15603,6,0,L|253:321,1,120,4|8,0:0|0:0,0:0:0:0:
313,367,16251,2,0,P|353:374|433:349,1,120,2|2,0:0|0:0,0:0:0:0:
472,276,16898,1,8,0:0:0:0:
428,203,17114,2,0,L|427:64,1,120,2|2,0:0|0:0,0:0:0:0:
469,10,17761,1,10,0:0:0:0:
306,54,18193,2,0,L|231:51,1,60,2|2,0:0|0:0,0:0:0:0:
167,20,18625,1,10,0:0:0:0:
48,138,19056,6,0,B|32:188|52:226|52:226|101:231,2,120,0|8|2,0:0|0:0|0:0,0:0:0:0:
102,74,20135,2,0,L|165:74,1,60,0|8,0:0|0:0,0:0:0:0:
225,129,20567,1,2,0:0:0:0:
197,294,20999,2,0,L|127:286,1,60,2|8,0:0|0:0,0:0:0:0:
81,228,21430,2,0,P|59:267|85:354,1,120,2|2,0:0|0:0,0:0:0:0:
150,369,22078,1,8,0:0:0:0:
270,251,22510,6,0,L|262:175,2,60,2|2|8,0:0|0:0|0:0,0:0:0:0:
349,279,23157,2,0,L|356:131,1,120,2|2,0:0|0:0,0:0:0:0:
376,77,23805,1,8,0:0:0:0:
318,16,24020,2,0,P|259:-4|191:27,1,120,2|2,0:0|0:0,0:0:0:0:
259,78,24668,2,0,L|269:206,1,120,10|2,0:0|0:0,0:0:0:0:
228,271,25315,1,2,0:0:0:0:
272,342,25531,1,8,0:0:0:0:
384,217,25963,6,0,B|431:206|486:224|486:224|511:216,2,120,2|8|2,0:0|0:0|0:0,0:0:0:0:
302,197,27042,2,0,P|300:222|307:256,1,60,2|8,0:0|0:0,0:0:0:0:
376,304,27474,2,0,L|180:297,1,180,2|8,0:0|0:0,0:0:0:0:
113,313,28337,2,0,L|121:379,2,60,2|2|0,0:0|0:0|0:0,0:0:0:0:
67,242,28984,2,0,B|54:178|54:178|64:101,1,120,8|0,0:0|0:0,0:0:0:0:
159,31,29848,6,0,P|206:21|264:38,1,96,2|0,0:0|0:0,0:0:0:0:
292,57,30495,2,0,P|339:68|397:52,1,96,0|0,0:0|0:0,0:0:0:0:
427,34,31143,1,0,0:0:0:0:
449,127,31574,1,0,0:0:0:0:
449,127,31790,2,0,L|443:233,1,96,2|2,0:0|0:0,0:0:0:0:
425,267,32438,1,0,0:0:0:0:
343,216,32869,6,0,P|290:201|238:220,1,96,2|0,0:0|0:0,0:0:0:0:
220,248,33517,1,2,0:0:0:0:
220,248,33733,2,0,L|219:135,1,96,0|0,0:0|0:0,0:0:0:0:
208,105,34380,2,0,P|163:90|107:116,1,96,2|2,0:0|0:0,0:0:0:0:
58,180,35243,2,0,L|64:241,2,48,2|0|0,0:0|0:0|0:0,0:0:0:0:
37,136,35891,1,8,0:0:0:0:
48,88,36107,1,2,0:0:0:0:
75,48,36322,6,0,L|181:38,1,96,0|8,0:0|0:0,0:0:0:0:
264,60,37186,2,0,L|275:120,1,48,0|0,0:0|0:0,0:0:0:0:
291,151,37617,1,8,0:0:0:0:
291,151,37833,2,0,P|248:134|196:149,1,96,0|0,0:0|0:0,0:0:0:0:
165,178,38481,1,8,0:0:0:0:
217,257,38912,2,0,L|216:368,1,96,0|8,0:0|0:0,0:0:0:0:
259,331,39560,1,0,0:0:0:0:
259,331,39776,6,0,P|306:318|360:342,1,96,0|8,0:0|0:0,0:0:0:0:
381,369,40423,1,0,0:0:0:0:
381,369,40639,2,0,L|481:362,1,96,0|8,0:0|0:0,0:0:0:0:
444,271,41502,2,0,P|426:223|445:165,1,96,0|8,0:0|0:0,0:0:0:0:
451,135,42150,1,0,0:0:0:0:
434,90,42366,2,0,L|376:97,1,48,0|8,0:0|0:0,0:0:0:0:
356,58,42797,1,8,0:0:0:0:
266,93,43229,6,0,L|274:208,1,96,0|8,0:0|0:0,0:0:0:0:
306,222,43876,2,0,L|308:282,1,48,8|8,3:0|3:0,0:0:0:0:
126,335,44956,2,0,L|118:269,1,48,0|0,0:0|0:0,0:0:0:0:
143,245,45387,2,0,P|178:237|224:251,2,72,8|8|0,0:0|0:0|0:0,0:0:0:0:
104,216,46251,2,0,L|97:102,1,96,12|0,3:0|0:0,0:0:0:0:
141,34,47114,6,0,P|177:25|225:38,2,72,8|8|8,0:0|0:0|3:0,0:0:0:0:
228,148,48409,1,8,3:0:0:0:
318,115,48840,2,0,L|317:34,2,72,8|8|8,0:0|0:0|3:0,0:0:0:0:
339,158,49704,2,0,L|342:209,1,48,8|8,0:0|0:0,0:0:0:0:
358,250,50135,6,0,P|312:237|260:254,1,96,4|8,0:0|0:0,0:0:0:0:
229,280,50783,1,0,0:0:0:0:
229,280,50999,2,0,P|237:236|219:174,1,96,0|8,0:0|0:0,0:0:0:0:
143,235,51862,2,0,L|146:324,2,72,0|0|8,0:0|0:0|0:0,0:0:0:0:
125,140,52941,1,0,0:0:0:0:
125,140,53157,2,0,L|115:75,1,48,8|0,3:0|0:0,0:0:0:0:
142,50,53589,6,0,P|168:36|242:62,1,96,0|8,0:0|0:0,0:0:0:0:
268,77,54236,1,10,0:0:0:0:
268,77,54452,2,0,L|374:75,1,96,0|10,0:0|0:0,0:0:0:0:
443,21,55315,2,0,P|456:71|442:129,1,96,6|8,0:0|0:0,0:0:0:0:
426,157,55963,1,8,0:0:0:0:
338,196,56394,2,0,L|278:199,2,48,8|8|0,0:0|0:0|0:0,0:0:0:0:
371,230,57042,6,0,L|375:329,1,96,12|8,0:0|0:0,0:0:0:0:
457,375,57905,2,0,P|470:317|465:288,2,72,8|8|8,0:0|0:0|0:0,0:0:0:0:
374,325,58984,2,0,L|283:324,2,72,12|8|8,0:0|0:0|0:0,0:0:0:0:
403,233,60064,1,8,0:0:0:0:
359,121,60495,6,0,P|300:100|240:123,1,120,4|8,0:0|0:0,0:0:0:0:
184,173,61143,1,2,0:0:0:0:
22,121,61574,2,0,L|24:61,2,60,2|8|2,0:0|0:0|0:0,0:0:0:0:
16,205,62222,1,0,0:0:0:0:
58,277,62438,2,0,L|186:265,1,120,2|0,0:0|0:0,0:0:0:0:
246,220,63085,2,0,L|241:150,1,60,2|0,0:0|0:0,0:0:0:0:
326,155,63517,2,0,L|330:214,1,60,8|0,0:0|0:0,0:0:0:0:
350,296,63948,6,0,P|410:312|470:282,1,120,0|8,0:0|0:0,0:0:0:0:
479,207,64596,1,2,0:0:0:0:
424,48,65028,2,0,L|505:29,2,60,2|8|2,0:0|0:0|0:0,0:0:0:0:
344,20,65675,1,0,0:0:0:0:
344,20,65891,2,0,L|261:18,1,60,2|8,0:0|0:0,0:0:0:0:
208,55,66322,1,2,0:0:0:0:
208,139,66538,2,0,L|276:132,1,60,0|8,0:0|3:0,0:0:0:0:
262,217,66970,2,0,L|202:223,1,60,8|0,0:0|0:0,0:0:0:0:
127,183,67402,6,0,B|126:96|126:96|93:117,1,120,4|8,0:0|0:0,0:0:0:0:
39,173,68049,1,2,0:0:0:0:
88,333,68481,2,0,L|10:346,2,60,2|8|2,0:0|0:0|0:0,0:0:0:0:
151,277,69128,1,0,0:0:0:0:
210,335,69344,2,0,L|287:344,2,60,2|8|2,0:0|0:0|0:0,0:0:0:0:
151,277,69992,2,0,L|153:148,1,120,2|8,0:0|0:0,0:0:0:0:
281,49,70855,6,0,B|320:35|320:35|405:49,1,120,0|8,0:0|0:0,0:0:0:0:
480,194,71718,2,0,L|485:266,2,60,0|0|8,0:0|0:0|0:0,0:0:0:0:
312,164,72581,2,0,L|199:156,2,90,8|8|8,0:0|0:0|0:0,0:0:0:0:
377,110,73445,2,0,P|395:156|368:228,1,120,0|8,0:0|0:0,0:0:0:0:
283,362,74308,6,0,L|149:356,1,120,4|8,0:0|0:0,0:0:0:0:
112,289,74956,1,2,0:0:0:0:
219,160,75387,2,0,L|289:153,1,60,2|8,0:0|0:0,0:0:0:0:
339,212,75819,2,0,P|316:160|345:95,1,120,2|2,0:0|0:0,0:0:0:0:
399,48,76466,2,0,L|267:51,1,120,8|2,0:0|0:0,0:0:0:0:
197,28,77114,1,0,0:0:0:0:
197,28,77330,2,0,L|204:95,1,60,8|0,0:0|0:0,0:0:0:0:
151,153,77761,6,0,B|94:135|86:170|26:151,1,120,0|8,0:0|0:0,0:0:0:0:
31,237,78409,2,0,B|88:255|96:220|156:239,1,120,2|0,0:0|0:0,0:0:0:0:
219,282,79056,1,8,0:0:0:0:
367,202,79488,2,0,P|426:182|490:211,1,120,0|8,0:0|0:0,0:0:0:0:
424,265,80135,1,2,0:0:0:0:
424,265,80351,2,0,L|421:351,1,60,0|8,0:0|0:3,0:0:0:0:
354,375,80783,1,8,0:0:0:0:
195,317,81215,6,0,B|135:311|135:311|99:326,2,90,4|4|4,0:0|0:0|0:0,0:0:0:0:
296,183,82294,2,0,L|301:112,2,60,4|8|4,0:0|0:0|0:0,0:0:0:0:
212,171,82941,2,0,L|202:102,1,60,4|0,0:0|0:0,0:0:0:0:
118,114,83373,2,0,L|123:186,1,60,4|0,0:0|0:0,0:0:0:0:
80,247,83805,2,0,B|48:287|48:287|61:327|61:327|112:348,1,120,8|8,0:0|0:0,0:0:0:0:
239,269,84668,6,0,B|281:268|281:268|317:276|317:276|379:274,2,120,4|8|0,0:0|0:0|0:0,0:0:0:0:
165,117,85963,1,8,0:0:0:0:
315,42,86394,2,0,L|386:29,2,60,8|8|8,0:0|0:0|0:0,0:0:0:0:
93,162,87689,6,0,P|81:117|93:61,1,90.0000034332277,8|0,0:0|0:0,0:0:0:0:
