osu file format v14

[General]
AudioFilename: audio.mp3
AudioLeadIn: 0
PreviewTime: 59524
Countdown: 0
SampleSet: Soft
StackLeniency: 0.7
Mode: 0
LetterboxInBreaks: 0
WidescreenStoryboard: 0

[Editor]
DistanceSpacing: 1
BeatDivisor: 4
GridSize: 4
TimelineZoom: 1

[Metadata]
Title:Ripple Effect
TitleUnicode:Ripple Effect
Artist:Haruna Luna
ArtistUnicode:春奈るな
Creator:Karen
Version:Insane
Source:ハイスクール・フリート
Tags:High School Fleet はいふり Hai-Furi haifuri ZAQ ending Kawaiwkyik Rizia
BeatmapID:958424
BeatmapSetID:446205

[Difficulty]
HPDrainRate:6
CircleSize:4
OverallDifficulty:7
ApproachRate:8
SliderMultiplier:1.7
SliderTickRate:1

[Events]
//Background and Video events
0,0,"1.jpg",0,0
//Break Periods
//Storyboard Layer 0 (Background)
//Storyboard Layer 1 (Fail)
//Storyboard Layer 2 (Pass)
//Storyboard Layer 3 (Foreground)
//Storyboard Sound Samples

[TimingPoints]
64,431.654676258993,4,2,1,50,1,0
1790,-133.333333333333,4,2,1,30,0,0
8697,-117.647058823529,4,2,1,30,0,0
15171,-71.4285714285714,4,2,2,50,0,0
15387,-100,4,2,2,50,0,0
15603,-100,4,2,1,50,0,0
28984,-71.4285714285714,4,2,2,50,0,0
29416,-117.647058823529,4,2,2,40,0,0
42581,-117.647058823529,4,2,1,40,0,0
60064,-71.4285714285714,4,2,2,50,0,0
60495,-100,4,2,1,50,0,1
73876,-71.4285714285714,4,2,2,50,0,0
74308,-100,4,2,1,50,0,1
82941,-71.4285714285714,4,2,1,50,0,1
83373,-83.3333333333333,4,2,1,50,0,1
83805,-100,4,2,1,50,0,1
87689,-133.333333333333,4,2,2,30,0,0

[Colours]
Combo1 : 255,173,134
Combo2 : 205,241,252
Combo3 : 117,186,255
Combo4 : 255,210,166

[HitObjects]
136,172,1790,6,0,L|227:159,1,63.7500024318696,2|0,0:0|0:0,0:0:0:0:
271,109,2222,1,0,0:0:0:0:
354,141,2438,2,0,P|376:216|343:273,1,127.500004863739,2|2,0:0|0:0,0:0:0:0:
287,202,3085,1,0,0:0:0:0:
348,51,3301,6,0,L|438:41,1,63.7500024318696,2|0,0:0|0:0,0:0:0:0:
271,109,3733,2,0,L|195:100,1,63.7500024318696,2|0,0:0|0:0,0:0:0:0:
95,50,4164,2,0,P|120:102|93:179,1,127.500004863739,2|0,0:0|0:0,0:0:0:0:
21,203,4812,1,2,0:0:0:0:
27,113,5028,1,0,0:0:0:0:
97,262,5243,6,0,B|144:254|180:265|180:265|227:263,1,127.500004863739,2|0,0:0|0:0,0:0:0:0:
306,229,5891,2,0,P|309:191|301:154,1,63.7500024318696,2|0,0:0|0:0,0:0:0:0:
394,267,6322,2,0,P|387:297|403:350,2,63.7500024318696,2|0|2,0:0|0:0|0:0,0:0:0:0:
467,215,6970,5,0,0:0:0:0:
445,128,7186,2,0,L|296:120,1,127.500004863739,2|2,0:0|0:0,0:0:0:0:
162,133,7833,1,0,0:0:0:0:
233,25,8049,1,0,0:0:0:0:
245,169,8265,1,2,0:0:0:0:
233,25,8481,1,0,0:0:0:0:
317,121,8697,6,0,P|329:193|278:249,1,144.500002756119,0|0,1:0|1:0,0:0:0:0:
358,314,9344,2,0,L|450:301,1,72.2500013780594,0|0,0:0|1:0,0:0:0:0:
427,208,9776,1,0,0:0:0:0:
490,374,9992,1,0,1:0:0:0:
427,208,10207,1,0,0:0:0:0:
328,310,10423,6,0,L|336:381,1,72.2500013780594,0|0,1:0|0:0,0:0:0:0:
221,248,10855,2,0,L|229:319,1,72.2500013780594,0|0,1:0|0:0,0:0:0:0:
317,209,11287,1,0,1:0:0:0:
312,108,11502,1,0,0:0:0:0:
150,174,11718,1,0,1:0:0:0:
221,248,11934,1,0,0:0:0:0:
208,82,12150,6,0,B|204:-6|204:-6|148:16,1,144.500002756119,0|0,1:0|1:0,0:0:0:0:
12,75,12797,1,0,0:0:0:0:
106,110,13013,2,0,P|113:151|108:187,1,72.2500013780594,0|0,1:0|0:0,0:0:0:0:
5,320,13445,2,0,P|-2:279|3:243,1,72.2500013780594,0|0,1:0|0:0,0:0:0:0:
131,375,13876,5,0,0:0:0:0:
131,375,13984,1,2,0:0:0:0:
258,313,14200,1,0,0:0:0:0:
258,313,14308,1,2,0:0:0:0:
103,279,14524,1,0,0:0:0:0:
103,279,14632,1,2,0:0:0:0:
230,217,14848,1,0,0:0:0:0:
230,217,14956,1,2,0:0:0:0:
364,237,15171,6,0,P|449:224|470:127,1,178.499994552612,8|0,0:0|0:0,0:0:0:0:
388,73,15603,6,0,L|395:173,1,85,4|0,0:0|0:0,0:0:0:0:
293,311,16035,1,8,0:0:0:0:
245,107,16251,2,0,L|239:17,1,85,2|0,0:0|0:0,0:0:0:0:
348,104,16682,1,2,0:0:0:0:
148,160,16898,1,8,0:0:0:0:
255,241,17114,6,0,B|317:213|377:245|377:245|433:242,1,170,2|2,0:0|0:0,0:0:0:0:
311,335,17761,2,0,L|211:332,1,85,10|0,0:0|0:0,0:0:0:0:
82,369,18193,1,2,0:0:0:0:
145,288,18409,1,2,0:0:0:0:
145,288,18517,1,0,0:0:0:0:
145,288,18625,2,0,P|149:244|132:191,1,85,10|0,0:0|0:0,0:0:0:0:
74,125,19056,5,0,0:0:0:0:
242,223,19272,1,0,0:0:0:0:
242,223,19380,1,0,0:0:0:0:
242,223,19488,2,0,L|342:221,1,85,8|0,0:0|0:0,0:0:0:0:
434,123,19920,2,0,P|443:75|433:35,1,85,2|0,0:0|0:0,0:0:0:0:
421,24,20243,1,0,0:0:0:0:
402,13,20351,2,0,L|310:14,1,85,8|2,0:0|0:0,0:0:0:0:
135,65,20783,5,0,0:0:0:0:
283,172,20999,1,2,0:0:0:0:
283,172,21107,1,0,0:0:0:0:
283,172,21215,1,8,0:0:0:0:
240,75,21430,2,0,L|231:-22,1,85,2|0,0:0|0:0,0:0:0:0:
182,158,21862,1,2,0:0:0:0:
283,172,22078,2,0,L|384:152,1,85,8|0,0:0|0:0,0:0:0:0:
240,75,22510,5,2,0:0:0:0:
215,260,22725,1,2,0:0:0:0:
182,158,22941,1,8,0:0:0:0:
315,271,23157,2,0,L|481:239,1,170,2|2,0:0|0:0,0:0:0:0:
380,354,23805,1,8,0:0:0:0:
229,324,24020,6,0,B|189:230|262:248|210:147,1,170,2|2,0:0|0:0,0:0:0:0:
315,271,24668,2,0,L|401:255,1,85,10|0,0:0|0:0,0:0:0:0:
229,324,25099,1,2,0:0:0:0:
129,205,25315,1,2,0:0:0:0:
315,271,25531,1,8,0:0:0:0:
129,205,25747,2,0,P|124:154|133:111,1,85,0|2,0:0|0:0,0:0:0:0:
233,30,26179,5,0,0:0:0:0:
233,30,26287,1,0,0:0:0:0:
233,30,26394,2,0,L|327:32,1,85,8|0,0:0|0:0,0:0:0:0:
492,115,26826,1,2,0:0:0:0:
281,142,27042,1,2,0:0:0:0:
432,10,27258,1,8,0:0:0:0:
366,224,27474,6,0,P|382:289|451:244,1,170,2|0,0:0|0:0,0:0:0:0:
281,142,28121,1,8,0:0:0:0:
248,256,28337,1,2,0:0:0:0:
248,256,28445,1,2,0:0:0:0:
248,256,28553,2,0,L|250:349,1,85,2|0,0:0|0:0,0:0:0:0:
55,297,28984,6,0,B|20:248|56:184|56:184|128:224,1,178.499994552612,8|0,0:0|0:0,0:0:0:0:
152,284,29416,5,0,0:0:0:0:
188,57,29848,2,0,B|144:55|144:55|89:68|89:68|36:67,1,144.500002756119,2|0,0:0|0:0,0:0:0:0:
160,153,30495,2,0,L|246:146,1,72.2500013780594,0|0,0:0|0:0,0:0:0:0:
319,95,30927,1,0,0:0:0:0:
419,109,31143,5,0,0:0:0:0:
360,191,31358,1,0,0:0:0:0:
460,205,31574,1,0,0:0:0:0:
342,290,31790,2,0,B|287:303|244:285|244:285|190:294,1,144.500002756119,2|2,0:0|0:0,0:0:0:0:
56,250,32438,2,0,P|47:210|58:172,1,72.2500013780594,0|0,0:0|0:0,0:0:0:0:
119,344,32869,5,2,0:0:0:0:
199,292,33085,1,0,0:0:0:0:
119,344,33301,1,0,0:0:0:0:
146,214,33517,1,2,0:0:0:0:
119,344,33733,1,0,0:0:0:0:
119,344,34164,5,0,0:0:0:0:
119,344,34380,2,0,P|200:366|265:339,1,144.500002756119,2|2,0:0|0:0,0:0:0:0:
247,169,35028,1,0,0:0:0:0:
188,264,35243,1,2,0:0:0:0:
347,210,35459,1,0,0:0:0:0:
188,264,35675,1,0,0:0:0:0:
354,311,35891,2,0,L|441:296,2,72.2500013780594,8|2|0,0:0|0:0|0:0,0:0:0:0:
218,99,36754,6,0,B|267:92|267:92|314:101|314:101|367:98,1,144.500002756119,8|0,0:0|0:0,0:0:0:0:
257,191,37402,2,0,L|171:190,1,72.2500013780594,0|8,0:0|0:0,0:0:0:0:
35,124,37833,6,0,B|16:82|18:56|40:36|40:36|68:56|109:54,1,144.500002756119,0|0,0:0|0:0,0:0:0:0:
218,99,38481,1,8,0:0:0:0:
96,194,38697,1,0,0:0:0:0:
172,6,38912,1,0,0:0:0:0:
172,6,39020,1,0,0:0:0:0:
172,6,39128,2,0,L|253:5,1,72.2500013780594,0|8,0:0|0:0,0:0:0:0:
366,99,39560,1,0,0:0:0:0:
266,213,39776,5,0,0:0:0:0:
279,16,39992,1,0,0:0:0:0:
472,163,40207,1,8,0:0:0:0:
235,112,40423,1,0,0:0:0:0:
472,58,40639,1,0,0:0:0:0:
379,251,40855,1,0,0:0:0:0:
381,3,41071,1,8,0:0:0:0:
331,143,41287,1,0,0:0:0:0:
331,143,41394,1,0,0:0:0:0:
331,143,41502,5,0,0:0:0:0:
411,273,41718,2,0,L|495:262,1,72.2500013780594,0|8,0:0|0:0,0:0:0:0:
341,384,42150,1,0,0:0:0:0:
363,168,42366,1,0,0:0:0:0:
296,284,42581,1,8,0:0:0:0:
260,284,42689,1,0,0:0:0:0:
224,284,42797,1,8,0:0:0:0:
172,184,43013,1,0,0:0:0:0:
93,349,43229,6,0,L|84:210,1,108.375002067089,0|0,0:0|0:0,0:0:0:0:
60,167,43661,1,8,0:0:0:0:
151,54,43876,1,8,3:0:0:0:
171,69,43984,1,8,3:0:0:0:
191,84,44092,1,8,3:0:0:0:
191,84,44956,5,0,0:0:0:0:
289,31,45171,1,0,0:0:0:0:
289,31,45279,1,0,0:0:0:0:
289,31,45387,1,8,0:0:0:0:
246,174,45603,1,0,0:0:0:0:
233,195,45711,2,0,P|218:247|249:316,1,108.375002067089,8|0,0:0|0:0,0:0:0:0:
416,341,46251,1,12,3:0:0:0:
438,330,46358,1,4,3:0:0:0:
454,310,46466,1,4,3:0:0:0:
460,285,46574,1,4,3:0:0:0:
461,260,46682,5,0,0:0:0:0:
389,159,46898,1,0,0:0:0:0:
389,159,47006,1,0,0:0:0:0:
389,159,47114,2,0,L|383:107,1,36.1250006890297,8|0,0:0|0:0,0:0:0:0:
315,212,47330,2,0,L|319:247,1,36.1250006890297,0|8,0:0|0:0,0:0:0:0:
291,126,47546,2,0,L|280:25,1,72.2500013780594,0|8,0:0|3:0,0:0:0:0:
264,22,47869,2,0,P|229:13|184:29,1,72.2500013780594,0|0,0:0|0:0,0:0:0:0:
163,44,48193,1,0,0:0:0:0:
148,236,48409,5,8,3:0:0:0:
211,141,48625,1,0,0:0:0:0:
211,141,48733,1,0,0:0:0:0:
211,141,48840,2,0,L|307:129,1,72.2500013780594,8|0,0:0|0:0,0:0:0:0:
312,110,49164,2,0,L|408:98,1,72.2500013780594,8|0,0:0|0:0,0:0:0:0:
409,75,49488,2,0,L|412:26,1,36.1250006890297,8|0,3:0|0:0,0:0:0:0:
484,133,49704,1,8,0:0:0:0:
499,165,49812,1,8,0:0:0:0:
499,201,49920,1,8,0:0:0:0:
482,233,50028,1,8,0:0:0:0:
449,248,50135,6,0,B|387:230|369:284|288:234,1,144.500002756119,4|8,0:0|0:0,0:0:0:0:
144,164,50783,1,0,0:0:0:0:
144,164,50891,1,8,0:0:0:0:
144,164,50999,2,0,P|140:124|148:84,1,72.2500013780594,0|8,0:0|3:0,0:0:0:0:
207,250,51430,1,8,0:0:0:0:
56,220,51646,1,0,0:0:0:0:
207,250,51862,6,0,L|311:243,1,72.2500013780594,0|0,0:0|0:0,0:0:0:0:
293,228,52186,1,0,0:0:0:0:
305,210,52294,2,0,L|409:203,1,72.2500013780594,8|8,0:0|0:0,0:0:0:0:
212,349,52941,1,0,0:0:0:0:
69,300,53157,1,8,3:0:0:0:
59,272,53265,1,0,0:0:0:0:
57,243,53373,1,0,0:0:0:0:
67,216,53481,1,0,0:0:0:0:
89,197,53589,6,0,L|144:191,1,36.1250006890297
202,141,53805,1,8,0:0:0:0:
202,141,53912,2,0,L|171:91,1,36.1250006890297,2|8,0:0|0:0,0:0:0:0:
98,107,54128,1,0,0:0:0:0:
98,107,54236,1,10,0:0:0:0:
244,36,54452,5,0,0:0:0:0:
244,36,54560,2,0,L|309:34,1,36.1250006890297,2|0,0:0|0:0,0:0:0:0:
349,76,54776,1,0,0:0:0:0:
349,76,54884,2,0,L|414:74,1,36.1250006890297,10|0,0:0|0:0,0:0:0:0:
456,27,55099,1,0,0:0:0:0:
390,176,55315,6,0,P|366:243|427:245,1,144.500002756119,6|8,0:0|0:0,0:0:0:0:
346,363,55963,2,0,L|168:378,1,144.500002756119,8|8,0:0|0:0,0:0:0:0:
170,212,56610,1,8,0:0:0:0:
267,324,56826,1,0,0:0:0:0:
249,149,57042,6,0,P|214:120|100:142,1,144.500002756119,12|8,0:0|0:0,0:0:0:0:
48,323,57905,1,8,0:0:0:0:
79,341,58013,1,8,0:0:0:0:
114,346,58121,1,8,0:0:0:0:
149,339,58229,1,8,0:0:0:0:
178,318,58337,2,0,L|186:289,8,18.0625003445149,8|8|8|8|8|8|8|8|8,0:0|0:0|0:0|0:0|0:0|0:0|0:0|0:0|0:0,0:0:0:0:
109,243,58984,6,0,L|110:159,1,72.2500013780594,12|0,0:0|0:0,0:0:0:0:
34,182,59308,2,0,L|35:98,1,72.2500013780594,8|0,0:0|0:0,0:0:0:0:
56,80,59632,1,8,0:0:0:0:
90,67,59740,1,8,0:0:0:0:
126,68,59848,1,8,0:0:0:0:
158,83,59956,1,8,0:0:0:0:
180,103,60064,6,0,P|162:32|249:28,1,178.499994552612,8|0,0:0|0:0,0:0:0:0:
273,117,60495,6,0,L|385:99,1,85,4|0,0:0|0:0,0:0:0:0:
433,35,60927,1,8,0:0:0:0:
482,204,61143,2,0,L|490:113,1,85,2|0,0:0|0:0,0:0:0:0:
336,10,61574,1,2,0:0:0:0:
326,208,61790,1,8,0:0:0:0:
489,119,62006,1,2,0:0:0:0:
387,104,62222,5,0,0:0:0:0:
375,308,62438,1,2,0:0:0:0:
400,284,62546,1,2,0:0:0:0:
433,278,62653,1,8,0:0:0:0:
466,283,62761,1,2,0:0:0:0:
489,307,62869,1,0,0:0:0:0:
326,208,63085,2,0,L|326:121,1,85,2|0,0:0|0:0,0:0:0:0:
397,49,63517,1,8,0:0:0:0:
397,49,63733,1,0,0:0:0:0:
398,260,63948,6,0,P|318:229|237:261,1,170,0|8,0:0|0:0,0:0:0:0:
147,351,64596,2,0,L|135:256,1,85,2|0,0:0|0:0,0:0:0:0:
242,256,65028,1,2,0:0:0:0:
43,328,65243,1,8,0:0:0:0:
251,364,65459,1,2,0:0:0:0:
43,328,65675,5,0,0:0:0:0:
115,168,65891,2,0,L|116:123,1,42.5,2|0,0:0|0:0,0:0:0:0:
190,48,66107,1,8,0:0:0:0:
190,48,66322,1,2,0:0:0:0:
309,132,66538,1,0,0:0:0:0:
255,221,66754,1,8,3:0:0:0:
255,221,66862,1,0,0:0:0:0:
255,221,66970,2,0,P|253:281|264:312,1,85,8|0,0:0|0:0,0:0:0:0:
384,196,67402,6,0,P|407:112|359:45,1,170,4|8,0:0|0:0,0:0:0:0:
224,124,68049,2,0,L|322:133,1,85,2|0,0:0|0:0,0:0:0:0:
464,35,68481,1,2,0:0:0:0:
464,35,68589,1,0,0:0:0:0:
464,35,68697,1,8,0:0:0:0:
376,224,68912,1,2,0:0:0:0:
512,176,69128,5,0,0:0:0:0:
356,19,69344,2,0,L|259:20,1,85,2|8,0:0|0:0,0:0:0:0:
131,142,69776,1,2,0:0:0:0:
131,142,69884,1,2,0:0:0:0:
131,142,69992,2,0,P|124:183|135:233,1,85,2|0,0:0|0:0,0:0:0:0:
174,49,70423,2,0,P|132:41|80:56,1,85,8|2,0:0|0:0,0:0:0:0:
225,183,70855,6,0,L|351:175,1,85,0|0,0:0|0:0,0:0:0:0:
334,169,71179,1,0,0:0:0:0:
358,161,71287,2,0,P|349:202|368:257,1,85,8|0,0:0|0:0,0:0:0:0:
258,265,71718,1,0,0:0:0:0:
453,202,71934,1,0,0:0:0:0:
321,336,72150,1,8,0:0:0:0:
453,202,72366,1,0,0:0:0:0:
453,176,72474,1,0,0:0:0:0:
453,150,72581,5,8,0:0:0:0:
355,56,72797,1,0,0:0:0:0:
359,81,72905,1,8,0:0:0:0:
504,55,73121,1,0,0:0:0:0:
510,30,73229,1,8,0:0:0:0:
453,150,73445,2,0,L|448:249,1,85,0|8,0:0|0:0,0:0:0:0:
424,313,73769,1,0,0:0:0:0:
424,313,73876,6,0,P|463:237|509:301,1,178.499994552612,8|0,0:0|0:0,0:0:0:0:
482,370,74308,6,0,B|384:327|398:388|309:355,1,170,4|8,0:0|0:0,0:0:0:0:
157,246,74956,2,0,P|145:287|157:335,1,85,2|0,0:0|0:0,0:0:0:0:
253,187,75387,1,2,0:0:0:0:
66,197,75603,1,8,0:0:0:0:
244,291,75819,1,2,0:0:0:0:
53,307,76035,5,0,0:0:0:0:
158,136,76251,1,2,0:0:0:0:
166,103,76358,1,2,0:0:0:0:
160,69,76466,1,8,0:0:0:0:
138,42,76574,1,0,0:0:0:0:
107,26,76682,2,0,L|220:10,1,85,0|2,0:0|0:0,0:0:0:0:
335,105,77114,1,0,0:0:0:0:
335,105,77222,1,0,0:0:0:0:
335,105,77330,2,0,L|239:101,1,85,8|0,0:0|0:0,0:0:0:0:
74,133,77761,6,0,P|45:207|88:288,1,170,0|8,0:0|0:0,0:0:0:0:
244,268,78409,2,0,L|241:179,1,85,2|0,0:0|0:0,0:0:0:0:
172,336,78840,1,0,0:0:0:0:
338,323,79056,2,0,L|335:234,1,85,8|2,0:0|0:0,0:0:0:0:
319,37,79488,6,0,B|192:24|192:24|227:53,1,170,0|8,0:0|0:0,0:0:0:0:
393,115,80135,1,2,0:0:0:0:
319,37,80351,1,0,0:0:0:0:
272,178,80567,1,8,0:3:0:0:
274,211,80675,1,8,0:3:0:0:
275,244,80783,1,8,0:0:0:0:
277,277,80891,1,8,0:0:0:0:
278,310,80999,2,0,L|333:291,1,42.5,0|0,0:0|0:0,0:0:0:0:
197,276,81215,6,0,P|153:263|107:281,1,85,4|0,0:0|0:0,0:0:0:0:
197,276,81538,2,0,P|186:225|154:199,1,85,4|0,0:0|0:0,0:0:0:0:
197,276,81862,2,0,L|189:101,1,170,4|4,0:0|0:0,0:0:0:0:
259,11,82510,1,8,0:0:0:0:
396,137,82725,1,0,0:0:0:0:
396,137,82833,1,0,0:0:0:0:
396,137,82941,6,0,P|333:157|264:128,1,118.999996368408,4|0,0:0|0:0,0:0:0:0:
108,264,83373,6,0,P|161:246|214:250,1,101.999996887207,8|0,0:0|0:0,0:0:0:0:
441,318,83805,6,0,P|396:334|351:332,1,85,8|0,0:0|0:0,0:0:0:0:
240,272,84236,5,8,0:0:0:0:
198,264,84344,1,8,0:0:0:0:
156,273,84452,1,0,3:0:0:0:
119,294,84560,1,0,3:0:0:0:
92,327,84668,6,0,B|134:241|55:237|104:141,1,170,4|8,0:0|0:0,0:0:0:0:
2,280,85315,1,0,0:0:0:0:
193,201,85531,2,0,L|299:189,1,85,0|0,0:0|0:0,0:0:0:0:
363,93,85963,1,8,0:0:0:0:
381,199,86179,1,0,0:0:0:0:
381,199,86287,1,0,0:0:0:0:
381,199,86394,6,0,L|374:262,1,42.5,8|0,0:0|0:0,0:0:0:0:
468,248,86610,2,0,L|461:311,1,42.5,8|0,0:0|0:0,0:0:0:0:
339,219,86826,2,0,L|332:282,1,42.5,8|0,0:0|0:0,0:0:0:0:
369,85,87689,5,8,0:0:0:0:
369,85,87905,1,0,0:0:0:0:
369,85,88121,1,0,0:0:0:0:
