osu file format v14

[General]
AudioFilename: audio.mp3
AudioLeadIn: 0
PreviewTime: 59524
Countdown: 0
SampleSet: Soft
StackLeniency: 0.7
Mode: 0
LetterboxInBreaks: 0
WidescreenStoryboard: 0

[Editor]
DistanceSpacing: 1.2
BeatDivisor: 4
GridSize: 4
TimelineZoom: 1

[Metadata]
Title:Ripple Effect
TitleUnicode:Ripple Effect
Artist:Haruna Luna
ArtistUnicode:春奈るな
Creator:Karen
Version:Hard
Source:ハイスクール・フリート
Tags:High School Fleet はいふり Hai-Furi haifuri ZAQ ending Kawaiwkyik Rizia
BeatmapID:963935
BeatmapSetID:446205

[Difficulty]
HPDrainRate:5
CircleSize:4
OverallDifficulty:6
ApproachRate:7
SliderMultiplier:1.5
SliderTickRate:1

[Events]
//Background and Video events
0,0,"1.jpg",0,0
//Break Periods
//Storyboard Layer 0 (Background)
//Storyboard Layer 1 (Fail)
//Storyboard Layer 2 (Pass)
//Storyboard Layer 3 (Foreground)
//Storyboard Sound Samples

[TimingPoints]
64,431.654676258993,4,2,1,50,1,0
1790,-133.333333333333,4,2,1,30,0,0
8697,-117.647058823529,4,2,1,30,0,0
15171,-71.4285714285714,4,2,2,50,0,0
15387,-100,4,2,2,50,0,0
15603,-100,4,2,1,50,0,0
28984,-71.4285714285714,4,2,2,50,0,0
29416,-117.647058823529,4,2,2,40,0,0
42581,-117.647058823529,4,2,1,40,0,0
60064,-71.4285714285714,4,2,2,50,0,0
60495,-100,4,2,1,50,0,1
73876,-71.4285714285714,4,2,2,50,0,0
74308,-100,4,2,1,50,0,1
87689,-133.333333333333,4,2,2,30,0,0

[Colours]
Combo1 : 255,173,134
Combo2 : 205,241,252
Combo3 : 117,186,255
Combo4 : 255,210,166

[HitObjects]
136,129,1790,6,0,P|178:123|205:130,2,56.2500021457673,2|0|0,0:0|0:0|0:0,0:0:0:0:
260,179,2438,2,0,P|279:118|251:61,1,112.500004291535,2|2,0:0|0:0,0:0:0:0:
198,19,3085,1,0,0:0:0:0:
326,14,3301,6,0,L|397:21,1,56.2500021457673,2|0,0:0|0:0,0:0:0:0:
418,95,3733,2,0,L|489:102,1,56.2500021457673,2|0,0:0|0:0,0:0:0:0:
424,190,4164,2,0,L|300:177,1,112.500004291535,2|0,0:0|0:0,0:0:0:0:
243,128,4812,1,2,0:0:0:0:
158,122,5028,1,0,0:0:0:0:
91,173,5243,6,0,P|101:114|63:56,1,112.500004291535,2|0,0:0|0:0,0:0:0:0:
4,192,5891,2,0,L|14:258,1,56.2500021457673,2|0,0:0|0:0,0:0:0:0:
82,295,6322,2,0,P|112:291|159:296,2,56.2500021457673,2|0|2,0:0|0:0|0:0,0:0:0:0:
4,329,6970,5,0,0:0:0:0:
116,379,7186,2,0,L|183:367,1,56.2500021457673,2|0,0:0|0:0,0:0:0:0:
222,301,7617,2,0,L|289:289,1,56.2500021457673,2|0,0:0|0:0,0:0:0:0:
343,238,8049,1,0,0:0:0:0:
345,349,8265,1,2,0:0:0:0:
345,349,8481,1,0,0:0:0:0:
259,195,8697,6,0,P|305:148|380:144,1,127.50000243187,0|0,1:0|1:0,0:0:0:0:
450,180,9344,2,0,L|455:97,1,63.7500012159348,0|0,0:0|1:0,0:0:0:0:
415,28,9776,2,0,P|445:20|491:27,2,63.7500012159348,0|0|0,0:0|1:0|0:0,0:0:0:0:
337,84,10423,5,0,1:0:0:0:
337,84,10639,1,0,0:0:0:0:
252,38,10855,1,0,1:0:0:0:
160,65,11071,1,0,0:0:0:0:
160,65,11287,2,0,P|156:97|164:144,1,63.7500012159348,0|0,1:0|0:0,0:0:0:0:
226,196,11718,1,0,1:0:0:0:
226,196,11934,1,0,0:0:0:0:
75,166,12150,6,0,B|30:151|-12:163|-12:163|9:182|8:220,1,127.50000243187,0|0,1:0|1:0,0:0:0:0:
58,277,12797,2,0,L|139:268,1,63.7500012159348,0|0,0:0|1:0,0:0:0:0:
182,195,13229,1,0,0:0:0:0:
187,337,13445,1,0,1:0:0:0:
121,269,13661,1,0,0:0:0:0:
264,234,13876,6,0,P|357:130|408:261,1,318.750006079674,0|2,0:0|0:0,0:0:0:0:
343,211,15171,6,0,L|349:25,1,157.499995193482,8|0,0:0|0:0,0:0:0:0:
375,17,15603,6,0,B|428:-8|475:10|475:10|446:52,1,150,4|8,0:0|0:0,0:0:0:0:
343,108,16251,2,0,L|257:102,1,75,2|0,0:0|0:0,0:0:0:0:
156,27,16682,2,0,L|245:12,1,75,2|8,0:0|0:0,0:0:0:0:
171,118,17114,6,0,P|140:179|178:255,1,150,2|2,0:0|0:0,0:0:0:0:
253,300,17761,2,0,L|339:278,1,75,10|0,0:0|0:0,0:0:0:0:
408,229,18193,1,2,0:0:0:0:
408,229,18409,1,2,0:0:0:0:
478,338,18625,2,0,L|394:330,1,75,10|0,0:0|0:0,0:0:0:0:
347,146,19056,6,0,P|421:130|488:170,2,150,0|8|2,0:0|0:0|0:0,0:0:0:0:
272,208,20135,1,0,0:0:0:0:
272,208,20243,1,0,0:0:0:0:
272,208,20351,2,0,L|263:114,1,75,8|2,0:0|0:0,0:0:0:0:
235,39,20783,1,0,0:0:0:0:
145,0,20999,6,0,P|102:-5|60:7,2,75,2|8|2,0:0|0:0|0:0,0:0:0:0:
235,39,21646,1,0,0:0:0:0:
232,136,21862,1,2,0:0:0:0:
149,188,22078,2,0,L|73:187,1,75,8|0,0:0|0:0,0:0:0:0:
215,265,22510,5,2,0:0:0:0:
232,136,22725,1,2,0:0:0:0:
215,265,22941,1,8,0:0:0:0:
74,187,23157,2,0,B|56:145|60:106|80:84|80:84|108:98|147:98,1,150,2|2,0:0|0:0,0:0:0:0:
162,193,23805,1,8,0:0:0:0:
106,273,24020,6,0,B|42:257|-3:276|-3:276|34:320,1,150,2|2,0:0|0:0,0:0:0:0:
136,364,24668,2,0,L|223:352,1,75,10|0,0:0|0:0,0:0:0:0:
327,260,25099,1,2,0:0:0:0:
309,361,25315,1,2,0:0:0:0:
225,245,25531,2,0,P|221:203|237:156,1,75,8|0,0:0|0:0,0:0:0:0:
302,74,25963,6,0,P|238:45|160:76,2,150,2|8|2,0:0|0:0|0:0,0:0:0:0:
369,157,27042,1,2,0:0:0:0:
369,157,27258,1,8,0:0:0:0:
420,38,27474,6,0,L|264:31,1,150,2|0,0:0|0:0,0:0:0:0:
205,104,28121,1,8,0:0:0:0:
265,179,28337,1,2,0:0:0:0:
265,179,28445,1,2,0:0:0:0:
265,179,28553,2,0,P|270:227|259:271,1,75,2|0,0:0|0:0,0:0:0:0:
234,359,28984,6,0,L|400:332,1,157.499995193482,8|0,0:0|0:0,0:0:0:0:
417,302,29416,6,0,P|405:347|469:366,1,127.50000243187,0|2,0:0|0:0,0:0:0:0:
509,278,30064,1,0,0:0:0:0:
484,186,30279,1,0,0:0:0:0:
398,143,30495,2,0,L|314:152,1,63.7500012159348,0|0,0:0|0:0,0:0:0:0:
295,237,30927,2,0,L|231:243,1,63.7500012159348,0|0,0:0|0:0,0:0:0:0:
149,195,31358,5,0,0:0:0:0:
149,195,31574,1,0,0:0:0:0:
107,339,31790,2,0,L|239:332,1,127.50000243187,2|2,0:0|0:0,0:0:0:0:
318,286,32438,2,0,P|330:324|324:368,1,63.7500012159348,0|0,0:0|0:0,0:0:0:0:
235,237,32869,5,2,0:0:0:0:
235,237,33085,1,0,0:0:0:0:
305,172,33301,1,0,0:0:0:0:
305,172,33517,1,2,0:0:0:0:
385,224,33733,2,0,L|457:221,1,63.7500012159348,0|0,0:0|0:0,0:0:0:0:
462,126,34164,1,0,0:0:0:0:
305,172,34380,6,0,P|290:234|323:296,1,127.50000243187,2|2,0:0|0:0,0:0:0:0:
230,333,35028,2,0,L|146:324,1,63.7500012159348,0|2,0:0|0:0,0:0:0:0:
15,299,35459,1,0,0:0:0:0:
139,243,35675,1,0,0:0:0:0:
87,359,35891,1,8,0:0:0:0:
52,212,36107,1,2,0:0:0:0:
87,359,36322,5,0,0:0:0:0:
87,359,36754,2,0,B|148:336|149:374|229:355,1,127.50000243187,8|0,0:0|0:0,0:0:0:0:
306,299,37402,2,0,L|310:376,1,63.7500012159348,0|8,0:0|0:0,0:0:0:0:
246,230,37833,6,0,P|306:207|365:227,1,127.50000243187,0|0,0:0|0:0,0:0:0:0:
420,303,38481,1,8,0:0:0:0:
434,168,38697,2,0,L|436:99,1,63.7500012159348,0|0,0:0|0:0,0:0:0:0:
482,20,39128,1,0,0:0:0:0:
355,51,39344,1,8,0:0:0:0:
435,104,39560,1,0,0:0:0:0:
355,51,39776,6,0,P|309:44|276:53,1,63.7500012159348,0|0,0:0|0:0,0:0:0:0:
216,105,40207,1,8,0:0:0:0:
216,105,40423,1,0,0:0:0:0:
125,74,40639,2,0,L|124:-5,1,63.7500012159348,0|0,0:0|0:0,0:0:0:0:
216,105,41071,1,8,0:0:0:0:
56,144,41287,1,0,0:0:0:0:
56,144,41394,1,0,0:0:0:0:
56,144,41502,5,0,0:0:0:0:
125,74,41718,1,0,0:0:0:0:
189,205,41934,2,0,L|118:205,1,63.7500012159348,8|0,0:0|0:0,0:0:0:0:
0,223,42366,1,0,0:0:0:0:
63,310,42581,1,8,0:0:0:0:
56,144,42797,1,8,0:0:0:0:
56,144,43229,6,0,P|49:92|66:42,1,95.6250018239022,0|0,0:0|0:0,0:0:0:0:
95,27,43661,2,0,L|174:21,1,63.7500012159348,8|8,0:0|3:0,0:0:0:0:
176,29,43984,1,8,3:0:0:0:
193,37,44092,1,8,3:0:0:0:
193,37,44956,5,0,0:0:0:0:
270,92,45171,1,0,0:0:0:0:
270,92,45279,1,0,0:0:0:0:
270,92,45387,2,0,L|346:82,1,63.7500012159348,8|0,0:0|0:0,0:0:0:0:
361,53,45711,2,0,P|408:39|471:62,1,95.6250018239022,8|0,0:0|0:0,0:0:0:0:
410,153,46251,2,0,L|405:194,3,31.8750006079674,12|4|4|4,3:0|3:0|3:0|3:0,0:0:0:0:
381,218,46682,6,0,L|299:217,1,63.7500012159348,0|0,0:0|0:0,0:0:0:0:
301,205,47006,1,0,0:0:0:0:
285,194,47114,2,0,L|203:193,1,63.7500012159348,8|0,0:0|0:0,0:0:0:0:
204,203,47438,1,8,0:0:0:0:
188,214,47546,1,0,0:0:0:0:
249,286,47761,2,0,P|257:320|251:361,2,63.7500012159348,8|0|0,3:0|0:0|0:0,0:0:0:0:
188,214,48409,5,8,3:0:0:0:
222,124,48625,1,0,0:0:0:0:
222,124,48733,1,0,0:0:0:0:
222,124,48840,2,0,L|295:121,1,63.7500012159348,8|0,0:0|0:0,0:0:0:0:
311,93,49164,2,0,P|318:45|304:-5,1,95.6250018239022,8|8,0:0|3:0,0:0:0:0:
404,81,49704,2,0,L|408:118,3,31.8750006079674,8|8|8|8,0:0|0:0|0:0|0:0,0:0:0:0:
386,148,50135,6,0,L|398:276,1,127.50000243187,4|8,0:0|0:0,0:0:0:0:
429,365,50783,1,0,0:0:0:0:
429,365,50891,1,8,0:0:0:0:
429,365,50999,2,0,P|464:367|504:363,1,63.7500012159348,0|8,0:0|3:0,0:0:0:0:
397,274,51430,2,0,P|362:272|322:276,1,63.7500012159348,8|0,0:0|0:0,0:0:0:0:
251,323,51862,6,0,L|245:213,1,95.6250018239022
222,192,52294,2,0,L|217:102,1,63.7500012159348,8|8,0:0|0:0,0:0:0:0:
32,91,52941,1,0,0:0:0:0:
72,4,53157,2,0,L|114:3,3,31.8750006079674,8|0|0|0,3:0|0:0|0:0|0:0,0:0:0:0:
134,32,53589,6,0,P|117:100|149:160,1,127.50000243187,0|8,0:0|0:0,0:0:0:0:
216,207,54236,1,10,0:0:0:0:
168,290,54452,2,0,P|106:268|40:293,1,127.50000243187,0|10,0:0|0:0,0:0:0:0:
105,362,55099,1,0,0:0:0:0:
240,350,55315,6,0,B|292:339|343:352|343:352|379:348,1,127.50000243187,6|8,0:0|0:0,0:0:0:0:
433,280,55963,2,0,L|436:207,1,63.7500012159348,8|0,0:0|0:0,0:0:0:0:
384,135,56394,1,8,0:0:0:0:
426,49,56610,1,8,0:0:0:0:
512,91,56826,1,0,0:0:0:0:
384,135,57042,6,0,B|318:113|312:153|238:125,1,127.50000243187,12|8,0:0|0:0,0:0:0:0:
71,87,57905,2,0,B|69:119|69:119|82:153|82:153|81:192,2,95.6250018239022,8|8|8,0:0|0:0|0:0,0:0:0:0:
187,239,58984,6,0,P|193:262|184:321,1,63.7500012159348,12|0,0:0|0:0,0:0:0:0:
166,335,59308,2,0,L|95:333,1,63.7500012159348,8|0,0:0|0:0,0:0:0:0:
63,317,59632,2,0,L|56:285,3,31.8750006079674,8|8|8|8,0:0|0:0|0:0|0:0,0:0:0:0:
74,242,60064,6,0,L|247:246,1,157.499995193482,8|0,0:0|0:0,0:0:0:0:
231,245,60495,6,0,P|258:187|222:95,1,150,4|8,0:0|0:0,0:0:0:0:
232,12,61143,1,2,0:0:0:0:
232,12,61251,1,0,0:0:0:0:
232,12,61358,2,0,L|316:8,1,75,0|2,0:0|0:0,0:0:0:0:
392,38,61790,1,8,0:0:0:0:
392,38,62006,1,2,0:0:0:0:
477,11,62222,5,0,0:0:0:0:
431,121,62438,1,2,0:0:0:0:
431,121,62546,1,2,0:0:0:0:
431,121,62653,2,0,L|433:161,2,37.5,8|2|0,0:0|0:0|0:0,0:0:0:0:
392,38,63085,2,0,P|349:27|295:33,1,75,2|0,0:0|0:0,0:0:0:0:
340,188,63517,2,0,L|345:106,1,75,8|0,0:0|0:0,0:0:0:0:
248,78,63948,6,0,L|238:240,1,150,0|8,0:0|0:0,0:0:0:0:
270,312,64596,1,2,0:0:0:0:
344,261,64812,2,0,P|382:250|430:265,1,75,0|2,0:0|0:0,0:0:0:0:
485,314,65243,1,8,0:0:0:0:
485,314,65459,1,2,0:0:0:0:
495,224,65675,5,0,0:0:0:0:
381,342,65891,1,2,0:0:0:0:
381,342,65999,1,0,0:0:0:0:
381,342,66107,2,0,L|291:340,1,75,8|2,0:0|0:0,0:0:0:0:
179,232,66538,1,0,0:0:0:0:
179,232,66754,1,8,3:0:0:0:
265,207,66970,1,8,0:0:0:0:
265,207,67186,1,0,0:0:0:0:
186,325,67402,6,0,P|108:300|86:230,1,150,4|8,0:0|0:0,0:0:0:0:
185,157,68049,1,2,0:0:0:0:
185,157,68265,2,0,L|178:240,1,75,0|2,0:0|0:0,0:0:0:0:
78,316,68697,2,0,L|84:241,1,75,8|2,0:0|0:0,0:0:0:0:
102,107,69128,5,0,0:0:0:0:
12,144,69344,2,0,P|4:104|20:56,2,75,2|8|2,0:0|0:0|0:0,0:0:0:0:
185,157,69992,2,0,B|240:142|285:158|285:158|347:156,1,150,2|8,0:0|0:0,0:0:0:0:
407,104,70639,1,2,0:0:0:0:
346,37,70855,6,0,L|264:30,1,75,0|0,0:0|0:0,0:0:0:0:
407,104,71287,2,0,L|498:90,1,75,8|0,0:0|0:0,0:0:0:0:
425,199,71718,1,0,0:0:0:0:
425,199,71934,1,0,0:0:0:0:
320,144,72150,2,0,P|311:107|316:70,1,75,8|0,0:0|0:0,0:0:0:0:
425,199,72581,6,0,B|437:254|437:254|425:322,2,112.5,8|8|8,0:0|0:0|0:0,0:0:0:0:
353,254,73445,1,0,0:0:0:0:
353,254,73661,1,8,0:0:0:0:
364,363,73876,2,0,P|424:330|504:363,1,157.499995193482,8|0,0:0|0:0,0:0:0:0:
502,360,74308,6,0,P|481:285|519:221,1,150,4|8,0:0|0:0,0:0:0:0:
418,239,74956,2,0,L|323:233,1,75,2|0,0:0|0:0,0:0:0:0:
264,191,75387,1,2,0:0:0:0:
298,108,75603,1,8,0:0:0:0:
264,191,75819,6,0,P|253:239|259:275,1,75,2|0,0:0|0:0,0:0:0:0:
298,344,76251,1,2,0:0:0:0:
298,344,76358,1,2,0:0:0:0:
298,344,76466,2,0,L|349:342,2,37.5,8|0|0,0:0|0:0|0:0,0:0:0:0:
160,303,76898,1,2,0:0:0:0:
214,374,77114,1,0,0:0:0:0:
228,237,77330,1,8,0:0:0:0:
228,237,77546,1,0,0:0:0:0:
101,235,77761,6,0,P|73:294|113:381,1,150,0|8,0:0|0:0,0:0:0:0:
160,303,78409,1,2,0:0:0:0:
165,169,78625,2,0,L|166:85,1,75,0|0,0:0|0:0,0:0:0:0:
102,30,79056,1,8,0:0:0:0:
102,30,79272,1,2,0:0:0:0:
255,73,79488,6,0,B|361:72|361:72|426:87,1,150,0|8,0:0|0:0,0:0:0:0:
484,122,80135,1,2,0:0:0:0:
484,122,80243,1,0,0:0:0:0:
484,122,80351,2,0,P|492:85|484:32,1,75,0|8,0:0|0:3,0:0:0:0:
404,168,80783,1,8,0:0:0:0:
456,240,80999,1,0,0:0:0:0:
456,240,81107,1,0,0:0:0:0:
456,240,81215,6,0,B|458:290|454:330|454:330|464:368,2,112.5,4|4|4,0:0|0:0|0:0,0:0:0:0:
301,150,82294,1,4,0:0:0:0:
277,236,82510,1,8,0:0:0:0:
245,319,82725,1,4,0:0:0:0:
172,265,82941,6,0,L|165:180,1,75,4|0,0:0|0:0,0:0:0:0:
94,315,83373,2,0,L|87:230,1,75,4|0,0:0|0:0,0:0:0:0:
17,359,83805,2,0,L|10:274,1,75,8|0,0:0|0:0,0:0:0:0:
29,165,84236,2,0,L|7:131,3,37.5,8|8|0|0,0:0|0:0|3:0|3:0,0:0:0:0:
13,88,84668,6,0,P|85:112|162:81,1,150,4|8,0:0|0:0,0:0:0:0:
217,26,85315,1,0,0:0:0:0:
217,26,85531,2,0,L|297:21,1,75,0|0,0:0|0:0,0:0:0:0:
358,82,85963,1,8,0:0:0:0:
341,170,86179,1,0,0:0:0:0:
341,170,86287,1,0,0:0:0:0:
341,170,86394,5,8,0:0:0:0:
382,58,86610,1,8,0:0:0:0:
273,108,86826,1,8,0:0:0:0:
273,108,87689,6,0,L|281:224,1,112.500004291535,8|0,0:0|0:0,0:0:0:0:
