osu file format v14

[General]
AudioFilename: audio.mp3
AudioLeadIn: 0
PreviewTime: 66738
Countdown: 1
SampleSet: None
StackLeniency: 0.7
Mode: 1
LetterboxInBreaks: 0
WidescreenStoryboard: 1

[Editor]
Bookmarks: 631,6379,12128,17876,29373,35122,52367,60990,68175,79672,88295,98355,106978
DistanceSpacing: 0.7
BeatDivisor: 4
GridSize: 32
TimelineZoom: 2.1

[Metadata]
Title:Momoiro Typhoon
TitleUnicode:桃色タイフーン
Artist:Haruna Luna
ArtistUnicode:春奈るな
Creator:gaston_2199
Version:Oni
Source:ゆらぎ荘の幽奈さん
Tags:
BeatmapID:2048389
BeatmapSetID:978829

[Difficulty]
HPDrainRate:5
CircleSize:2
OverallDifficulty:6
ApproachRate:10
SliderMultiplier:1.4
SliderTickRate:1

[Events]
//Background and Video events
0,0,"BG.jpg",0,40
//Break Periods
//Storyboard Layer 0 (Background)
//Storyboard Layer 1 (Fail)
//Storyboard Layer 2 (Pass)
//Storyboard Layer 3 (Foreground)
//Storyboard Sound Samples

[TimingPoints]
631,359.281437125748,4,1,0,80,1,0
6379,-100,4,1,0,80,0,1
12128,-100,4,1,0,80,0,0
17876,-111.111111111111,4,1,0,80,0,0
35122,-100,4,1,0,80,0,0
68175,-100,4,1,0,80,0,1
73924,-100,4,1,0,80,0,0
79672,-100,4,1,0,80,0,1
85421,-100,4,1,0,80,0,0
98355,-100,4,1,0,80,0,1
104104,-100,4,1,0,80,0,0

[HitObjects]
256,192,631,5,12,0:0:0:0:
256,192,990,1,0,0:0:0:0:
256,192,1349,1,0,0:0:0:0:
256,192,1529,1,8,0:0:0:0:
256,192,1708,1,0,0:0:0:0:
256,192,2068,1,0,0:0:0:0:
256,192,2427,1,0,0:0:0:0:
256,192,2786,1,0,0:0:0:0:
256,192,2966,1,8,0:0:0:0:
256,192,3145,1,0,0:0:0:0:
256,192,3505,1,8,0:0:0:0:
256,192,3684,1,0,0:0:0:0:
256,192,3864,1,8,0:0:0:0:
256,192,4044,1,8,0:0:0:0:
256,192,4223,1,0,0:0:0:0:
256,192,4403,1,0,0:0:0:0:
256,192,4583,1,8,0:0:0:0:
256,192,4672,1,0,0:0:0:0:
256,192,4762,1,8,0:0:0:0:
256,192,4942,1,12,0:0:0:0:
256,192,5122,1,12,0:0:0:0:
256,192,5481,1,4,0:0:0:0:
256,192,5840,1,4,0:0:0:0:
256,192,6199,1,8,0:0:0:0:
256,192,6379,1,4,0:0:0:0:
256,160,6738,1,8,0:0:0:0:
256,192,6918,1,0,0:0:0:0:
256,192,7098,1,8,0:0:0:0:
256,192,7187,1,0,0:0:0:0:
256,192,7277,1,8,0:0:0:0:
256,192,7457,1,8,0:0:0:0:
256,192,7636,1,0,0:0:0:0:
256,192,7816,1,8,0:0:0:0:
256,192,8175,1,8,0:0:0:0:
256,192,8355,1,0,0:0:0:0:
256,192,8445,1,0,0:0:0:0:
256,192,8535,1,8,0:0:0:0:
256,192,8714,1,0,0:0:0:0:
256,192,8894,1,8,0:0:0:0:
256,192,9074,1,8,0:0:0:0:
256,192,9253,1,0,0:0:0:0:
256,192,9613,1,8,0:0:0:0:
256,192,9792,1,0,0:0:0:0:
256,192,9972,1,8,0:0:0:0:
256,192,10062,1,8,0:0:0:0:
256,192,10151,1,0,0:0:0:0:
256,192,10331,1,8,0:0:0:0:
256,192,10511,1,0,0:0:0:0:
256,192,10690,1,8,0:0:0:0:
256,192,10780,1,8,0:0:0:0:
256,192,10870,1,8,0:0:0:0:
256,192,11050,1,8,0:0:0:0:
256,192,11229,1,0,0:0:0:0:
256,192,11409,1,8,0:0:0:0:
256,192,11589,1,8,0:0:0:0:
256,192,11678,1,8,0:0:0:0:
256,192,11768,1,0,0:0:0:0:
256,192,11858,1,0,0:0:0:0:
256,192,11948,1,8,0:0:0:0:
256,192,12128,1,4,0:0:0:0:
256,192,12487,1,8,0:0:0:0:
256,192,12666,1,0,0:0:0:0:
256,192,13026,1,0,0:0:0:0:
256,192,13205,1,8,0:0:0:0:
256,192,13385,1,0,0:0:0:0:
256,192,13475,1,0,0:0:0:0:
256,192,13565,1,0,0:0:0:0:
256,192,13744,1,0,0:0:0:0:
256,192,13924,1,8,0:0:0:0:
256,192,14104,1,0,0:0:0:0:
256,192,14463,1,0,0:0:0:0:
256,192,14642,1,8,0:0:0:0:
256,192,15002,1,12,0:0:0:0:
256,192,15181,1,4,0:0:0:0:
256,192,15541,1,12,0:0:0:0:
256,192,15720,1,4,0:0:0:0:
256,192,16080,1,12,0:0:0:0:
256,192,16259,1,4,0:0:0:0:
256,192,16619,1,12,0:0:0:0:
256,192,16798,1,12,0:0:0:0:
256,192,16978,1,0,0:0:0:0:
256,192,17157,1,12,0:0:0:0:
256,192,17876,1,0,0:0:0:0:
256,192,18235,1,0,0:0:0:0:
256,192,18415,1,8,0:0:0:0:
256,192,18595,1,0,0:0:0:0:
256,192,18954,1,8,0:0:0:0:
256,192,19313,1,0,0:0:0:0:
256,192,19672,1,8,0:0:0:0:
256,192,19852,1,0,0:0:0:0:
256,192,20032,1,8,0:0:0:0:
256,192,20391,1,8,0:0:0:0:
256,192,20750,1,0,0:0:0:0:
256,192,21110,1,8,0:0:0:0:
256,192,21289,1,8,0:0:0:0:
256,192,21469,1,0,0:0:0:0:
256,192,21828,1,8,0:0:0:0:
256,192,22008,1,0,0:0:0:0:
256,192,22367,1,8,0:0:0:0:
256,192,22726,1,0,0:0:0:0:
256,192,22906,1,8,0:0:0:0:
256,192,23265,1,8,0:0:0:0:
256,192,23445,1,0,0:0:0:0:
256,192,23625,1,8,0:0:0:0:
256,192,23984,1,0,0:0:0:0:
256,192,24343,1,8,0:0:0:0:
256,192,24523,1,0,0:0:0:0:
256,192,24702,1,8,0:0:0:0:
256,192,24882,1,8,0:0:0:0:
256,192,25241,1,0,0:0:0:0:
256,192,25421,1,8,0:0:0:0:
266,188,25601,1,8,0:0:0:0:
256,192,25780,1,0,0:0:0:0:
256,192,26139,1,8,0:0:0:0:
256,192,26319,1,0,0:0:0:0:
256,192,26678,1,0,0:0:0:0:
256,192,26858,1,8,0:0:0:0:
256,192,27038,1,0,0:0:0:0:
256,192,27217,1,8,0:0:0:0:
256,192,27577,1,8,0:0:0:0:
256,192,27756,1,8,0:0:0:0:
256,192,27936,1,0,0:0:0:0:
276,197,28295,1,0,0:0:0:0:
256,192,28654,1,8,0:0:0:0:
276,197,29014,1,8,0:0:0:0:
276,197,29373,1,4,0:0:0:0:
270,185,29732,1,0,0:0:0:0:
270,185,29912,1,8,0:0:0:0:
270,185,30092,1,0,0:0:0:0:
270,185,30451,1,8,0:0:0:0:
282,193,30810,1,0,0:0:0:0:
270,185,30990,1,8,0:0:0:0:
270,185,31349,1,0,0:0:0:0:
276,197,31529,1,8,0:0:0:0:
276,197,31708,1,0,0:0:0:0:
276,197,31888,1,8,0:0:0:0:
276,197,32247,1,0,0:0:0:0:
276,197,32607,1,8,0:0:0:0:
276,197,32786,1,0,0:0:0:0:
276,197,32966,1,8,0:0:0:0:
276,197,33325,1,0,0:0:0:0:
276,197,33684,1,8,0:0:0:0:
276,197,33864,1,0,0:0:0:0:
276,197,34223,1,8,0:0:0:0:
276,197,34403,1,0,0:0:0:0:
276,197,34762,1,8,0:0:0:0:
276,197,35122,1,4,0:0:0:0:
276,197,35481,1,8,0:0:0:0:
276,197,35660,1,8,0:0:0:0:
276,197,35840,1,0,0:0:0:0:
276,197,36020,1,0,0:0:0:0:
276,197,36199,1,8,0:0:0:0:
276,197,36379,1,0,0:0:0:0:
276,197,36738,1,0,0:0:0:0:
276,197,36918,1,8,0:0:0:0:
276,197,37098,1,0,0:0:0:0:
276,197,37277,1,8,0:0:0:0:
276,197,37367,1,0,0:0:0:0:
276,197,37457,1,0,0:0:0:0:
276,197,37636,1,8,0:0:0:0:
276,197,37816,1,8,0:0:0:0:
276,197,37996,1,0,0:0:0:0:
276,197,38355,1,8,0:0:0:0:
282,178,38535,1,0,0:0:0:0:
282,178,38714,1,0,0:0:0:0:
282,178,38894,1,0,0:0:0:0:
282,178,39074,1,8,0:0:0:0:
282,178,39253,1,0,0:0:0:0:
282,178,39613,1,0,0:0:0:0:
282,178,39792,1,8,0:0:0:0:
282,178,39972,1,0,0:0:0:0:
282,178,40062,1,0,0:0:0:0:
282,178,40151,1,8,0:0:0:0:
282,178,40331,1,0,0:0:0:0:
282,178,40511,1,8,0:0:0:0:
276,197,40870,1,4,0:0:0:0:
276,197,41229,1,8,0:0:0:0:
276,197,41409,1,0,0:0:0:0:
276,197,41589,1,8,0:0:0:0:
276,197,41768,1,8,0:0:0:0:
276,197,41948,1,8,0:0:0:0:
276,197,42128,1,0,0:0:0:0:
276,197,42487,1,0,0:0:0:0:
276,197,42666,1,8,0:0:0:0:
276,197,42846,1,0,0:0:0:0:
276,197,43026,1,8,0:0:0:0:
276,197,43116,1,8,0:0:0:0:
276,197,43205,1,0,0:0:0:0:
276,197,43385,1,8,0:0:0:0:
276,197,43565,1,8,0:0:0:0:
276,197,43744,1,0,0:0:0:0:
276,197,44104,1,8,0:0:0:0:
282,178,44283,1,0,0:0:0:0:
282,178,44463,1,0,0:0:0:0:
282,178,44642,1,0,0:0:0:0:
282,178,44822,1,8,0:0:0:0:
282,178,45002,1,0,0:0:0:0:
282,178,45361,1,0,0:0:0:0:
282,178,45541,1,8,0:0:0:0:
282,178,45630,1,0,0:0:0:0:
282,178,45720,1,8,0:0:0:0:
282,178,45900,1,8,0:0:0:0:
282,178,46080,1,0,0:0:0:0:
282,178,46259,1,8,0:0:0:0:
295,186,46619,1,4,0:0:0:0:
274,164,46978,1,8,0:0:0:0:
274,164,47157,1,0,0:0:0:0:
274,164,47337,1,8,0:0:0:0:
274,164,47696,1,8,0:0:0:0:
274,164,47876,1,0,0:0:0:0:
274,164,48235,1,0,0:0:0:0:
274,164,48415,1,8,0:0:0:0:
274,164,48595,1,0,0:0:0:0:
274,164,48684,1,0,0:0:0:0:
274,164,48774,1,8,0:0:0:0:
265,148,48954,1,0,0:0:0:0:
265,148,49133,1,8,0:0:0:0:
279,168,49313,1,8,0:0:0:0:
295,186,49493,1,4,0:0:0:0:
274,164,49852,1,8,0:0:0:0:
274,164,50032,1,0,0:0:0:0:
274,164,50211,1,8,0:0:0:0:
301,186,50391,1,0,0:0:0:0:
301,186,50481,1,0,0:0:0:0:
301,186,50571,1,8,0:0:0:0:
301,186,50660,1,8,0:0:0:0:
301,186,50750,1,0,0:0:0:0:
301,186,50930,1,12,0:0:0:0:
301,186,51110,1,4,0:0:0:0:
274,164,51469,1,12,0:0:0:0:
274,164,51648,1,4,0:0:0:0:
265,148,52008,1,12,0:0:0:0:
279,168,52367,1,0,0:0:0:0:
288,182,52636,1,8,0:0:0:0:
288,180,52906,1,0,0:0:0:0:
288,180,53086,1,8,0:0:0:0:
288,180,53445,1,0,0:0:0:0:
288,182,53535,1,0,0:0:0:0:
288,180,53625,1,0,0:0:0:0:
288,180,53804,1,8,0:0:0:0:
277,178,53984,1,0,0:0:0:0:
277,178,54074,1,8,0:0:0:0:
288,180,54343,1,0,0:0:0:0:
288,180,54523,1,8,0:0:0:0:
288,180,54882,1,8,0:0:0:0:
286,180,55062,1,8,0:0:0:0:
279,168,55241,1,0,0:0:0:0:
288,182,55511,1,0,0:0:0:0:
288,180,55780,1,0,0:0:0:0:
288,180,55960,1,8,0:0:0:0:
288,180,56319,1,0,0:0:0:0:
288,182,56409,1,0,0:0:0:0:
288,180,56499,1,0,0:0:0:0:
288,180,56678,1,8,0:0:0:0:
277,178,56858,1,0,0:0:0:0:
277,178,56948,1,8,0:0:0:0:
288,180,57217,1,0,0:0:0:0:
288,180,57397,1,8,0:0:0:0:
288,180,57487,1,8,0:0:0:0:
288,180,57577,1,0,0:0:0:0:
288,180,57756,1,8,0:0:0:0:
288,180,58116,1,4,0:0:0:0:
288,182,58385,1,8,0:0:0:0:
288,180,58654,1,0,0:0:0:0:
288,180,58834,1,8,0:0:0:0:
288,180,59193,1,0,0:0:0:0:
288,182,59283,1,0,0:0:0:0:
288,180,59373,1,0,0:0:0:0:
288,180,59553,1,8,0:0:0:0:
277,178,59732,1,0,0:0:0:0:
277,178,59822,1,8,0:0:0:0:
288,180,60092,1,0,0:0:0:0:
288,180,60271,1,8,0:0:0:0:
288,180,60630,1,8,0:0:0:0:
286,180,60810,1,8,0:0:0:0:
279,168,60990,1,4,0:0:0:0:
288,182,61169,1,8,0:0:0:0:
288,180,61529,1,8,0:0:0:0:
288,180,61708,1,8,0:0:0:0:
288,182,61888,1,0,0:0:0:0:
288,180,62068,1,8,0:0:0:0:
288,180,62247,1,0,0:0:0:0:
277,178,62607,1,0,0:0:0:0:
288,180,62786,1,8,0:0:0:0:
288,180,62966,1,0,0:0:0:0:
288,180,63145,1,8,0:0:0:0:
288,180,63235,1,8,0:0:0:0:
288,180,63325,1,0,0:0:0:0:
288,180,63505,1,8,0:0:0:0:
288,180,63864,1,8,0:0:0:0:
288,168,64044,1,8,0:0:0:0:
299,185,64133,1,8,0:0:0:0:
288,168,64223,1,0,0:0:0:0:
288,168,64403,1,8,0:0:0:0:
288,168,64583,1,0,0:0:0:0:
290,172,64672,1,8,0:0:0:0:
299,185,64762,1,0,0:0:0:0:
299,185,64942,1,8,0:0:0:0:
284,167,65122,1,0,0:0:0:0:
299,185,65211,1,0,0:0:0:0:
299,185,65301,1,8,0:0:0:0:
305,163,65391,1,8,0:0:0:0:
299,185,65481,1,0,0:0:0:0:
299,185,65660,1,8,0:0:0:0:
299,185,65840,1,0,0:0:0:0:
299,185,66020,1,8,0:0:0:0:
299,185,66110,1,0,0:0:0:0:
288,168,66199,1,8,0:0:0:0:
299,185,66379,1,0,0:0:0:0:
299,185,66559,1,8,0:0:0:0:
256,192,68175,1,12,0:0:0:0:
256,160,68535,1,8,0:0:0:0:
256,192,68714,1,0,0:0:0:0:
256,192,68894,1,8,0:0:0:0:
256,192,68984,1,8,0:0:0:0:
256,192,69074,1,0,0:0:0:0:
256,192,69253,1,8,0:0:0:0:
256,192,69433,1,0,0:0:0:0:
256,192,69613,1,8,0:0:0:0:
256,192,69972,1,8,0:0:0:0:
256,192,70151,1,0,0:0:0:0:
256,192,70241,1,0,0:0:0:0:
256,192,70331,1,8,0:0:0:0:
256,192,70511,1,0,0:0:0:0:
256,192,70690,1,8,0:0:0:0:
256,192,70870,1,0,0:0:0:0:
256,192,71050,1,8,0:0:0:0:
256,192,71409,1,8,0:0:0:0:
256,192,71589,1,0,0:0:0:0:
256,192,71768,1,8,0:0:0:0:
255,175,71858,1,8,0:0:0:0:
256,192,71948,1,8,0:0:0:0:
256,192,72128,1,8,0:0:0:0:
256,192,72307,1,0,0:0:0:0:
256,192,72397,1,0,0:0:0:0:
256,192,72487,1,8,0:0:0:0:
256,192,72666,1,0,0:0:0:0:
256,192,72846,1,8,0:0:0:0:
256,192,73026,1,0,0:0:0:0:
256,192,73205,1,8,0:0:0:0:
256,192,73385,1,8,0:0:0:0:
256,192,73475,1,8,0:0:0:0:
256,192,73565,1,0,0:0:0:0:
256,192,73654,1,0,0:0:0:0:
256,192,73744,1,8,0:0:0:0:
256,192,73924,1,4,0:0:0:0:
256,192,74283,1,8,0:0:0:0:
256,192,74463,1,0,0:0:0:0:
256,192,74822,1,0,0:0:0:0:
256,192,75002,1,8,0:0:0:0:
256,192,75181,1,0,0:0:0:0:
256,192,75271,1,0,0:0:0:0:
256,192,75361,1,8,0:0:0:0:
256,192,75541,1,0,0:0:0:0:
256,192,75720,1,8,0:0:0:0:
256,192,75900,1,8,0:0:0:0:
256,192,76080,1,0,0:0:0:0:
256,192,76439,1,8,0:0:0:0:
256,192,76798,1,12,0:0:0:0:
256,192,76978,1,4,0:0:0:0:
256,192,77337,1,12,0:0:0:0:
256,192,77517,1,4,0:0:0:0:
256,192,77876,1,12,0:0:0:0:
256,192,78056,1,4,0:0:0:0:
256,192,78415,1,12,0:0:0:0:
256,192,78595,1,12,0:0:0:0:
256,192,78774,1,0,0:0:0:0:
256,192,78954,1,12,0:0:0:0:
256,192,79133,1,0,0:0:0:0:
256,192,79313,1,8,0:0:0:0:
256,192,79403,1,8,0:0:0:0:
256,192,79493,1,8,0:0:0:0:
256,192,79672,1,4,0:0:0:0:
256,160,80032,1,8,0:0:0:0:
256,192,80211,1,0,0:0:0:0:
256,192,80391,1,8,0:0:0:0:
256,192,80481,1,8,0:0:0:0:
256,192,80571,1,8,0:0:0:0:
256,192,80750,1,8,0:0:0:0:
256,192,80930,1,0,0:0:0:0:
256,192,81110,1,8,0:0:0:0:
256,192,81469,1,8,0:0:0:0:
256,192,81648,1,0,0:0:0:0:
256,192,81828,1,8,0:0:0:0:
256,192,81918,1,0,0:0:0:0:
256,192,82008,1,0,0:0:0:0:
256,192,82187,1,8,0:0:0:0:
256,192,82367,1,0,0:0:0:0:
256,192,82547,1,8,0:0:0:0:
256,192,82906,1,8,0:0:0:0:
256,192,83086,1,0,0:0:0:0:
256,192,83265,1,8,0:0:0:0:
255,175,83355,1,8,0:0:0:0:
256,192,83445,1,0,0:0:0:0:
256,192,83625,1,8,0:0:0:0:
256,192,83804,1,0,0:0:0:0:
256,192,83894,1,0,0:0:0:0:
256,192,83984,1,8,0:0:0:0:
256,192,84163,1,0,0:0:0:0:
256,192,84343,1,8,0:0:0:0:
256,192,84523,1,0,0:0:0:0:
256,192,84702,1,8,0:0:0:0:
256,192,84882,1,8,0:0:0:0:
256,192,84972,1,8,0:0:0:0:
256,192,85062,1,0,0:0:0:0:
256,192,85151,1,0,0:0:0:0:
256,192,85241,1,8,0:0:0:0:
256,192,85421,1,4,0:0:0:0:
256,192,85780,1,8,0:0:0:0:
256,192,85960,1,0,0:0:0:0:
256,192,86319,1,0,0:0:0:0:
256,192,86499,1,8,0:0:0:0:
256,192,86678,1,0,0:0:0:0:
256,192,86858,1,8,0:0:0:0:
256,192,86948,1,0,0:0:0:0:
256,192,87038,1,8,0:0:0:0:
256,192,87217,1,0,0:0:0:0:
256,192,87397,1,8,0:0:0:0:
256,192,87577,1,0,0:0:0:0:
256,192,87936,1,8,0:0:0:0:
256,192,88295,1,12,0:0:0:0:
256,192,88475,1,4,0:0:0:0:
256,192,88834,1,12,0:0:0:0:
256,192,89014,1,4,0:0:0:0:
256,192,89373,1,12,0:0:0:0:
256,192,89553,1,4,0:0:0:0:
256,192,89912,1,12,0:0:0:0:
256,192,90092,1,12,0:0:0:0:
256,192,90271,1,0,0:0:0:0:
256,192,90451,1,12,0:0:0:0:
256,192,90810,1,12,0:0:0:0:
256,192,91169,1,12,0:0:0:0:
256,192,91349,1,4,0:0:0:0:
256,192,91708,1,12,0:0:0:0:
256,192,91888,1,12,0:0:0:0:
262,200,92068,1,0,0:0:0:0:
256,192,92247,1,12,0:0:0:0:
256,192,92427,1,4,0:0:0:0:
256,192,92786,1,12,0:0:0:0:
256,192,92966,1,12,0:0:0:0:
256,192,93145,1,0,0:0:0:0:
256,192,93325,1,12,0:0:0:0:
256,192,93684,1,12,0:0:0:0:
261,200,94044,1,8,0:0:0:0:
261,200,94223,1,0,0:0:0:0:
261,200,94313,1,0,0:0:0:0:
261,200,94403,1,0,0:0:0:0:
261,200,94583,1,8,0:0:0:0:
261,200,94762,1,0,0:0:0:0:
261,200,94852,1,8,0:0:0:0:
261,200,94942,1,0,0:0:0:0:
261,200,95122,1,8,0:0:0:0:
253,195,95301,1,8,0:0:0:0:
253,193,95391,1,8,0:0:0:0:
253,195,95481,1,0,0:0:0:0:
254,192,95660,1,8,0:0:0:0:
276,197,95750,1,0,0:0:0:0:
254,192,95840,1,8,0:0:0:0:
254,192,96020,1,0,0:0:0:0:
254,192,96199,1,8,0:0:0:0:
255,193,96289,1,0,0:0:0:0:
254,192,96379,1,0,0:0:0:0:
254,192,96469,1,0,0:0:0:0:
254,192,96559,1,8,0:0:0:0:
252,204,96648,1,0,0:0:0:0:
262,186,96738,1,8,0:0:0:0:
254,192,96918,1,4,0:0:0:0:
264,213,97996,1,8,0:0:0:0:
256,192,98355,1,4,0:0:0:0:
256,160,98714,1,8,0:0:0:0:
256,192,98894,1,0,0:0:0:0:
256,192,99074,1,8,0:0:0:0:
256,192,99163,1,0,0:0:0:0:
256,192,99253,1,8,0:0:0:0:
256,192,99433,1,8,0:0:0:0:
256,192,99613,1,0,0:0:0:0:
256,192,99792,1,8,0:0:0:0:
256,192,100151,1,8,0:0:0:0:
256,192,100331,1,0,0:0:0:0:
256,192,100421,1,0,0:0:0:0:
256,192,100511,1,8,0:0:0:0:
256,192,100690,1,0,0:0:0:0:
256,192,100870,1,8,0:0:0:0:
256,192,101050,1,8,0:0:0:0:
256,192,101229,1,0,0:0:0:0:
256,192,101589,1,8,0:0:0:0:
256,192,101768,1,0,0:0:0:0:
256,192,101948,1,8,0:0:0:0:
256,192,102038,1,8,0:0:0:0:
256,192,102128,1,0,0:0:0:0:
256,192,102307,1,8,0:0:0:0:
256,192,102487,1,0,0:0:0:0:
256,192,102666,1,8,0:0:0:0:
256,192,102756,1,8,0:0:0:0:
256,192,102846,1,8,0:0:0:0:
256,192,103026,1,8,0:0:0:0:
256,192,103205,1,0,0:0:0:0:
256,192,103385,1,8,0:0:0:0:
256,192,103565,1,8,0:0:0:0:
256,192,103654,1,8,0:0:0:0:
256,192,103744,1,0,0:0:0:0:
256,192,103834,1,0,0:0:0:0:
256,192,103924,1,8,0:0:0:0:
256,192,104104,1,4,0:0:0:0:
256,192,104463,1,8,0:0:0:0:
256,192,104642,1,0,0:0:0:0:
256,192,105002,1,0,0:0:0:0:
256,192,105181,1,8,0:0:0:0:
256,192,105361,1,0,0:0:0:0:
256,192,105451,1,0,0:0:0:0:
256,192,105541,1,0,0:0:0:0:
256,192,105720,1,0,0:0:0:0:
256,192,105900,1,8,0:0:0:0:
256,192,106080,1,0,0:0:0:0:
256,192,106439,1,0,0:0:0:0:
256,192,106619,1,8,0:0:0:0:
256,192,106978,1,12,0:0:0:0:
256,192,107157,1,4,0:0:0:0:
256,192,107517,1,12,0:0:0:0:
256,192,107696,1,4,0:0:0:0:
256,192,108056,1,12,0:0:0:0:
256,192,108235,1,4,0:0:0:0:
256,192,108595,1,12,0:0:0:0:
256,192,108774,1,12,0:0:0:0:
256,192,108954,1,0,0:0:0:0:
256,192,109133,1,12,0:0:0:0:
266,171,109493,1,12,0:0:0:0:
256,192,109852,1,12,0:0:0:0:
256,192,110032,1,4,0:0:0:0:
256,192,110391,1,12,0:0:0:0:
256,192,110571,1,12,0:0:0:0:
262,200,110750,1,0,0:0:0:0:
256,192,110930,1,12,0:0:0:0:
256,192,111110,1,4,0:0:0:0:
256,192,111469,1,12,0:0:0:0:
256,192,111648,1,12,0:0:0:0:
256,192,111828,1,0,0:0:0:0:
256,192,112008,1,12,0:0:0:0:
256,192,112367,1,12,0:0:0:0:
256,192,112726,1,4,0:0:0:0:
256,192,112906,12,0,114702,0:0:0:0:
255,211,114882,5,4,0:0:0:0:
255,211,115062,1,12,0:0:0:0:
