osu file format v14

[General]
AudioFilename: audio.mp3
AudioLeadIn: 0
PreviewTime: 66738
Countdown: 1
SampleSet: None
StackLeniency: 0.7
Mode: 1
LetterboxInBreaks: 0
WidescreenStoryboard: 1

[Editor]
Bookmarks: 631,6379,12128,17876,29373,35122,52367,60990,68175,79672,88295,98355,106978
DistanceSpacing: 0.7
BeatDivisor: 4
GridSize: 32
TimelineZoom: 2.1

[Metadata]
Title:Momoiro Typhoon
TitleUnicode:桃色タイフーン
Artist:Haruna Luna
ArtistUnicode:春奈るな
Creator:gaston_2199
Version:Kantan
Source:ゆらぎ荘の幽奈さん
Tags:
BeatmapID:2048387
BeatmapSetID:978829

[Difficulty]
HPDrainRate:8
CircleSize:2
OverallDifficulty:3
ApproachRate:10
SliderMultiplier:1.4
SliderTickRate:1

[Events]
//Background and Video events
0,0,"BG.jpg",0,40
//Break Periods
//Storyboard Layer 0 (Background)
//Storyboard Layer 1 (Fail)
//Storyboard Layer 2 (Pass)
//Storyboard Layer 3 (Foreground)
//Storyboard Sound Samples

[TimingPoints]
631,359.281437125748,4,1,0,80,1,0
6379,-100,4,1,0,80,0,1
12128,-100,4,1,0,80,0,0
17876,-111.111111111111,4,1,0,80,0,0
35122,-100,4,1,0,80,0,0
68175,-100,4,1,0,80,0,1
73924,-100,4,1,0,80,0,0
79672,-100,4,1,0,80,0,1
85421,-100,4,1,0,80,0,0
98355,-100,4,1,0,80,0,1
104104,-100,4,1,0,80,0,0

[HitObjects]
256,192,631,5,12,0:0:0:0:
256,192,1349,1,0,0:0:0:0:
256,192,2068,1,0,0:0:0:0:
256,192,3505,1,8,0:0:0:0:
256,192,4223,1,0,0:0:0:0:
256,192,4942,1,12,0:0:0:0:
256,192,6379,1,4,0:0:0:0:
256,192,7098,1,8,0:0:0:0:
256,192,7816,1,0,0:0:0:0:
256,192,8535,1,8,0:0:0:0:
256,192,9253,1,8,0:0:0:0:
256,192,9972,1,0,0:0:0:0:
256,192,10690,1,8,0:0:0:0:
256,192,11409,1,0,0:0:0:0:
256,192,11768,1,8,0:0:0:0:
256,192,12128,1,4,0:0:0:0:
256,192,13565,1,0,0:0:0:0:
256,192,14283,1,8,0:0:0:0:
256,192,15002,1,12,0:0:0:0:
256,192,16080,1,12,0:0:0:0:
256,192,17157,1,4,0:0:0:0:
256,192,17876,1,0,0:0:0:0:
256,192,18595,1,8,0:0:0:0:
256,192,20032,1,8,0:0:0:0:
256,192,20750,1,0,0:0:0:0:
256,192,21469,1,8,0:0:0:0:
256,192,23625,1,0,0:0:0:0:
256,192,24343,1,8,0:0:0:0:
261,201,25780,1,8,0:0:0:0:
256,192,26499,1,0,0:0:0:0:
256,192,27217,1,8,0:0:0:0:
258,204,28654,1,8,0:0:0:0:
276,197,29373,1,4,0:0:0:0:
270,185,30810,1,0,0:0:0:0:
276,197,31529,1,8,0:0:0:0:
276,197,32247,1,0,0:0:0:0:
276,197,33325,1,0,0:0:0:0:
276,197,33684,1,8,0:0:0:0:
276,197,34223,1,8,0:0:0:0:
276,197,35122,1,4,0:0:0:0:
276,197,35840,1,8,0:0:0:0:
276,197,36559,1,0,0:0:0:0:
276,197,37277,1,8,0:0:0:0:
276,197,37996,1,8,0:0:0:0:
282,178,38714,1,0,0:0:0:0:
282,178,39792,1,8,0:0:0:0:
282,178,40151,1,0,0:0:0:0:
282,178,40511,1,8,0:0:0:0:
276,197,40870,1,4,0:0:0:0:
276,197,41589,1,8,0:0:0:0:
297,198,42307,1,8,0:0:0:0:
276,197,43026,1,0,0:0:0:0:
276,197,43744,1,8,0:0:0:0:
282,178,44463,1,0,0:0:0:0:
282,178,45541,1,8,0:0:0:0:
282,178,45900,1,0,0:0:0:0:
282,178,46259,1,8,0:0:0:0:
295,186,46619,1,4,0:0:0:0:
274,164,47696,1,8,0:0:0:0:
274,164,48415,1,8,0:0:0:0:
274,164,48774,1,0,0:0:0:0:
265,148,49133,1,8,0:0:0:0:
295,186,49493,1,4,0:0:0:0:
301,177,50211,1,0,0:0:0:0:
301,186,50571,1,8,0:0:0:0:
301,186,50930,1,4,0:0:0:0:
274,164,51469,1,12,0:0:0:0:
279,168,52367,1,4,0:0:0:0:
288,180,53086,1,8,0:0:0:0:
288,180,53804,1,0,0:0:0:0:
279,168,55241,1,0,0:0:0:0:
288,180,55960,1,8,0:0:0:0:
288,180,56678,1,0,0:0:0:0:
288,180,57397,1,8,0:0:0:0:
288,180,58116,1,4,0:0:0:0:
288,180,58834,1,8,0:0:0:0:
288,180,59553,1,0,0:0:0:0:
279,168,60990,1,4,0:0:0:0:
288,180,61708,1,8,0:0:0:0:
288,180,63145,1,8,0:0:0:0:
288,180,63864,1,0,0:0:0:0:
288,168,64583,1,8,0:0:0:0:
299,185,65301,1,8,0:0:0:0:
299,185,65660,1,0,0:0:0:0:
299,185,66020,1,8,0:0:0:0:
299,185,66379,1,8,0:0:0:0:
256,192,68175,1,12,0:0:0:0:
256,192,68894,1,8,0:0:0:0:
256,192,69613,1,0,0:0:0:0:
256,192,70331,1,8,0:0:0:0:
256,192,71050,1,0,0:0:0:0:
256,192,71768,1,0,0:0:0:0:
256,192,72487,1,8,0:0:0:0:
256,192,73205,1,0,0:0:0:0:
256,192,73565,1,8,0:0:0:0:
256,192,73924,1,4,0:0:0:0:
256,192,75361,1,0,0:0:0:0:
256,192,76798,1,12,0:0:0:0:
256,192,77876,1,12,0:0:0:0:
256,192,78954,1,4,0:0:0:0:
256,192,79672,1,4,0:0:0:0:
256,192,80391,1,8,0:0:0:0:
256,192,81110,1,0,0:0:0:0:
256,192,81828,1,8,0:0:0:0:
256,192,82547,1,8,0:0:0:0:
256,192,83265,1,0,0:0:0:0:
256,192,83984,1,8,0:0:0:0:
256,192,84702,1,0,0:0:0:0:
256,192,85062,1,8,0:0:0:0:
256,192,85421,1,4,0:0:0:0:
256,192,86858,1,8,0:0:0:0:
256,192,88295,1,12,0:0:0:0:
256,192,89373,1,12,0:0:0:0:
256,192,90451,1,4,0:0:0:0:
256,192,91169,1,12,0:0:0:0:
256,192,91708,1,12,0:0:0:0:
256,192,92247,1,12,0:0:0:0:
256,192,92786,1,12,0:0:0:0:
256,192,93325,1,4,0:0:0:0:
261,200,94044,1,8,0:0:0:0:
261,200,94403,1,0,0:0:0:0:
261,200,94762,1,0,0:0:0:0:
261,200,95122,1,8,0:0:0:0:
254,192,95840,1,0,0:0:0:0:
254,192,96199,1,8,0:0:0:0:
254,192,96559,1,8,0:0:0:0:
254,192,96918,1,4,0:0:0:0:
256,192,98355,1,4,0:0:0:0:
256,192,99074,1,8,0:0:0:0:
256,192,99792,1,0,0:0:0:0:
256,192,100511,1,8,0:0:0:0:
256,192,101229,1,8,0:0:0:0:
256,192,101948,1,0,0:0:0:0:
256,192,102666,1,8,0:0:0:0:
256,192,103385,1,0,0:0:0:0:
256,192,103744,1,8,0:0:0:0:
256,192,104104,1,4,0:0:0:0:
256,192,105541,1,0,0:0:0:0:
256,192,106259,1,8,0:0:0:0:
256,192,106978,1,12,0:0:0:0:
256,192,108056,1,12,0:0:0:0:
256,192,109133,1,4,0:0:0:0:
256,192,109852,5,12,0:0:0:0:
256,192,110391,1,12,0:0:0:0:
256,192,110930,1,12,0:0:0:0:
256,192,111469,1,12,0:0:0:0:
256,192,112008,1,4,0:0:0:0:
256,192,112726,12,0,114882,0:0:0:0:
255,211,115062,5,12,0:0:0:0:
