osu file format v14

[General]
AudioFilename: audio.mp3
AudioLeadIn: 0
PreviewTime: 56906
Countdown: 1
SampleSet: Soft
StackLeniency: 0.7
Mode: 0
LetterboxInBreaks: 0
WidescreenStoryboard: 0

[Editor]
DistanceSpacing: 0.2
BeatDivisor: 4
GridSize: 8
TimelineZoom: 5.799997

[Metadata]
Title:Momoiro Typhoon (TV Size)
TitleUnicode:桃色タイフーン (TV Size)
Artist:Haruna Luna
ArtistUnicode:春奈るな
Creator:TyrantsEye2014
Version:Extra
Source:ゆらぎ荘の幽奈さん
Tags:op opening anime japanese Yuragi-sou no Yuuna-san of Manor and the Haunted Hot Springs Dubturt
BeatmapID:1757244
BeatmapSetID:839436

[Difficulty]
HPDrainRate:6
CircleSize:4.2
OverallDifficulty:8.7
ApproachRate:9.3
SliderMultiplier:1.8
SliderTickRate:1

[Events]
//Background and Video events
0,0,"bg.jpg",0,0
//Break Periods
//Storyboard Layer 0 (Background)
//Storyboard Layer 1 (Fail)
//Storyboard Layer 2 (Pass)
//Storyboard Layer 3 (Foreground)
//Storyboard Layer 4 (Overlay)
//Storyboard Sound Samples

[TimingPoints]
948,359.281437125748,4,2,1,70,1,0
948,-111.111111111111,4,2,1,70,0,0
6696,-125,4,2,2,60,0,0
23942,-100,4,2,1,70,0,0
40828,-83.3333333333333,4,2,1,70,0,0
41187,-100,4,2,1,70,0,0
46217,-83.3333333333333,4,2,1,70,0,0
46576,-90.9090909090909,4,2,1,70,0,0
46936,-100,4,2,1,70,0,0
54121,-100,4,2,1,75,0,0
54840,-100,4,2,1,80,0,0
55558,-142.857142857143,4,2,1,70,0,0
56995,-90.9090909090909,4,2,1,80,0,1
65618,-90.9090909090909,4,2,1,80,0,0
68492,-90.9090909090909,4,2,1,80,0,1
77115,-90.9090909090909,4,2,1,80,0,0
88073,-90.9090909090909,4,2,1,70,0,0
88612,-125,4,2,1,70,0,0

[Colours]
Combo1 : 204,153,119
Combo2 : 221,187,204
Combo3 : 119,102,153

[HitObjects]
189,258,948,6,0,P|178:298|180:355,1,80.9999975280763,4|0,3:2|0:0,0:0:0:0:
333,346,1307,2,0,P|334:301|323:258,1,80.9999975280763,0|0,3:0|0:0,0:0:0:0:
173,157,1666,2,0,P|119:182|98:218,1,80.9999975280763,2|0,3:2|0:0,0:0:0:0:
404,198,2025,2,0,P|377:169|339:157,1,80.9999975280763,0|0,3:0|0:0,0:0:0:0:
143,75,2385,6,0,L|242:79,1,80.9999975280763,0|0,3:2|0:0,0:0:0:0:
419,154,2744,2,0,L|338:157,1,80.9999975280763,0|0,3:0|0:0,0:0:0:0:
189,258,3103,2,0,L|288:262,1,80.9999975280763,0|0,3:0|0:0,0:0:0:0:
360,325,3373,1,0,0:0:0:0:
360,325,3462,2,0,L|441:322,1,80.9999975280763,2|0,3:2|0:0,0:0:0:0:
236,327,3822,5,0,3:0:0:0:
363,237,4001,1,0,0:0:0:0:
226,166,4181,1,2,3:2:0:0:
381,234,4361,1,0,0:0:0:0:
166,246,4540,5,0,3:0:0:0:
299,88,4720,1,0,0:0:0:0:
341,338,4900,1,2,3:2:0:0:
176,146,5079,2,0,L|239:140,1,40.4999987640381
409,124,5259,5,8,3:2:0:0:
148,256,5439,1,8,0:0:0:0:
99,182,5798,5,8,0:0:0:0:
176,146,6157,5,8,0:0:0:0:
148,256,6516,5,8,0:0:0:0:
120,80,6696,6,0,P|152:62|209:66,1,72,6|0,0:0|0:0,0:0:0:0:
268,177,7055,1,8,0:0:0:0:
292,83,7235,1,0,0:0:0:0:
425,166,7415,1,0,0:0:0:0:
389,76,7594,1,0,0:0:0:0:
351,229,7774,2,0,L|363:299,1,72,8|0,0:0|0:0,0:0:0:0:
268,177,8133,5,2,0:0:0:0:
220,257,8313,2,0,L|233:357,2,72,0|8|0,0:0|0:0|0:0,0:0:0:0:
292,83,8852,1,0,0:0:0:0:
194,51,9031,1,0,0:0:0:0:
268,177,9211,1,8,0:0:0:0:
268,177,9391,1,8,0:0:0:0:
185,134,9570,5,2,0:0:0:0:
101,237,9750,2,0,P|65:243|31:234,1,72,0|8,0:0|0:0,0:0:0:0:
69,151,10109,1,0,0:0:0:0:
191,242,10289,2,0,L|196:313,1,72
268,177,10648,1,8,0:0:0:0:
324,260,10828,1,0,0:0:0:0:
364,172,11007,5,0,0:0:0:0:
389,81,11187,2,0,P|424:98|452:147,1,72,2|8,0:0|0:0,0:0:0:0:
364,172,11546,1,0,0:0:0:0:
305,98,11726,2,0,P|310:40|328:15,1,72,2|0,0:0|0:0,0:0:0:0:
364,172,12085,1,10,0:0:0:0:
364,172,12265,1,8,0:0:0:0:
214,89,12445,6,0,L|127:82,1,72,6|0,0:0|0:0,0:0:0:0:
49,123,12804,2,0,P|77:146|90:188,1,72,8|0,0:0|0:0,0:0:0:0:
109,277,13163,1,0,0:0:0:0:
183,208,13343,1,0,0:0:0:0:
189,337,13522,1,8,0:0:0:0:
189,337,13702,2,0,L|276:330,1,72,0|2,0:0|0:0,0:0:0:0:
415,173,14061,6,0,P|370:163|321:180,1,72,0|8,0:0|0:0,0:0:0:0:
260,224,14421,1,0,0:0:0:0:
267,123,14600,2,0,L|260:36,1,72
260,224,14959,1,8,0:0:0:0:
260,224,15139,1,8,0:0:0:0:
218,317,15319,5,2,0:0:0:0:
353,266,15498,2,0,P|363:221|346:172,1,72,0|8,0:0|0:0,0:0:0:0:
280,130,15858,1,0,0:0:0:0:
374,42,16037,2,0,L|379:113,1,72
187,174,16397,2,0,P|177:129|194:80,2,72,8|0|2,0:0|0:0|0:0,0:0:0:0:
280,130,16936,1,0,0:0:0:0:
154,263,17115,6,0,L|48:255,1,72,10|0,0:0|0:0,0:0:0:0:
247,346,17474,2,0,L|353:338,1,72,2|0,0:0|0:0,0:0:0:0:
417,297,17834,1,10,0:0:0:0:
417,297,18013,1,8,0:0:0:0:
405,140,18193,6,0,B|396:87|426:37|426:37|384:28|372:6,1,144,6|8,0:0|0:0,0:0:0:0:
296,53,18732,1,0,0:0:0:0:
202,27,18912,2,0,B|189:64|206:96|206:96|222:125|196:176,1,144,0|8,0:0|0:0,0:0:0:0:
185,265,19450,1,0,0:0:0:0:
265,210,19630,5,0,0:0:0:0:
99,211,19810,1,2,0:0:0:0:
99,211,19989,2,0,P|82:248|84:297,1,72,8|0,0:0|0:0,0:0:0:0:
284,278,20349,2,0,P|281:242|265:210,1,72,2|0,0:0|0:0,0:0:0:0:
325,56,20708,5,10,0:0:0:0:
325,56,20888,1,8,0:0:0:0:
391,179,21067,2,0,P|328:221|247:196,1,144,6|8,0:0|0:0,0:0:0:0:
165,175,21606,1,0,0:0:0:0:
101,248,21786,2,0,P|131:266|167:269,1,72
226,98,22145,2,0,P|183:77|135:84,1,72,10|0,0:0|0:0,0:0:0:0:
48,166,22504,5,10,0:0:0:0:
31,334,22684,1,10,0:0:0:0:
464,166,23043,5,10,0:0:0:0:
481,334,23223,1,10,0:0:0:0:
256,24,23582,5,2,3:0:0:0:
242,28,23942,6,0,L|232:135,1,90,4|0,3:2|0:0,0:0:0:0:
289,210,24301,1,8,3:2:0:0:
328,122,24480,1,0,0:0:0:0:
194,203,24660,1,0,3:0:0:0:
228,292,24840,1,0,0:0:0:0:
378,201,25019,1,8,3:2:0:0:
378,201,25199,2,0,L|288:209,1,90,0|2,0:0|3:2,0:0:0:0:
128,308,25558,5,0,0:0:0:0:
93,72,25738,2,0,L|101:161,1,90,8|0,3:2|0:0,0:0:0:0:
180,153,26007,1,8,0:0:0:0:
192,150,26097,2,0,P|243:138|296:132,1,90,0|0,3:0|0:0,0:0:0:0:
385,175,26456,1,8,3:2:0:0:
305,39,26636,1,8,0:0:0:0:
280,221,26816,5,2,3:2:0:0:
386,84,26995,2,0,P|438:80|493:95,1,90,0|8,0:0|3:2,0:0:0:0:
286,45,27355,1,0,0:0:0:0:
377,236,27534,2,0,P|359:286|311:314,1,90,0|0,3:0|0:0,0:0:0:0:
190,212,27894,2,0,L|279:220,1,90,8|0,3:2|0:0,0:0:0:0:
163,339,28253,5,2,3:2:0:0:
145,116,28433,1,0,0:0:0:0:
145,116,28522,1,2,0:0:0:0:
145,116,28612,2,0,P|195:107|247:124,1,90,10|0,3:2|0:0,0:0:0:0:
325,118,28882,1,2,0:0:0:0:
325,118,28971,2,0,L|414:110,1,90,2|0,3:2|0:0,0:0:0:0:
481,175,29241,1,2,0:0:0:0:
481,175,29331,2,0,L|475:243,1,45,10|0,3:2|0:0,0:0:0:0:
398,330,29510,2,0,L|392:262,1,45,10|0,0:0|0:0,0:0:0:0:
387,189,29690,5,6,3:2:0:0:
267,312,29870,2,0,P|219:300|183:257,1,90,0|8,0:0|3:2,0:0:0:0:
172,161,30229,1,0,0:0:0:0:
276,123,30409,2,0,L|268:212,1,90,0|0,3:2|0:0,0:0:0:0:
92,348,30768,2,0,L|84:259,1,90,8|0,3:2|0:0,0:0:0:0:
35,66,31127,5,2,3:2:0:0:
152,214,31307,1,0,0:0:0:0:
193,121,31486,2,0,L|201:32,1,90,8|0,3:2|0:0,0:0:0:0:
252,228,31846,1,0,3:0:0:0:
164,324,32025,1,0,0:0:0:0:
41,157,32205,1,8,3:2:0:0:
163,196,32385,1,8,0:0:0:0:
61,272,32564,5,2,3:2:0:0:
193,83,32744,2,0,P|238:105|269:150,1,90,0|8,0:0|3:2,0:0:0:0:
256,264,33103,1,0,0:0:0:0:
432,207,33283,2,0,L|343:199,1,90,0|0,3:0|0:0,0:0:0:0:
182,334,33642,2,0,P|216:359|270:363,1,90,8|0,3:2|0:0,0:0:0:0:
342,198,34001,1,2,3:2:0:0:
256,264,34181,1,0,0:0:0:0:
432,207,34361,5,10,3:2:0:0:
397,341,34540,1,0,0:0:0:0:
325,99,34720,2,0,P|285:112|250:154,1,90,2|0,3:2|0:0,0:0:0:0:
262,364,35079,1,10,3:2:0:0:
342,198,35259,1,8,0:0:0:0:
117,193,35439,6,0,L|28:201,1,90,6|0,3:2|0:0,0:0:0:0:
179,267,35798,1,8,0:0:0:0:
162,109,35977,1,0,0:0:0:0:
100,331,36157,2,0,P|131:358|185:367,1,90,2|0,3:2|0:0,0:0:0:0:
383,272,36516,2,0,L|294:280,1,90,8|0,3:2|0:0,0:0:0:0:
117,193,36876,1,0,3:0:0:0:
266,171,37055,1,2,0:0:0:0:
177,368,37235,6,0,L|185:279,1,90,8|0,3:2|0:0,0:0:0:0:
284,72,37594,2,0,P|325:87|353:122,1,90,2|0,3:2|0:0,0:0:0:0:
296,367,37953,2,0,B|285:332|285:332|294:269,1,90,10|8,3:2|0:0,0:0:0:0:
413,45,38313,6,0,P|450:108|433:179,1,135,6|0,3:2|0:0,0:0:0:0:
382,225,38672,2,0,L|374:314,1,90,8|0,3:2|0:0,0:0:0:0:
287,73,39031,1,0,3:0:0:0:
284,189,39211,1,0,3:0:0:0:
286,211,39301,1,0,3:0:0:0:
288,233,39391,1,8,0:0:0:0:
290,256,39480,1,8,0:3:0:0:
292,278,39570,1,4,0:3:0:0:
440,166,39750,5,4,0:3:0:0:
294,300,39930,2,0,L|243:295,1,45,2|0,3:2|0:0,0:0:0:0:
106,175,40109,2,0,L|156:170,1,45,10|0,0:2|0:0,0:0:0:0:
278,159,40289,1,0,3:0:0:0:
89,287,40468,5,10,3:2:0:0:
135,43,40648,2,0,L|139:93,1,45,8|8,0:3|0:3,0:0:0:0:
213,313,40828,2,0,B|231:359|231:359|241:225,1,161.999995056153,2|0,3:2|0:0,0:0:0:0:
301,168,41187,6,0,P|334:224|317:310,2,135,6|0|0,3:2|3:0|3:0,0:0:0:0:
257,73,41906,2,0,B|314:50|368:84|368:84|402:95|439:71,1,180,10|0,0:2|0:0,0:0:0:0:
485,161,42355,1,2,0:0:0:0:
485,161,42445,2,0,L|477:219,1,45,2|2,0:0|0:0,0:0:0:0:
423,335,42624,5,2,3:2:0:0:
423,335,42804,2,0,B|366:342|366:342|301:332,1,90,2|0,0:0|0:0,0:0:0:0:
215,289,43163,1,0,3:0:0:0:
262,96,43343,2,0,P|289:130|294:174,1,90,10|0,0:0|0:0,0:0:0:0:
92,132,43702,2,0,B|106:81|102:40|102:40|138:68|167:75,1,135,0|0,3:2|0:0,0:0:0:0:
241,81,44061,6,0,B|284:88|284:88|387:58,2,135,6|0|0,3:2|3:0|3:0,0:0:0:0:
164,170,44780,2,0,B|152:218|180:255|180:255|198:309|163:364,1,180,8|0,0:0|0:0,0:0:0:0:
98,316,45229,1,2,0:0:0:0:
98,316,45319,2,0,L|89:249,1,45,2|2,0:0|0:0,0:0:0:0:
251,189,45498,5,2,3:2:0:0:
251,189,45678,2,0,B|308:196|308:196|370:174,1,90,0|0,3:0|0:0,0:0:0:0:
419,286,46037,1,0,3:0:0:0:
419,286,46127,1,0,3:0:0:0:
419,286,46217,6,0,L|253:319,1,161.999995056153,10|0,3:2|0:0,0:0:0:0:
181,298,46576,2,0,B|130:272|109:240|109:240|143:218|133:145,1,148.50000453186,2|0,3:2|0:0,0:0:0:0:
136,99,46936,6,0,P|74:121|39:177,2,135,4|0|0,3:2|3:0|3:0,0:0:0:0:
266,94,47654,2,0,B|316:102|316:102|393:75|393:75|474:95,1,180,8|0,0:0|0:0,0:0:0:0:
471,167,48103,1,2,0:0:0:0:
471,167,48193,2,0,L|468:227,1,45,2|2,0:0|0:0,0:0:0:0:
413,329,48373,5,2,3:2:0:0:
353,194,48552,1,0,3:0:0:0:
353,194,48912,1,0,3:0:0:0:
296,282,49091,2,0,L|194:261,1,90,10|0,0:0|0:0,0:0:0:0:
74,334,49450,2,0,P|120:342|163:323,1,90,0|0,3:0|0:0,0:0:0:0:
207,161,49810,6,0,P|144:184|109:240,2,135,6|0|0,3:2|3:0|3:0,0:0:0:0:
296,282,50528,2,0,L|194:261,1,90,8|0,0:0|0:0,0:0:0:0:
369,183,50888,2,0,L|360:227,1,45,2|2,0:0|0:0,0:0:0:0:
433,326,51067,2,0,L|421:261,1,45,2|2,0:0|0:0,0:0:0:0:
446,151,51247,5,2,3:2:0:0:
446,151,51427,1,0,3:0:0:0:
295,143,51606,2,0,L|206:161,1,90,0|0,0:0|3:0,0:0:0:0:
125,323,51965,5,8,0:0:0:0:
286,238,52145,1,2,0:0:0:0:
106,213,52325,1,8,0:0:0:0:
238,340,52504,1,0,3:0:0:0:
206,160,52684,5,12,3:2:0:0:
125,323,52864,1,0,0:2:0:0:
294,143,53043,5,8,0:0:0:0:
106,213,53223,1,0,3:2:0:0:
333,324,53403,5,8,0:2:0:0:
227,71,53582,1,0,3:0:0:0:
226,355,53762,5,8,0:2:0:0:
333,18,53942,1,0,3:2:0:0:
21,190,54121,5,8,3:2:0:0:
379,186,54301,1,8,3:2:0:0:
135,10,54480,1,8,3:2:0:0:
60,341,54660,1,8,3:2:0:0:
417,282,54840,5,8,3:2:0:0:
97,108,55019,1,8,3:2:0:0:
251,343,55199,1,8,3:2:0:0:
433,48,55379,1,8,3:2:0:0:
25,44,55558,5,2,0:0:0:0:
479,155,55918,1,2,0:0:0:0:
47,255,56277,1,2,0:0:0:0:
405,348,56636,5,8,0:0:0:0:
400,316,56726,1,8,0:0:0:0:
395,285,56816,1,8,0:0:0:0:
391,254,56906,1,8,0:0:0:0:
386,223,56995,6,0,P|332:196|262:205,1,99.0000030212403,14|0,3:2|0:0,0:0:0:0:
80,197,57355,2,0,P|128:193|171:169,1,99.0000030212403,10|0,0:0|0:0,0:0:0:0:
301,19,57714,1,10,0:0:0:0:
101,98,57894,1,0,3:2:0:0:
294,195,58073,1,10,0:0:0:0:
178,9,58253,1,0,3:2:0:0:
210,251,58433,6,0,L|226:367,1,99.0000030212403,10|0,0:0|0:0,0:0:0:0:
392,128,58792,2,0,L|405:29,1,99.0000030212403,10|0,0:0|0:0,0:0:0:0:
223,108,59151,1,10,0:0:0:0:
386,223,59331,1,0,3:2:0:0:
299,19,59510,1,10,0:0:0:0:
152,196,59690,1,0,3:2:0:0:
344,326,59870,6,0,B|384:332|384:332|453:307,1,99.0000030212403,10|0,0:0|0:0,0:0:0:0:
391,127,60229,2,0,B|351:121|351:121|282:146,1,99.0000030212403,10|0,0:0|0:0,0:0:0:0:
155,311,60588,1,10,0:0:0:0:
296,141,60768,1,0,3:2:0:0:
152,196,60947,1,10,0:0:0:0:
386,223,61127,1,0,3:2:0:0:
167,66,61307,6,0,L|68:53,1,99.0000030212403,10|0,0:0|0:0,0:0:0:0:
287,235,61666,2,0,L|386:222,1,99.0000030212403,10|0,0:0|3:0,0:0:0:0:
481,65,62025,1,10,0:0:0:0:
296,141,62205,1,2,3:2:0:0:
452,336,62385,2,0,P|469:292|451:218,1,99.0000030212403,10|8,0:0|0:0,0:0:0:0:
386,222,62654,1,8,0:0:0:0:
386,222,62744,6,0,L|287:235,1,99.0000030212403,6|0,3:2|0:0,0:0:0:0:
137,245,63103,1,10,3:2:0:0:
208,106,63283,2,0,P|256:110|295:140,1,99.0000030212403,2|0,0:0|3:0,0:0:0:0:
258,317,63642,1,2,0:0:0:0:
87,169,63822,2,0,L|79:64,1,99.0000030212403,10|0,3:2|0:0,0:0:0:0:
314,151,64181,5,2,3:2:0:0:
258,317,64361,1,2,0:0:0:0:
169,77,64540,1,8,3:2:0:0:
285,233,64720,1,2,0:0:0:0:
377,97,64900,2,0,P|304:66|233:142,1,148.50000453186,2|0,3:2|0:0,0:0:0:0:
199,158,65259,2,0,L|207:263,1,99.0000030212403,10|0,3:2|0:0,0:0:0:0:
462,66,65618,5,10,3:2:0:0:
436,320,65798,1,10,3:2:0:0:
359,325,66157,5,10,3:2:0:0:
332,58,66337,1,10,3:2:0:0:
252,54,66696,5,10,3:2:0:0:
223,334,66876,1,10,3:2:0:0:
144,338,67235,5,10,3:2:0:0:
114,44,67415,2,0,B|85:78|85:78|102:202,1,148.50000453186,10|0,3:2|0:0,0:0:0:0:
157,236,67774,1,10,3:2:0:0:
345,131,67953,1,2,0:0:0:0:
383,342,68133,1,8,0:0:0:0:
350,350,68223,1,8,0:0:0:0:
315,350,68313,1,8,0:0:0:0:
282,342,68403,1,8,0:0:0:0:
258,323,68492,6,0,L|255:209,1,99.0000030212403,14|0,3:2|0:0,0:0:0:0:
478,217,68852,2,0,L|475:315,1,99.0000030212403,10|0,0:0|0:0,0:0:0:0:
233,114,69211,1,10,0:0:0:0:
467,127,69391,1,0,3:0:0:0:
215,120,69570,1,10,0:0:0:0:
484,117,69750,1,0,3:0:0:0:
144,226,69930,6,0,P|107:196|95:149,1,99.0000030212403,10|0,3:2|0:0,0:0:0:0:
278,22,70289,2,0,P|315:52|327:99,1,99.0000030212403,10|0,0:0|3:0,0:0:0:0:
376,278,70648,1,10,0:0:0:0:
215,120,70828,1,0,3:0:0:0:
370,297,71007,1,10,0:0:0:0:
200,106,71187,1,0,3:0:0:0:
362,314,71367,6,0,L|257:301,1,99.0000030212403,14|0,3:2|0:0,0:0:0:0:
34,189,71726,2,0,L|139:176,1,99.0000030212403,10|0,0:0|0:0,0:0:0:0:
329,131,72085,1,10,0:0:0:0:
164,282,72265,1,0,3:0:0:0:
348,122,72445,1,10,0:0:0:0:
151,296,72624,1,0,3:0:0:0:
304,45,72804,6,8,P|351:34|398:49,1,99.0000030212403,10|0,3:2|0:0,0:0:0:0:
351,344,73163,2,0,P|303:354|256:339,1,99.0000030212403,10|0,0:0|3:0,0:0:0:0:
148,188,73522,1,10,0:0:0:0:
348,122,73702,1,10,0:0:0:0:
340,155,73792,1,8,0:0:0:0:
332,189,73882,1,10,0:0:0:0:
324,223,73971,1,8,0:0:0:0:
316,256,74061,1,0,3:0:0:0:
61,232,74241,6,0,P|50:182|68:134,1,99.0000030212403,6|0,3:2|0:0,0:0:0:0:
188,24,74600,1,10,3:2:0:0:
247,201,74780,2,0,L|148:188,1,99.0000030212403,2|0,0:0|3:0,0:0:0:0:
326,105,75139,1,2,0:0:0:0:
267,295,75319,2,0,L|168:282,1,99.0000030212403,10|0,3:2|0:0,0:0:0:0:
439,155,75678,5,2,3:2:0:0:
247,201,75858,1,2,0:0:0:0:
429,279,76037,1,8,3:2:0:0:
326,105,76217,1,2,0:0:0:0:
168,282,76397,2,0,L|327:302,1,148.50000453186,2|0,3:2|0:0,0:0:0:0:
354,232,76756,2,0,L|255:219,1,99.0000030212403,10|0,3:2|0:0,0:0:0:0:
136,356,77115,5,10,3:2:0:0:
387,334,77295,1,10,3:2:0:0:
400,256,77654,5,10,3:2:0:0:
134,232,77834,1,10,3:2:0:0:
111,156,78193,5,10,3:2:0:0:
392,130,78373,1,10,3:2:0:0:
413,53,78732,5,10,3:2:0:0:
116,25,78912,1,10,3:2:0:0:
242,207,79091,1,2,3:2:0:0:
316,37,79271,6,0,L|297:155,1,99.0000030212403,10|0,0:0|0:0,0:0:0:0:
414,339,79630,2,0,P|447:282|423:196,1,148.50000453186,10|0,0:0|0:0,0:0:0:0:
392,133,79989,5,10,0:0:0:0:
256,280,80169,1,10,0:0:0:0:
256,296,80349,1,0,3:0:0:0:
114,96,80528,5,10,0:0:0:0:
256,312,80708,1,10,0:0:0:0:
256,328,80888,1,0,3:0:0:0:
364,38,81067,5,10,0:0:0:0:
256,344,81247,1,10,0:0:0:0:
256,360,81427,1,0,3:0:0:0:
172,41,81606,5,10,0:0:0:0:
363,267,81786,1,10,0:0:0:0:
62,193,81965,1,2,3:2:0:0:
352,99,82145,5,12,0:0:0:0:
196,184,82325,1,0,3:0:0:0:
371,100,82504,1,8,0:0:0:0:
183,183,82684,1,0,3:0:0:0:
437,171,82864,6,0,L|514:163,1,49.5000015106202,10|0,0:0|0:0,0:0:0:0:
380,265,83043,1,10,0:0:0:0:
370,276,83133,1,0,0:0:0:0:
354,283,83223,2,0,L|277:275,1,49.5000015106202,0|0,3:0|0:0,0:0:0:0:
183,183,83403,6,0,L|106:191,1,49.5000015106202,10|0,0:0|0:0,0:0:0:0:
107,309,83582,1,10,0:0:0:0:
117,320,83672,1,0,0:0:0:0:
133,327,83762,2,0,L|210:319,1,49.5000015106202,0|0,3:0|0:0,0:0:0:0:
279,174,83942,6,0,L|287:97,1,49.5000015106202,10|0,0:0|0:0,0:0:0:0:
139,28,84121,1,10,0:0:0:0:
127,38,84211,1,0,0:0:0:0:
116,45,84301,2,0,L|124:122,1,49.5000015106202,0|0,3:0|0:0,0:0:0:0:
177,272,84480,6,0,L|185:349,1,49.5000015106202,10|0,0:0|0:0,0:0:0:0:
273,223,84660,2,0,L|281:146,1,49.5000015106202,10|0,0:0|0:0,0:0:0:0:
360,288,84840,2,0,L|368:365,1,49.5000015106202,10|0,0:0|0:0,0:0:0:0:
457,150,85019,5,10,0:0:0:0:
423,113,85108,1,8,0:0:0:0:
378,95,85198,1,8,0:0:0:0:
329,97,85288,1,8,0:0:0:0:
285,120,85378,1,10,3:2:0:0:
230,141,85468,1,8,3:3:0:0:
171,133,85558,1,8,3:3:0:0:
124,98,85648,1,8,3:3:0:0:
99,45,85738,5,6,3:2:0:0:
256,192,85828,12,4,87894,3:2:0:0:
254,40,88073,6,0,B|289:122|254:192|254:192|219:261|254:354,1,297.000009063721,4|0,3:2|0:2,0:2:0:0:
