osu file format v14

[General]
AudioFilename: audio.mp3
AudioLeadIn: 0
PreviewTime: 169010
Countdown: 0
SampleSet: Soft
StackLeniency: 0.2
Mode: 0
LetterboxInBreaks: 0
EpilepsyWarning: 1
WidescreenStoryboard: 1

[Editor]
Bookmarks: 11676,33010,65010,74343,87343,97010,107676,129010,161010,171676,193010,201343,212105,212176,212260,212288,212343,212491
DistanceSpacing: 4.8
BeatDivisor: 8
GridSize: 4
TimelineZoom: 6.499995

[Metadata]
Title:Unmei
TitleUnicode:運命
Artist:Harumaki Gohan x NILFRUITS feat. Hatsune Miku & v flower
ArtistUnicode:はるまきごはん×煮ル果実 feat. 初音ミク& v flower
Creator:Yugu
Version:seros' Expert
Source:
Tags:japanese pop electronic j-pop jpop seros Tachibana Gekka AuroraE vocaloid ボカロ ボーカロイド キメラ chimera Niru Kajitsu v-flower
BeatmapID:3461983
BeatmapSetID:1662031

[Difficulty]
HPDrainRate:5
CircleSize:4
OverallDifficulty:8
ApproachRate:9
SliderMultiplier:1.4
SliderTickRate:1

[Events]
//Background and Video events
0,0,"8356(RGB)(noise_scale)(Level3)(x2.000000).jpg",0,0
Video,0,"video720p.mp4"
//Break Periods
2,65209,73743
2,102543,106243
2,161168,168410
//Storyboard Layer 0 (Background)
//Storyboard Layer 1 (Fail)
//Storyboard Layer 2 (Pass)
//Storyboard Layer 3 (Foreground)
//Storyboard Layer 4 (Overlay)
//Storyboard Sound Samples

[TimingPoints]
-323,333.333333333333,4,2,1,50,1,0
1010,-125,4,2,1,50,0,0
6676,-100,4,2,1,50,0,0
10843,-100,4,2,1,50,0,0
10885,-100,4,2,2,5,0,0
10926,-100,4,2,1,7,0,0
10968,-100,4,2,2,10,0,0
11010,-100,4,2,1,12,0,0
11051,-100,4,2,2,15,0,0
11093,-100,4,2,1,17,0,0
11135,-100,4,2,2,20,0,0
11176,-100,4,2,1,22,0,0
11218,-100,4,2,2,25,0,0
11260,-100,4,2,1,27,0,0
11301,-100,4,2,2,30,0,0
11343,-100,4,2,1,32,0,0
11385,-100,4,2,2,35,0,0
11426,-100,4,2,1,37,0,0
11468,-100,4,2,2,40,0,0
11510,-100,4,2,1,42,0,0
11551,-100,4,2,2,45,0,0
11593,-100,4,2,1,47,0,0
11635,-100,4,2,2,50,0,0
11676,-83.3333333333333,4,2,1,60,0,0
21010,-50,4,2,1,60,0,0
21676,-66.6666666666667,4,2,1,60,0,0
22343,-66.6666666666667,4,2,1,65,0,0
32676,-66.6666666666667,4,2,1,65,0,0
32718,-66.6666666666667,4,2,1,45,0,0
32760,-66.6666666666667,4,2,1,47,0,0
32801,-66.6666666666667,4,2,1,50,0,0
32843,-66.6666666666667,4,2,1,52,0,0
32885,-66.6666666666667,4,2,1,55,0,0
32926,-66.6666666666667,4,2,1,57,0,0
33010,-66.6666666666667,4,2,2,70,0,0
53843,-66.6666666666667,4,2,3,70,0,0
54010,-66.6666666666667,4,2,4,70,0,0
54176,-66.6666666666667,4,2,5,70,0,0
54343,-125,4,2,21,65,0,0
65010,-125,4,2,22,45,0,0
74343,-166.666666666667,4,2,3,50,0,0
75010,-166.666666666667,4,2,3,50,0,0
75676,-55.5555555555556,4,2,31,90,0,0
77010,-50,4,2,31,90,0,0
78343,-55.5555555555556,4,2,31,90,0,0
79676,-50,4,2,31,90,0,0
80343,-100,4,2,31,90,0,0
80676,-50,4,2,31,90,0,0
81010,-43.4782608695652,4,2,31,90,0,0
81510,-55.5555555555556,4,2,31,90,0,0
82010,-62.5,4,2,31,90,0,0
83676,-50,4,2,31,90,0,0
86343,-55.5555555555556,4,2,31,90,0,0
87343,-62.5,4,2,31,90,0,0
89010,-50,4,2,31,90,0,0
90010,-62.5,4,2,31,90,0,0
91676,-50,4,2,31,90,0,0
92676,-62.5,4,2,31,90,0,0
94343,-45.4545454545455,4,2,31,90,0,0
95676,-55.5555555555556,4,2,31,90,0,0
97010,-125,4,2,1,65,0,0
106510,-250,4,2,1,65,0,0
106843,-125,4,2,1,65,0,0
107676,-83.3333333333333,4,2,1,65,0,0
118343,-66.6666666666667,4,2,1,65,0,0
128718,-66.6666666666667,4,2,1,45,0,0
128760,-66.6666666666667,4,2,1,47,0,0
128801,-66.6666666666667,4,2,1,50,0,0
128843,-66.6666666666667,4,2,1,52,0,0
128885,-66.6666666666667,4,2,1,55,0,0
128926,-66.6666666666667,4,2,1,57,0,0
129010,-66.6666666666667,4,2,2,70,0,0
138385,-66.6666666666667,4,2,2,5,0,0
138510,-66.6666666666667,4,2,2,70,0,0
138551,-66.6666666666667,4,2,2,5,0,0
138676,-66.6666666666667,4,2,2,70,0,0
138718,-66.6666666666667,4,2,2,5,0,0
138843,-66.6666666666667,4,2,2,70,0,0
138885,-66.6666666666667,4,2,2,5,0,0
139010,-66.6666666666667,4,2,2,70,0,0
139051,-66.6666666666667,4,2,2,5,0,0
139176,-66.6666666666667,4,2,2,70,0,0
149176,-83.3333333333333,4,2,2,70,0,0
149343,-100,4,2,2,70,0,0
149843,-111.111111111111,4,2,3,70,0,0
150010,-125,4,2,4,70,0,0
150176,-200,4,2,5,70,0,0
150343,-125,4,2,21,65,0,0
151676,-166.666666666667,4,2,21,65,0,0
152343,-125,4,2,21,65,0,0
154343,-166.666666666667,4,2,21,65,0,0
155010,-125,4,2,21,65,0,0
155676,-125,4,2,21,65,0,0
159676,-100,4,2,21,65,0,0
161010,-100,4,2,22,45,0,0
161676,-333.333333333333,4,2,22,45,0,0
166343,-200,4,2,22,45,0,0
169010,-333.333333333333,4,2,22,45,0,0
171343,-71.4285714285714,4,2,22,45,0,0
171676,-55.5555555555556,4,2,31,90,0,0
173010,-50,4,2,31,90,0,0
174343,-55.5555555555556,4,2,31,90,0,0
175676,-45.4545454545455,4,2,31,90,0,0
176343,-55.5555555555556,4,2,31,90,0,0
177010,-50,4,2,31,90,0,0
178010,-55.5555555555556,4,2,31,90,0,0
178176,-40,4,2,31,90,0,0
178843,-35.7142857142857,4,2,31,90,0,0
179343,-55.5555555555556,4,2,31,90,0,0
179676,-50,4,2,31,90,0,0
180510,-55.5555555555556,4,2,31,90,0,0
181010,-71.4285714285714,4,2,31,90,0,0
182343,-50,4,2,98,90,0,0
182426,-50,4,2,99,90,0,0
182510,-50,4,2,98,90,0,0
182593,-50,4,2,99,90,0,0
182676,-50,4,2,98,90,0,0
182759,-50,4,2,99,90,0,0
182926,-50,4,2,31,90,0,0
183343,-55.5555555555556,4,2,31,90,0,0
185010,-50,4,2,31,90,0,0
186010,-55.5555555555556,4,2,31,90,0,0
187676,-33.3333333333333,4,2,31,90,0,0
188676,-55.5555555555556,4,2,31,90,0,0
192676,-100,4,2,31,90,0,0
193010,-50,4,2,31,90,0,0
193454,-100,4,2,31,90,0,0
194010,-50,4,2,31,90,0,0
194454,-100,4,2,31,90,0,0
195010,-50,4,2,31,90,0,0
195454,-100,4,2,31,90,0,0
196010,-50,4,2,31,90,0,0
196454,-100,4,2,31,90,0,0
197010,-66.6666666666667,4,2,31,90,0,0
197232,-50,4,2,31,90,0,0
197454,-66.6666666666667,4,2,31,90,0,0
198010,-50,4,2,31,90,0,0
198232,-40,4,2,31,90,0,0
198454,-50,4,2,31,90,0,0
199010,-40,4,2,31,90,0,0
199232,-33.3333333333333,4,2,31,90,0,0
199454,-40,4,2,31,90,0,0
200010,-33.3333333333333,4,2,31,90,0,0
200454,-50,4,2,31,90,0,0
200676,-66.6666666666667,4,2,31,90,0,0
201343,-76.9230769230769,4,2,32,95,0,0
206676,-55.5555555555556,4,2,32,95,0,0
209010,-83.3333333333333,4,2,32,95,0,0
209343,-55.5555555555556,4,2,32,95,0,0
210010,-83.3333333333333,4,2,32,95,0,0
210343,-55.5555555555556,4,2,32,95,0,0
210676,-45.4545454545455,4,2,32,95,0,0
211010,-66.6666666666667,4,2,32,95,0,0
212105,-45.4545454545455,4,2,32,95,0,0
212114,-45.4545454545455,4,2,32,5,0,0
212176,-45.4545454545455,4,2,32,95,0,0
212197,-45.4545454545455,4,2,32,5,0,0
212260,-45.4545454545455,4,2,32,95,0,0
212269,-45.4545454545455,4,2,32,5,0,0
212288,-45.4545454545455,4,2,32,95,0,0
212301,-45.4545454545455,4,2,32,5,0,0
212343,-45.4545454545455,4,2,32,95,0,0
212364,-45.4545454545455,4,2,32,5,0,0
212491,-45.4545454545455,4,2,32,95,0,0
212510,-45.4545454545455,4,2,32,5,0,0

[Colours]
Combo1 : 235,41,47
Combo2 : 223,223,223
Combo3 : 33,28,236

[HitObjects]
494,224,1010,6,0,L|456:233,1,28,0|0,1:0|0:0,0:0:0:0:
501,233,1176,2,0,L|385:221,1,112,8|0,0:3|1:0,0:0:0:0:
340,160,1676,5,0,1:0:0:0:
341,146,1760,1,0,1:0:0:0:
343,132,1843,2,0,L|347:99,1,28,0|0,3:0|1:0,0:0:0:0:
249,44,2010,5,0,3:0:0:0:
226,99,2093,1,0,3:0:0:0:
259,136,2176,1,0,3:0:0:0:
242,189,2260,1,0,3:0:0:0:
251,204,2343,6,0,L|255:233,5,28,2|2|10|10|2|2,1:3|0:3|0:3|0:3|0:3|0:3,0:0:0:0:
259,243,2843,2,0,L|253:368,1,112,2|8,1:3|0:3,0:0:0:0:
79,318,3343,5,0,1:0:0:0:
67,306,3426,2,0,L|61:266,2,28,0|0|0,1:0|3:0|0:0,0:0:0:0:
144,263,3676,5,0,1:0:0:0:
91,203,3843,1,0,1:0:0:0:
11,365,4010,1,0,3:0:0:0:
149,270,4176,5,0,1:0:0:0:
154,275,4260,2,0,L|215:263,1,56,0|2,1:0|0:3,0:0:0:0:
276,207,4510,5,2,1:3:0:0:
276,207,4593,1,2,1:3:0:0:
276,207,4676,2,0,L|272:175,1,28,4|4,0:3|0:3,0:0:0:0:
354,202,4926,1,4,0:3:0:0:
354,202,5010,6,0,L|346:140,2,56,2|0|0,1:1|1:0|3:0,0:0:0:0:
437,326,5510,6,0,L|406:333,1,28,2|8,1:1|0:3,0:0:0:0:
333,346,5676,2,0,L|324:319,3,28,0|0|0|0,1:0|1:0|1:0|1:0,0:0:0:0:
245,369,6010,6,0,L|251:254,1,112,2|2,2:1|1:1,0:0:0:0:
138,19,6676,6,0,B|122:23|122:23|112:51|84:56,1,70,8|0,0:0|1:0,0:0:0:0:
31,192,7010,5,0,1:0:0:0:
48,189,7093,1,0,1:0:0:0:
65,186,7176,2,0,L|105:179,1,35,0|0,3:0|1:0,0:0:0:0:
172,123,7343,5,0,3:0:0:0:
224,147,7426,1,0,3:0:0:0:
276,130,7510,1,0,3:0:0:0:
297,166,7593,1,0,3:0:0:0:
286,183,7676,6,0,L|279:221,5,35,2|2|10|10|2|2,1:3|0:3|0:3|0:3|0:3|0:3,0:0:0:0:
271,226,8176,2,0,L|281:371,1,140,2|8,1:3|0:3,0:0:0:0:
123,333,8676,5,0,1:0:0:0:
124,319,8760,1,0,1:0:0:0:
126,306,8843,2,0,L|132:260,1,35,2|0,0:0|0:0,0:0:0:0:
204,321,9010,1,0,1:0:0:0:
273,364,9176,1,0,1:0:0:0:
311,292,9343,5,2,3:2:0:0:
387,335,9510,1,0,1:0:0:0:
387,335,9593,2,0,L|399:225,1,105,0|2,1:0|1:3,0:0:0:0:
416,220,9926,1,2,1:3:0:0:
431,211,10010,2,0,L|424:171,1,35,4|4,0:3|0:3,0:0:0:0:
472,75,10260,5,4,0:3:0:0:
498,146,10343,2,0,L|482:73,1,70,0|0,1:0|1:0,0:0:0:0:
512,5,10676,1,2,3:2:0:0:
391,83,10843,6,0,B|371:99|371:99|369:102|369:102|344:120|344:120|342:123|342:123|313:147|313:147|311:147|311:147|281:172|281:172|286:168|286:168|260:188|260:188|267:182|267:182|244:202|244:202|251:197|251:197|227:215|227:215|233:211|233:211|208:230|208:230|213:226|213:226|185:247|185:247|184:248|184:248|173:256|173:256,1,350,0|0,1:0|1:0,0:0:0:0:
259,155,11843,1,10,0:3:0:0:
353,274,12010,5,2,0:0:0:0:
344,285,12093,2,0,L|297:293,1,41.9999987182618,0|2,0:0|1:3,0:0:0:0:
165,365,12260,1,2,1:3:0:0:
180,374,12343,5,2,0:3:0:0:
217,357,12426,1,0,0:0:0:0:
232,318,12509,1,0,1:0:0:0:
216,281,12593,1,0,0:0:0:0:
178,265,12676,1,8,0:0:0:0:
128,208,12760,2,0,P|138:167|140:121,1,83.9999974365235,0|0,0:0|0:0,0:0:0:0:
214,97,13010,5,0,1:0:0:0:
122,215,13176,1,10,0:3:0:0:
56,261,13343,5,2,0:3:0:0:
0,205,13510,1,0,1:0:0:0:
147,135,13676,5,8,0:3:0:0:
65,156,13843,1,8,0:3:0:0:
11,90,14010,5,0,1:0:0:0:
150,144,14176,1,8,0:0:0:0:
80,19,14343,6,0,B|49:25|49:25|73:160,1,167.999994873047,0|2,1:0|0:0,0:0:0:0:
31,305,14843,5,0,1:0:0:0:
32,317,14926,2,0,B|38:348|38:348|132:330,1,125.999996154785,0|0,1:0|1:0,0:0:0:0:
192,175,15343,5,8,0:0:0:0:
125,246,15510,1,0,1:0:0:0:
106,233,15593,1,0,0:0:0:0:
84,238,15676,1,2,0:1:0:0:
213,305,15843,1,0,0:0:0:0:
292,257,16010,5,2,0:0:0:0:
386,228,16176,1,2,1:1:0:0:
505,355,16343,5,0,0:0:0:0:
411,384,16509,1,0,0:0:0:0:
301,260,16676,5,2,0:0:0:0:
416,304,16843,1,2,0:3:0:0:
487,192,17010,6,0,B|491:160|491:160|356:136,1,167.999994873047,2|2,1:1|0:0,0:0:0:0:
255,28,17510,5,2,1:3:0:0:
243,25,17593,2,0,B|213:21|213:21|195:115,1,125.999996154785,0|0,1:0|1:0,0:0:0:0:
194,115,17926,1,0,0:0:0:0:
211,150,18010,1,8,0:0:0:0:
192,177,18093,2,0,L|176:266,1,83.9999974365235,0|2,0:0|0:3,0:0:0:0:
115,148,18343,5,0,1:0:0:0:
26,221,18510,1,10,0:3:0:0:
106,138,18676,5,2,0:3:0:0:
103,117,18759,1,2,0:3:0:0:
100,96,18842,1,0,1:0:0:0:
97,75,18925,1,0,0:0:0:0:
94,54,19009,1,8,0:3:0:0:
27,140,19176,1,8,0:3:0:0:
119,230,19343,5,0,1:0:0:0:
142,233,19426,1,0,1:0:0:0:
159,217,19510,1,8,0:0:0:0:
107,150,19676,6,0,L|95:324,1,167.999994873047,0|2,1:0|0:0,0:0:0:0:
26,221,20176,1,2,1:3:0:0:
25,232,20260,2,0,L|21:281,1,41.9999987182618,0|0,1:0|0:0,0:0:0:0:
249,350,20510,5,0,1:0:0:0:
249,350,20593,1,0,1:0:0:0:
262,336,20676,5,2,0:0:0:0:
225,271,20760,1,2,0:0:0:0:
272,218,20843,1,0,1:0:0:0:
247,174,20926,1,0,1:0:0:0:
253,161,21010,6,0,P|246:127|221:103,1,70,0|0,1:0|0:0,0:0:0:0:
435,147,21176,2,0,P|425:183|396:205,1,70,0|0,1:0|1:0,0:0:0:0:
332,161,21343,6,0,P|342:125|371:103,1,70,2|0,1:2|1:0,0:0:0:0:
492,282,21510,2,0,P|459:270|426:280,1,70,0|0,1:0|1:0,0:0:0:0:
172,336,21676,6,0,L|117:350,1,52.5000020027161,2|0,1:3|1:0,0:0:0:0:
171,186,21843,2,0,L|116:200,1,52.5000020027161,2|2,1:3|1:3,0:0:0:0:
348,325,22010,2,0,L|293:339,1,52.5000020027161,0|0,1:0|1:0,0:0:0:0:
279,248,22176,2,0,L|224:262,1,52.5000020027161,2|0,1:3|1:0,0:0:0:0:
113,354,22343,6,0,B|98:319|98:319|70:308|70:308|56:274,1,105.000004005432,4|10,1:1|0:3,0:0:0:0:
59,256,22593,1,10,0:3:0:0:
46,243,22676,6,0,B|37:222|37:222|220:269,1,210.000008010865,2|0,0:0|0:0,0:0:0:0:
356,337,23176,6,0,L|344:286,1,52.5000020027161,0|0,1:0|0:0,0:0:0:0:
241,187,23343,2,0,L|275:345,1,157.500006008148,8|0,0:0|0:0,0:0:0:0:
271,352,23676,1,2,1:3:0:0:
396,222,23843,1,10,0:3:0:0:
103,49,24176,5,2,1:3:0:0:
166,159,24343,1,8,0:3:0:0:
185,33,24510,1,8,0:3:0:0:
91,127,24676,1,0,1:0:0:0:
225,104,24843,1,8,0:0:0:0:
157,272,25010,6,0,B|155:249|155:249|172:166,1,105.000004005432,0|4,1:0|2:1,0:0:0:0:
231,309,25343,1,2,0:0:0:0:
394,198,25510,5,0,1:0:0:0:
384,173,25593,1,0,1:0:0:0:
359,165,25676,1,2,0:3:0:0:
317,255,25843,1,0,1:0:0:0:
412,297,26010,1,8,0:0:0:0:
454,205,26176,1,4,1:1:0:0:
361,148,26343,5,0,0:0:0:0:
287,183,26510,1,0,0:0:0:0:
213,218,26676,1,2,0:0:0:0:
128,189,26843,5,4,1:1:0:0:
218,227,27010,1,0,0:0:0:0:
304,260,27176,1,0,0:0:0:0:
203,126,27343,5,2,0:0:0:0:
222,317,27510,1,2,0:3:0:0:
290,174,27676,5,4,1:1:0:0:
140,274,27843,1,8,0:3:0:0:
140,274,27926,1,8,0:3:0:0:
140,274,28010,2,0,B|128:295|128:295|152:380,1,105.000004005432,2|0,0:0|1:0,0:0:0:0:
172,375,28260,1,0,1:0:0:0:
183,357,28343,2,0,B|193:339|193:339|330:294,1,157.500006008148,0|0,0:0|0:0,0:0:0:0:
401,340,28676,5,8,0:0:0:0:
224,240,28843,1,4,0:1:0:0:
282,164,29010,2,0,B|285:153|285:153|383:125,1,105.000004005432,2|10,1:3|0:3,0:0:0:0:
4,259,29510,5,2,1:3:0:0:
97,363,29676,1,8,0:3:0:0:
10,344,29843,1,8,0:3:0:0:
138,284,30010,1,0,1:0:0:0:
81,219,30176,1,8,0:0:0:0:
146,288,30343,6,0,B|149:277|149:277|247:249,1,105.000004005432,0|4,1:0|1:1,0:0:0:0:
78,226,30676,1,8,0:0:0:0:
314,287,30843,5,2,1:3:0:0:
326,266,30926,1,0,1:0:0:0:
321,242,31010,1,0,1:0:0:0:
160,179,31176,5,0,1:0:0:0:
155,155,31260,1,0,1:0:0:0:
167,132,31343,5,2,0:0:0:0:
210,105,31426,1,2,0:0:0:0:
220,55,31509,1,4,0:1:0:0:
189,15,31592,1,2,0:0:0:0:
111,21,31676,6,0,L|118:75,1,52.5000020027161,0|0,1:0|0:0,0:0:0:0:
237,185,31843,2,0,L|244:239,1,52.5000020027161,0|0,1:0|0:0,0:0:0:0:
176,297,32010,5,2,0:0:0:0:
239,177,32176,2,0,L|26:143,1,210.000008010865,4|0,1:1|1:0,0:0:0:0:
201,182,32676,6,0,L|232:187,6,26.2500010013581,0|0|0|0|0|0|0,1:0|1:0|1:0|1:0|1:0|1:0|1:0,0:0:0:0:
226,186,33010,6,0,B|169:204|169:204|152:238|152:238|96:256,1,157.500006008148,2|2,1:3|0:3,0:0:0:0:
18,221,33343,1,2,0:0:0:0:
173,259,33510,1,10,1:3:0:0:
110,156,33676,1,2,1:3:0:0:
13,317,33843,2,0,B|33:368|33:368|84:350,1,105.000004005432,2|8,0:3|0:0,0:0:0:0:
94,264,34176,1,2,0:3:0:0:
90,355,34343,5,2,1:3:0:0:
205,330,34510,1,2,0:3:0:0:
286,366,34676,5,2,0:0:0:0:
371,384,34843,1,10,1:3:0:0:
387,371,34926,1,10,1:3:0:0:
387,350,35010,1,2,1:3:0:0:
284,375,35176,1,2,1:3:0:0:
212,324,35343,5,2,0:0:0:0:
240,214,35510,1,2,0:3:0:0:
336,280,35676,6,0,B|387:263|387:263|374:213,1,105.000004005432,2|2,1:3|0:3,0:0:0:0:
230,219,36010,2,0,B|179:202|179:202|192:152,1,105.000004005432,8|10,0:0|1:3,0:0:0:0:
342,121,36343,5,2,1:3:0:0:
253,309,36510,2,0,L|142:340,1,105.000004005432,2|8,1:3|0:0,0:0:0:0:
241,223,36843,1,2,0:3:0:0:
369,200,37010,5,2,1:1:0:0:
258,114,37176,2,0,B|208:101|208:101|191:152,1,105.000004005432,2|2,0:3|0:0,0:0:0:0:
325,270,37510,5,2,1:1:0:0:
325,270,37593,1,10,1:3:0:0:
325,270,37676,2,0,L|430:242,1,105.000004005432,2|2,1:3|1:3,0:0:0:0:
430,45,38010,6,0,B|421:27|421:27|391:60|391:60|417:66|417:66|429:57,1,105.000004005432,8|8,0:0|0:3,0:0:0:0:
509,78,38343,6,0,B|444:135|418:46|395:25|366:8|313:24,1,210.000008010865,2|2,1:1|0:0,0:0:0:0:
502,0,38843,1,10,1:3:0:0:
397,147,39010,5,2,1:3:0:0:
304,171,39176,1,2,1:3:0:0:
218,87,39343,5,8,0:0:0:0:
131,57,39510,1,2,0:3:0:0:
26,160,39676,6,0,B|-9:278|72:224|106:170|137:168|164:182|168:193,1,210.000008010865,2|2,1:3|0:0,0:0:0:0:
45,244,40176,1,10,1:3:0:0:
170,185,40343,5,2,1:3:0:0:
96,104,40510,2,0,B|114:90|121:72|116:46,1,52.5000020027161,2|0,1:3|0:0,0:0:0:0:
64,0,40676,1,8,0:0:0:0:
1,49,40843,1,2,0:3:0:0:
165,174,41010,6,0,B|133:226|120:319|125:377,1,210.000008010865,2|2,1:3|0:0,0:0:0:0:
55,237,41510,1,10,1:3:0:0:
214,310,41676,5,2,1:3:0:0:
300,290,41843,1,2,1:3:0:0:
387,237,42010,5,8,0:0:0:0:
484,259,42176,1,2,1:3:0:0:
308,294,42343,5,2,1:3:0:0:
399,343,42510,1,2,0:1:0:0:
255,217,42676,5,2,0:0:0:0:
388,251,42843,1,2,1:3:0:0:
320,376,43010,5,2,1:1:0:0:
298,292,43176,1,2,1:1:0:0:
374,240,43343,1,8,0:0:0:0:
352,151,43510,1,2,0:1:0:0:
253,69,43676,6,0,B|192:124|277:190|313:211|328:248|302:294|264:292,1,262.500010013581,2|0,1:3|0:0,0:0:0:0:
254,295,44176,2,0,B|223:291|207:274|205:250,1,52.5000020027161,10|8,1:3|1:3,0:0:0:0:
205,248,44343,2,0,B|211:188|274:183|295:123|287:83|262:69|245:64,1,210.000008010865,2|8,1:3|0:0,0:0:0:0:
76,59,44843,2,0,B|51:50|51:50|61:26,1,52.5000020027161,2|2,0:3|0:3,0:0:0:0:
146,16,45010,5,2,1:3:0:0:
170,120,45176,1,2,0:3:0:0:
99,200,45343,5,2,0:0:0:0:
72,292,45510,1,10,1:3:0:0:
227,349,45676,6,0,B|268:337|279:251|217:231|174:279|192:305,1,157.500006008148,2|0,1:3|0:0,0:0:0:0:
128,355,46010,2,0,B|346:317,1,210.000008010865,8|2,0:0|1:3,0:0:0:0:
331,83,46676,2,0,B|171:110,1,157.500006008148,2|10,0:0|1:3,0:0:0:0:
159,99,47010,5,2,1:3:0:0:
306,194,47176,1,2,1:3:0:0:
216,274,47343,1,8,0:0:0:0:
159,213,47510,5,2,0:3:0:0:
176,192,47593,1,2,0:3:0:0:
203,194,47676,1,2,1:1:0:0:
306,273,47843,1,2,0:3:0:0:
423,195,48010,6,0,B|415:29,1,157.500006008148,2|10,0:0|1:3,0:0:0:0:
430,23,48343,1,2,1:3:0:0:
324,182,48510,1,2,1:3:0:0:
485,290,48676,5,8,0:0:0:0:
484,322,48759,1,8,0:3:0:0:
467,350,48842,1,8,0:3:0:0:
438,365,48926,1,8,0:3:0:0:
406,363,49010,6,0,B|348:376|328:321|336:285|302:235|242:249,1,210.000008010865,2|2,1:1|0:0,0:0:0:0:
402,269,49510,1,10,1:3:0:0:
202,312,49676,5,2,1:3:0:0:
177,296,49760,1,0,0:0:0:0:
172,267,49843,1,2,1:3:0:0:
317,178,50010,1,8,0:0:0:0:
283,69,50176,1,2,0:3:0:0:
151,135,50343,6,0,B|126:196|173:231|215:215|238:277|207:324,1,210.000008010865,2|2,1:3|0:0,0:0:0:0:
231,151,50843,1,10,1:3:0:0:
94,258,51010,5,2,1:3:0:0:
6,239,51176,1,2,1:3:0:0:
54,72,51343,5,8,0:0:0:0:
83,67,51426,1,0,0:0:0:0:
113,63,51510,1,2,0:3:0:0:
63,162,51676,1,2,1:3:0:0:
215,194,51843,5,2,0:3:0:0:
201,113,52010,1,2,0:0:0:0:
271,291,52176,5,10,1:3:0:0:
301,198,52343,1,2,1:3:0:0:
186,280,52510,5,2,0:3:0:0:
94,251,52676,1,8,0:0:0:0:
219,186,52843,1,2,0:3:0:0:
237,371,53010,5,2,1:1:0:0:
352,321,53177,1,2,0:1:0:0:
298,212,53343,1,6,0:2:0:0:
188,266,53510,1,2,1:1:0:0:
190,285,53593,1,2,1:3:0:0:
207,292,53676,1,10,1:1:0:0:
294,227,53843,1,10,1:1:0:0:
211,181,54010,5,10,1:1:0:0:
127,133,54176,1,10,1:1:0:0:
266,85,54343,6,0,P|250:219|246:372,1,280,12|0,1:3|1:0,0:0:0:0:
391,315,55343,5,2,1:3:0:0:
446,325,55426,1,2,1:3:0:0:
486,351,55510,1,0,1:0:0:0:
506,371,55593,1,0,1:0:0:0:
511,383,55676,2,0,P|515:339|527:296,2,84,8|8|8,1:1|0:1|0:1,0:0:0:0:
348,381,56343,5,8,3:2:0:0:
464,246,56510,1,0,1:0:0:0:
361,301,56676,1,0,3:0:0:0:
473,244,56843,5,0,1:0:0:0:
479,226,56926,1,0,3:0:0:0:
467,209,57010,2,0,P|339:226|185:237,1,280,4|0,1:3|0:0,0:0:0:0:
261,65,58010,5,2,0:3:0:0:
292,110,58093,1,2,1:3:0:0:
261,156,58176,1,2,1:3:0:0:
280,187,58260,1,2,1:3:0:0:
273,203,58343,2,0,P|272:251|269:292,2,84,8|8|8,3:1|0:1|0:1,0:0:0:0:
335,335,59010,5,8,0:0:0:0:
189,228,59176,1,0,1:0:0:0:
354,160,59343,2,0,P|362:204|370:243,1,84,0|0,1:0|0:0,0:0:0:0:
326,338,59676,6,0,P|270:202|208:79,1,280,12|0,1:3|1:0,0:0:0:0:
28,161,60676,5,2,0:3:0:0:
7,113,60760,1,2,1:3:0:0:
0,63,60843,1,0,1:0:0:0:
3,21,60926,1,0,1:0:0:0:
13,0,61010,2,0,P|66:10|105:8,2,84,8|8|8,3:1|0:1|0:1,0:0:0:0:
129,87,61676,5,8,1:2:0:0:
216,70,61843,1,0,1:0:0:0:
85,190,62010,6,0,L|54:182,3,28,0|0|0|0,1:0|1:0|1:0|1:0,0:0:0:0:
98,185,62343,5,0,1:0:0:0:
154,261,62510,1,2,0:0:0:0:
225,77,62676,5,2,1:3:0:0:
138,94,62843,1,2,0:0:0:0:
269,238,63010,5,2,1:3:0:0:
297,154,63177,1,2,1:3:0:0:
201,183,63343,5,0,1:0:0:0:
201,183,63426,1,2,0:0:0:0:
201,183,63510,1,2,0:0:0:0:
201,183,63593,1,2,0:0:0:0:
201,183,63676,5,2,1:1:0:0:
299,163,63843,1,2,1:1:0:0:
402,143,64010,1,2,1:1:0:0:
500,123,64176,1,2,1:1:0:0:
453,253,64343,5,6,1:1:0:0:
451,259,64426,1,2,1:1:0:0:
450,265,64509,1,2,0:1:0:0:
448,272,64593,1,2,1:1:0:0:
447,278,64676,1,6,1:1:0:0:
446,285,64759,1,2,1:1:0:0:
444,291,64843,1,6,1:1:0:0:
443,297,64926,1,6,1:1:0:0:
442,304,65009,1,2,0:0:0:0:
509,3,74343,6,0,L|459:49,1,62.9999980773926,0|0,1:0|0:0,0:0:0:0:
408,100,74676,5,0,1:0:0:0:
384,137,74760,1,0,1:0:0:0:
341,155,74843,1,0,1:0:0:0:
302,199,74926,1,0,1:0:0:0:
238,237,75010,6,0,L|254:261,3,20.9999993591309,0|0|0|0,1:0|1:0|1:0|1:0,0:0:0:0:
178,287,75343,6,0,L|117:331,1,62.9999980773926,0|0,1:0|0:0,0:0:0:0:
62,364,75676,5,4,1:2:0:0:
17,354,75760,1,2,0:1:0:0:
0,299,75843,1,2,0:1:0:0:
37,243,75926,1,2,0:1:0:0:
110,229,76010,6,0,L|242:242,2,125.999996154785,8|4|2,0:0|1:2|0:1,0:0:0:0:
256,325,76510,1,8,0:0:0:0:
49,156,76676,5,0,1:0:0:0:
136,113,76843,1,2,0:0:0:0:
348,281,77010,6,0,P|357:176|385:67,1,210,2|0,0:0|1:0,0:0:0:0:
433,298,77343,2,0,P|458:196|467:91,1,210,8|0,0:3|0:0,0:0:0:0:
214,239,77676,5,4,1:2:0:0:
335,155,77843,1,0,3:0:0:0:
143,120,78010,1,0,3:0:0:0:
329,169,78176,1,0,3:0:0:0:
298,370,78343,5,4,1:2:0:0:
293,328,78426,1,2,0:1:0:0:
323,283,78510,1,2,0:1:0:0:
394,276,78593,1,2,0:1:0:0:
444,333,78676,6,0,L|320:305,2,125.999996154785,8|4|2,0:0|1:2|0:1,0:0:0:0:
324,183,79176,1,8,0:0:0:0:
121,377,79343,5,0,1:0:0:0:
209,356,79510,1,2,0:0:0:0:
79,298,79676,6,0,P|54:196|45:91,1,210,2|0,0:0|1:0,0:0:0:0:
164,281,80010,2,0,P|155:176|127:67,1,210,8|0,0:3|0:0,0:0:0:0:
336,172,80343,6,0,B|357:160|345:126|345:126|334:151|310:165,1,105.000004005432,4|2,1:2|0:1,0:0:0:0:
168,273,80676,2,0,B|137:236|159:163|226:171|226:171|230:214|260:221,1,210.000008010865,0|2,1:0|0:1,0:0:0:0:
335,336,81010,6,0,B|299:319|299:319|255:88|255:88|212:67,1,322.000006141663,4|8,1:2|0:0,0:0:0:0:
177,278,81510,2,0,B|373:218|373:218|388:265,1,251.999992309571,4|8,1:2|0:0,0:0:0:0:
223,345,82010,5,0,1:0:0:0:
305,160,82176,1,2,0:0:0:0:
184,143,82343,1,2,0:0:0:0:
395,270,82510,6,0,P|413:147|446:39,1,224,4|8,1:2|0:0,0:0:0:0:
311,262,83010,5,4,1:2:0:0:
285,235,83093,1,0,0:0:0:0:
235,255,83176,1,0,3:0:0:0:
182,229,83260,1,0,0:0:0:0:
117,270,83343,6,0,P|108:183|88:103,1,168,0|0,3:0|0:0,0:0:0:0:
0,46,83676,6,0,B|29:22|29:22|81:34|81:34|108:91|181:95,1,210,4|0,1:2|0:0,0:0:0:0:
12,123,84010,1,8,0:0:0:0:
175,6,84176,6,0,P|132:160|116:286,1,280,4|0,1:2|1:0,0:0:0:0:
18,132,84676,5,0,1:0:0:0:
172,215,84843,1,2,0:0:0:0:
44,365,85010,6,0,L|21:213,1,140,10|4,0:0|1:2,0:0:0:0:
182,209,85343,2,0,L|205:57,1,140,0|8,0:0|0:0,0:0:0:0:
33,230,85676,5,4,1:2:0:0:
106,173,85843,1,8,0:0:0:0:
236,274,86010,5,0,1:0:0:0:
253,276,86093,1,0,1:0:0:0:
270,279,86176,1,0,1:0:0:0:
287,282,86259,1,0,1:0:0:0:
305,285,86343,5,4,1:2:0:0:
329,280,86426,1,2,0:1:0:0:
361,255,86510,1,2,0:1:0:0:
362,197,86593,1,2,0:1:0:0:
299,156,86676,6,0,L|282:27,2,125.999996154785,8|4|2,0:0|1:2|0:1,0:0:0:0:
378,47,87176,1,8,0:0:0:0:
231,224,87343,5,0,1:0:0:0:
154,185,87510,1,2,0:0:0:0:
195,105,87676,1,2,0:0:0:0:
396,333,87843,5,4,1:2:0:0:
473,294,88010,1,8,0:3:0:0:
432,214,88176,1,8,0:0:0:0:
274,331,88343,5,0,1:0:0:0:
341,255,88510,1,12,0:0:0:0:
201,86,88676,5,8,0:3:0:0:
277,146,88843,1,0,1:0:0:0:
54,248,89010,6,0,B|68:285|68:285|236:238,1,210,4|2,1:2|0:1,0:0:0:0:
278,157,89343,1,8,0:0:0:0:
192,344,89510,2,0,B|222:369|222:369|344:244,1,210,4|2,1:2|0:1,0:0:0:0:
281,167,89843,1,8,0:0:0:0:
360,365,90010,2,0,B|416:374|416:374|427:315,1,112,0|2,1:0|0:0,0:0:0:0:
239,245,90343,5,2,0:0:0:0:
374,165,90510,1,4,1:2:0:0:
277,146,90676,1,8,0:3:0:0:
337,256,90843,1,8,0:0:0:0:
227,239,91010,5,0,1:0:0:0:
382,175,91176,1,12,0:0:0:0:
269,140,91343,1,0,1:0:0:0:
440,71,91510,1,2,0:1:0:0:
491,243,91676,6,0,B|477:280|477:280|309:233,1,210,4|2,1:2|0:1,0:0:0:0:
267,152,92009,1,8,0:0:0:0:
353,339,92176,2,0,B|323:364|323:364|201:239,1,210,4|2,1:2|0:1,0:0:0:0:
264,162,92509,1,8,0:0:0:0:
185,360,92676,2,0,B|129:369|129:369|118:310,1,112,0|2,1:0|0:0,0:0:0:0:
262,172,93010,5,2,0:0:0:0:
125,221,93176,1,4,1:2:0:0:
0,94,93343,5,8,0:3:0:0:
94,134,93510,1,8,0:0:0:0:
0,195,93676,5,4,1:2:0:0:
101,141,93843,1,0,1:0:0:0:
218,246,94010,5,8,0:3:0:0:
347,187,94176,1,0,1:0:0:0:
139,229,94343,6,0,B|121:48|121:48|64:52,1,231.000007049561,4|2,1:2|0:1,0:0:0:0:
10,201,94676,1,8,0:0:0:0:
151,309,94843,2,0,B|223:340|223:340|253:268,1,154.000004699707,4|2,1:2|0:1,0:0:0:0:
210,97,95176,1,8,0:0:0:0:
34,284,95343,5,2,1:1:0:0:
148,223,95510,1,2,0:0:0:0:
258,282,95676,5,2,0:0:0:0:
356,321,95843,1,4,1:2:0:0:
418,264,96010,5,8,0:3:0:0:
511,236,96176,1,8,0:0:0:0:
326,211,96343,5,2,1:1:0:0:
357,341,96510,1,12,0:0:0:0:
488,316,96676,1,2,1:1:0:0:
457,182,96843,1,2,0:1:0:0:
407,263,97010,5,0,1:0:0:0:
256,192,97093,12,2,102343,1:1:0:0:
386,263,106843,6,0,L|394:305,9,28,2|8|10|2|10|2|2|2|2|2,1:3|1:3|1:3|1:3|1:3|1:3|1:3|1:3|1:3|1:3,0:0:0:0:
466,309,107676,6,0,P|384:334|359:371,1,125.999996154785,2|10,1:3|0:3,0:0:0:0:
202,344,108010,1,2,0:0:0:0:
193,333,108093,2,0,P|189:290|182:261,2,41.9999987182618,0|2|2,0:0|1:3|1:3,0:0:0:0:
137,230,108343,5,2,0:3:0:0:
226,203,108510,1,0,1:0:0:0:
335,132,108676,5,8,0:0:0:0:
452,177,108843,1,0,0:0:0:0:
452,177,108926,1,0,0:0:0:0:
452,177,109010,2,0,L|458:224,2,41.9999987182618,0|0|10,1:0|0:0|0:3,0:0:0:0:
472,95,109343,5,2,0:3:0:0:
316,210,109510,1,0,1:0:0:0:
391,269,109676,5,8,0:3:0:0:
312,217,109843,1,8,0:3:0:0:
297,310,110010,5,0,1:0:0:0:
413,168,110176,1,8,0:0:0:0:
488,297,110343,6,0,B|496:336|496:336|362:365,1,167.999994873047,0|2,1:0|0:0,0:0:0:0:
193,349,110843,5,0,1:0:0:0:
193,349,110926,2,0,B|160:339|160:339|186:242,1,125.999996154785,0|0,1:0|1:0,0:0:0:0:
194,242,111260,1,2,0:3:0:0:
205,234,111343,2,0,L|288:220,1,83.9999974365235,8|0,0:0|1:0,0:0:0:0:
299,212,111593,1,0,0:0:0:0:
309,204,111676,5,2,0:1:0:0:
192,149,111843,1,0,0:0:0:0:
76,215,112010,5,2,0:0:0:0:
186,137,112176,1,2,1:1:0:0:
45,29,112343,5,0,0:0:0:0:
19,118,112510,1,0,0:0:0:0:
107,142,112676,1,2,0:0:0:0:
134,53,112843,1,2,0:3:0:0:
74,223,113010,6,0,B|86:263|86:263|209:229,1,167.999994873047,2|2,1:1|0:0,0:0:0:0:
365,270,113510,5,2,1:3:0:0:
364,293,113593,1,0,1:0:0:0:
350,312,113676,1,0,0:0:0:0:
284,260,113843,1,0,1:0:0:0:
414,202,114010,2,0,L|418:161,3,41.9999987182618,8|0|0|2,0:0|0:0|0:0|0:3,0:0:0:0:
448,278,114343,5,0,1:0:0:0:
334,195,114510,1,10,0:3:0:0:
212,224,114676,5,2,0:3:0:0:
127,269,114843,1,0,1:0:0:0:
240,384,115010,5,8,0:3:0:0:
319,343,115176,1,8,0:3:0:0:
197,300,115343,5,0,1:0:0:0:
218,303,115426,1,0,1:0:0:0:
239,297,115510,1,8,0:0:0:0:
136,192,115676,6,0,L|149:363,1,167.999994873047,0|2,1:0|0:0,0:0:0:0:
61,274,116176,1,2,1:3:0:0:
62,284,116260,2,0,L|66:334,1,41.9999987182618,0|0,1:0|0:0,0:0:0:0:
213,154,116510,5,0,1:0:0:0:
213,154,116593,1,0,1:0:0:0:
213,154,116676,2,0,B|225:174|225:174|221:194,1,41.9999987182618,2|2,0:0|0:0,0:0:0:0:
54,199,116843,2,0,B|48:181|48:181|57:159,1,41.9999987182618,0|0,1:0|1:0,0:0:0:0:
135,181,117010,5,0,1:0:0:0:
140,191,117093,1,0,0:0:0:0:
130,188,117176,1,0,1:0:0:0:
115,100,117343,5,2,1:2:0:0:
181,262,117510,1,0,1:0:0:0:
60,207,117676,5,2,1:3:0:0:
206,144,117843,1,2,1:3:0:0:
187,267,118010,5,0,1:0:0:0:
65,215,118176,1,2,1:3:0:0:
23,355,118343,6,0,B|65:345|65:345|76:349|76:349|126:338,1,105.000004005432,4|10,1:1|0:3,0:0:0:0:
144,345,118593,1,10,0:3:0:0:
162,335,118676,6,0,L|121:128,1,210.000008010865,2|0,0:0|0:0,0:0:0:0:
59,215,119176,6,0,L|69:269,1,52.5000020027161,0|0,1:0|0:0,0:0:0:0:
233,295,119343,2,0,L|203:138,1,157.500006008148,8|0,0:0|0:0,0:0:0:0:
201,124,119676,1,2,1:3:0:0:
150,281,119843,1,10,0:3:0:0:
409,335,120176,5,2,1:3:0:0:
346,225,120343,1,8,0:3:0:0:
327,351,120510,1,8,0:3:0:0:
421,257,120676,1,0,1:0:0:0:
287,280,120843,1,8,0:0:0:0:
428,248,121010,6,0,B|432:201|432:201|429:196|429:196|432:142,1,105.000004005432,0|4,1:0|2:1,0:0:0:0:
506,229,121343,5,2,0:0:0:0:
360,113,121510,1,0,1:0:0:0:
361,89,121593,1,0,1:0:0:0:
381,76,121676,1,2,0:3:0:0:
438,136,121843,1,0,1:0:0:0:
499,65,122010,5,8,0:0:0:0:
504,52,122093,1,0,0:0:0:0:
512,67,122176,1,4,1:1:0:0:
323,179,122343,5,0,0:0:0:0:
474,252,122510,1,0,0:0:0:0:
364,287,122676,1,2,0:0:0:0:
431,144,122843,1,4,1:1:0:0:
437,334,123176,5,0,0:0:0:0:
398,215,123343,1,2,0:0:0:0:
445,339,123510,1,2,0:3:0:0:
278,282,123676,5,4,1:1:0:0:
311,155,123843,1,8,0:3:0:0:
311,155,123926,1,8,0:3:0:0:
311,155,124010,2,0,B|309:141|309:141|215:119,1,105.000004005432,2|0,0:0|1:0,0:0:0:0:
203,131,124260,1,0,1:0:0:0:
186,143,124343,2,0,B|163:136|163:136|141:0,1,157.500006008148,0|0,0:0|0:0,0:0:0:0:
227,32,124676,5,8,0:0:0:0:
80,142,124843,2,0,L|-51:168,1,105.000004005432,4|2,0:1|1:3,0:0:0:0:
154,224,125176,2,0,L|285:250,1,105.000004005432,10|2,0:3|0:3,0:0:0:0:
69,270,125510,6,0,L|43:54,1,210.000008010865,2|8,1:3|0:3,0:0:0:0:
157,233,126010,5,0,1:0:0:0:
164,256,126093,1,0,0:0:0:0:
158,279,126176,1,8,0:0:0:0:
74,258,126343,5,0,1:0:0:0:
158,289,126510,1,4,1:1:0:0:
242,319,126676,1,8,0:0:0:0:
326,349,126843,1,2,1:3:0:0:
334,356,126926,2,0,L|441:336,1,105.000004005432,0|2,1:0|0:3,0:0:0:0:
451,340,127176,5,0,1:0:0:0:
474,322,127260,1,0,1:0:0:0:
481,291,127343,5,2,0:0:0:0:
459,254,127426,1,2,0:0:0:0:
483,224,127510,1,4,0:1:0:0:
459,178,127593,1,2,0:0:0:0:
497,115,127676,6,0,L|511:4,1,105.000004005432,0|2,1:0|1:1,0:0:0:0:
378,257,128010,1,2,0:0:0:0:
292,181,128176,1,4,1:1:0:0:
379,164,128510,5,2,1:1:0:0:
290,266,128676,2,0,L|264:261,6,26.2500010013581,2|0|0|0|2|0|0,1:1|1:0|1:0|1:0|1:1|1:0|1:0,0:0:0:0:
264,261,129010,6,0,B|206:275|206:275|188:309|188:309|129:323,1,157.500006008148,2|2,1:3|0:3,0:0:0:0:
78,256,129343,1,2,0:0:0:0:
207,338,129510,1,10,1:3:0:0:
193,199,129676,1,2,1:3:0:0:
28,319,129843,2,0,B|22:370|22:370|75:380,1,105.000004005432,2|8,0:3|0:0,0:0:0:0:
133,314,130176,1,2,0:3:0:0:
61,157,130343,6,0,B|53:149|53:149|61:106|61:106|66:156,1,105.000004005432,2|2,1:3|0:3,0:0:0:0:
6,225,130676,6,0,L|162:172,1,157.500006008148,2|10,0:0|1:3,0:0:0:0:
228,215,131010,5,2,1:3:0:0:
322,239,131176,1,2,1:3:0:0:
132,268,131343,5,2,0:0:0:0:
232,223,131510,1,2,0:3:0:0:
304,340,131676,5,2,1:3:0:0:
398,361,131843,1,2,0:3:0:0:
416,266,132010,1,8,0:0:0:0:
326,247,132176,1,10,1:3:0:0:
193,334,132343,6,0,L|160:170,1,157.500006008148,2|0,1:3|0:0,0:0:0:0:
125,258,132676,2,0,B|190:304|190:304|201:332,1,105.000004005432,8|2,0:0|0:3,0:0:0:0:
241,187,133010,1,2,1:1:0:0:
120,265,133176,2,0,L|4:290,1,105.000004005432,2|2,0:3|0:0,0:0:0:0:
91,356,133510,5,2,1:1:0:0:
106,350,133593,1,10,1:3:0:0:
102,364,133676,1,2,1:3:0:0:
22,295,133843,1,2,1:3:0:0:
200,319,134010,6,0,B|246:295|246:295|222:243,1,105.000004005432,8|8,0:0|0:3,0:0:0:0:
165,197,134343,6,0,B|161:284|213:290|264:299|267:379|252:394,1,210.000008010865,2|2,1:1|0:0,0:0:0:0:
194,312,134843,1,10,1:3:0:0:
336,365,135010,5,2,1:3:0:0:
432,372,135176,1,2,1:3:0:0:
309,264,135343,5,8,0:0:0:0:
403,290,135510,1,2,0:3:0:0:
487,192,135676,5,2,1:3:0:0:
414,111,135843,1,2,0:3:0:0:
393,204,136010,1,2,0:0:0:0:
505,104,136176,5,10,1:3:0:0:
502,91,136260,1,10,1:3:0:0:
495,82,136343,1,2,1:3:0:0:
409,120,136510,1,2,1:3:0:0:
324,157,136676,1,8,0:0:0:0:
400,207,136843,1,2,0:3:0:0:
488,266,137010,6,0,B|503:249|521:344|442:360|405:300|409:297|419:279|410:255|416:259|417:234|397:216,1,210.000008010865,2|2,1:3|0:0,0:0:0:0:
478,180,137510,1,10,1:3:0:0:
411,325,137676,5,2,1:3:0:0:
322,344,137843,1,2,1:3:0:0:
255,288,138010,5,8,0:0:0:0:
132,270,138176,1,2,1:3:0:0:
242,185,138343,6,0,L|251:156,1,26.2500010013581,2|0,1:1|0:0,0:0:0:0:
154,82,138510,6,0,L|163:53,1,26.2500010013581,2|0,0:1|0:0,0:0:0:0:
79,164,138676,6,0,L|88:135,1,26.2500010013581,2|0,0:0|0:0,0:0:0:0:
240,79,138843,6,0,L|249:50,1,26.2500010013581,2|0,1:1|0:0,0:0:0:0:
156,192,139010,6,0,L|165:163,1,26.2500010013581,2|0,1:1|0:0,0:0:0:0:
74,52,139176,6,0,B|54:40|54:40|89:107|69:176,1,157.500006008148,2|2,1:1|0:1,0:0:0:0:
0,222,139510,6,0,B|-10:228|-10:228|11:234|31:246,1,52.5000020027161,2|2,0:1|0:3,0:0:0:0:
188,269,139676,6,0,B|85:305|85:305|73:340|73:340|8:363,2,210.000008010865,2|2|2,1:3|0:0|1:3,0:0:0:0:
150,201,140510,1,2,1:3:0:0:
272,311,140676,6,0,B|288:288|288:288|276:262,1,52.5000020027161,8|0,0:0|0:0,0:0:0:0:
193,263,140843,6,0,B|197:294|197:294|195:301|195:301|200:371,1,105.000004005432,2|2,0:3|1:3,0:0:0:0:
447,365,141176,5,2,0:3:0:0:
369,310,141343,1,2,0:0:0:0:
277,319,141510,1,10,1:3:0:0:
411,227,141676,5,2,1:3:0:0:
374,317,141843,1,2,1:3:0:0:
319,188,142010,2,0,B|333:136|333:136|388:149,1,105.000004005432,8|2,0:0|0:3,0:0:0:0:
384,25,142343,6,0,L|408:234,2,210.000008010865,2|2|2,1:3|0:0|1:3,0:0:0:0:
484,178,143176,6,0,B|483:156|483:156|477:129|477:129|476:102|476:102|471:74,1,105.000004005432,2|8,1:3|0:0,0:0:0:0:
508,3,143510,1,2,0:3:0:0:
388,140,143676,5,2,1:1:0:0:
308,133,143843,1,2,0:3:0:0:
313,54,144010,1,2,0:0:0:0:
450,73,144176,5,2,1:1:0:0:
465,82,144260,1,10,1:3:0:0:
468,97,144343,1,2,1:3:0:0:
384,130,144510,1,2,1:3:0:0:
320,60,144676,6,0,B|346:217,1,157.500006008148,8|8,0:0|0:3,0:0:0:0:
445,199,145010,6,0,B|385:242|340:166|363:119|326:109|267:122|297:168|313:144,1,210.000008010865,2|2,1:1|0:0,0:0:0:0:
442,190,145510,1,10,1:3:0:0:
389,294,145676,5,2,1:3:0:0:
293,317,145843,1,2,1:3:0:0:
219,251,146010,5,8,0:0:0:0:
106,225,146176,1,2,0:3:0:0:
0,297,146343,6,0,B|27:351|-40:322|-48:422|67:423|110:321|72:292,1,210.000008010865,2|2,1:3|0:0,0:0:0:0:
40,161,146843,5,10,1:3:0:0:
40,161,146926,1,8,1:3:0:0:
40,161,147010,1,2,1:3:0:0:
2,287,147176,5,2,1:3:0:0:
173,181,147343,1,8,0:0:0:0:
103,98,147510,1,2,0:3:0:0:
16,68,147676,5,2,1:3:0:0:
110,94,147843,1,2,0:3:0:0:
22,63,148010,5,2,0:0:0:0:
116,89,148177,1,10,1:3:0:0:
181,42,148343,5,2,1:3:0:0:
98,224,148510,1,2,0:3:0:0:
187,37,148676,5,8,0:0:0:0:
104,219,148843,1,2,0:3:0:0:
207,173,149010,6,0,L|196:106,1,52.5000020027161,2|2,1:1|0:3,0:0:0:0:
298,137,149176,6,0,L|296:185,1,41.9999987182618,2|2,0:1|0:1,0:0:0:0:
374,218,149343,6,0,L|383:176,1,35,6|0,0:2|0:0,0:0:0:0:
477,198,149510,5,2,1:1:0:0:
471,220,149593,1,2,1:3:0:0:
457,223,149676,2,0,L|439:262,1,35,10|0,1:1|0:0,0:0:0:0:
466,306,149843,6,0,L|507:285,1,31.4999990386963,10|0,1:1|0:0,0:0:0:0:
512,344,150010,6,0,L|469:347,1,28,10|0,1:1|0:0,0:0:0:0:
488,369,150176,6,0,L|508:377,1,17.5,10|0,1:1|0:0,0:0:0:0:
512,384,150343,6,0,P|481:215|469:102,1,280,14|2,1:3|1:3,0:0:0:0:
190,49,151343,1,2,1:3:0:0:
240,69,151426,1,0,1:0:0:0:
269,104,151510,1,0,1:0:0:0:
281,136,151593,1,0,1:0:0:0:
279,159,151676,2,0,P|272:188|269:226,2,62.9999980773926,8|8|8,1:1|0:1|0:1,0:0:0:0:
325,40,152343,5,8,3:2:0:0:
197,155,152510,1,2,1:3:0:0:
179,146,152593,1,4,1:2:0:0:
179,126,152676,1,4,3:2:0:0:
334,277,152843,1,4,3:2:0:0:
352,268,152926,1,4,3:2:0:0:
351,247,153010,6,0,P|198:257|65:291,1,280,6|2,1:3|0:3,0:0:0:0:
16,53,154010,1,2,1:3:0:0:
68,77,154093,1,0,1:0:0:0:
89,119,154176,1,2,1:3:0:0:
91,153,154260,1,0,1:0:0:0:
79,174,154343,5,8,1:1:0:0:
248,235,154593,1,10,0:1:0:0:
418,292,154843,1,8,0:1:0:0:
175,337,155010,5,8,0:2:0:0:
174,331,155093,1,4,1:2:0:0:
173,325,155176,1,0,1:0:0:0:
172,319,155260,1,4,1:2:0:0:
171,313,155343,2,0,L|166:279,3,28,8|0|4|2,0:2|1:0|1:2|0:3,0:0:0:0:
158,357,155676,6,0,P|169:204|203:78,1,280,14|2,1:3|0:3,0:0:0:0:
366,211,156676,1,2,1:3:0:0:
422,229,156760,1,0,1:0:0:0:
456,261,156843,1,0,1:0:0:0:
476,293,156926,1,0,1:0:0:0:
482,322,157010,6,0,P|438:332|395:358,1,84,8|8,3:1|0:1,0:0:0:0:
338,303,157343,2,0,P|315:273|254:243,1,84,2|2,0:3|0:3,0:0:0:0:
208,292,157676,1,0,1:0:0:0:
303,172,157926,1,2,0:3:0:0:
303,172,158010,1,2,0:3:0:0:
152,71,158176,1,2,1:3:0:0:
152,71,158260,1,2,0:3:0:0:
152,71,158343,5,0,1:0:0:0:
234,15,158510,1,2,0:0:0:0:
228,206,158676,5,2,1:3:0:0:
151,161,158843,1,2,0:0:0:0:
329,54,159010,5,2,1:3:0:0:
337,152,159176,1,2,1:3:0:0:
248,111,159343,5,0,1:0:0:0:
248,111,159426,1,2,0:0:0:0:
248,111,159510,1,2,0:0:0:0:
248,111,159593,1,2,0:0:0:0:
248,111,159676,5,0,1:0:0:0:
238,248,159926,1,0,1:0:0:0:
259,366,160176,1,0,1:0:0:0:
249,238,160343,5,4,3:1:0:0:
247,373,160510,1,0,3:0:0:0:
239,221,160676,5,4,3:1:0:0:
235,208,160760,1,0,3:0:0:0:
239,195,160843,2,0,L|242:172,3,17.5,4|0|4|0,3:1|3:0|3:1|3:0,0:0:0:0:
256,192,169010,12,2,171343,0:1:0:0:
113,362,171676,5,6,1:1:0:0:
92,330,171760,1,0,1:0:0:0:
92,272,171843,1,0,1:0:0:0:
51,225,171926,1,0,1:0:0:0:
33,153,172010,6,0,P|12:85|4:21,2,125.999996154785,8|6|0,0:0|1:1|1:0,0:0:0:0:
17,299,172510,1,8,0:0:0:0:
143,210,172676,5,2,1:1:0:0:
24,145,172843,1,2,0:2:0:0:
194,289,173010,6,0,B|208:209|258:168|326:231|313:140|345:91,1,210,2|2,0:2|0:1,0:0:0:0:
320,289,173343,2,0,B|306:209|256:168|188:231|201:140|169:91,1,210,2|2,0:1|0:1,0:0:0:0:
258,336,173676,5,6,1:1:0:0:
256,88,173843,1,2,3:1:0:0:
258,348,174010,5,2,3:1:0:0:
256,78,174177,1,2,3:1:0:0:
399,362,174343,5,6,1:1:0:0:
420,330,174427,1,0,1:0:0:0:
420,272,174510,1,0,1:0:0:0:
461,225,174593,1,0,1:0:0:0:
479,153,174677,6,0,P|500:85|508:21,2,125.999996154785,8|6|0,0:0|1:1|1:0,0:0:0:0:
495,299,175177,1,8,0:0:0:0:
369,210,175343,5,2,1:1:0:0:
488,145,175510,1,2,0:0:0:0:
296,305,175676,6,0,P|260:191|234:66,1,231.000007049561,2|2,0:0|0:1,0:0:0:0:
237,244,176010,2,0,P|265:127|277:11,1,231.000007049561,2|2,0:1|0:1,0:0:0:0:
301,313,176343,2,0,P|242:345|178:298,1,125.999996154785,6|8,1:1|0:0,0:0:0:0:
188,10,176676,5,2,1:1:0:0:
330,167,176843,1,2,0:1:0:0:
182,167,177010,6,0,B|152:112|95:103|79:148|75:154|70:160|22:177|-5:137,1,210,6|0,1:1|1:0,0:0:0:0:
38,74,177343,1,8,0:0:0:0:
330,167,177510,2,0,B|360:112|417:103|433:148|437:154|442:160|490:177|517:137,1,210,6|0,1:1|1:0,0:0:0:0:
474,74,177843,1,8,0:0:0:0:
256,129,178010,6,0,B|237:110|256:71|274:110|256:129,1,62.9999980773926,2|2,1:1|0:1,0:0:0:0:
214,235,178176,2,0,B|132:275|254:397|376:275|295:235,1,262.5,2|2,0:0|0:1,0:0:0:0:
184,52,178510,6,0,P|255:7|327:53,1,175,6|2,1:1|0:1,0:0:0:0:
214,235,178843,2,0,P|254:258|297:236,1,97.9999970092774,8|2,0:0|0:1,0:0:0:0:
257,152,179010,5,6,1:1:0:0:
231,125,179093,1,2,0:1:0:0:
181,145,179176,1,2,3:1:0:0:
128,119,179260,1,2,0:1:0:0:
74,152,179343,6,0,P|113:244|122:343,1,188.999994232178,2|2,3:1|0:1,0:0:0:0:
55,375,179676,6,0,B|-9:339|-9:339|22:278,1,140,4|0,1:0|1:0,0:0:0:0:
206,318,180010,1,8,0:0:0:0:
0,173,180176,6,0,B|-19:102|-19:102|45:81,1,140,4|0,1:0|3:0,0:0:0:0:
119,322,180510,1,8,0:0:0:0:
121,128,180676,6,0,B|134:67,1,62.9999980773926,0|0,1:0|0:0,0:0:0:0:
217,38,180843,2,0,B|276:18,1,62.9999980773926,8|0,0:0|0:0,0:0:0:0:
98,240,181010,5,2,3:1:0:0:
274,200,181176,1,6,1:1:0:0:
244,281,181343,5,2,0:1:0:0:
210,126,181510,1,8,0:0:0:0:
401,33,181676,5,8,0:0:0:0:
446,206,181843,1,6,1:1:0:0:
300,121,182010,5,2,1:1:0:0:
382,149,182176,1,2,1:1:0:0:
242,360,182343,6,0,L|192:379,1,35,8|0,0:0|0:0,0:0:0:0:
239,352,182426,2,0,L|188:355,1,35,8|0,0:0|0:0,0:0:0:0:
264,311,182510,6,0,L|312:322,1,35,8|0,0:0|0:0,0:0:0:0:
269,302,182593,2,0,L|309:297,1,35,8|0,0:0|0:0,0:0:0:0:
239,270,182676,6,0,L|191:281,1,35,8|0,0:0|0:0,0:0:0:0:
237,261,182759,2,0,L|187:257,1,35,8|0,0:0|0:0,0:0:0:0:
279,230,182843,6,0,P|248:110|231:0,1,210,14|2,1:2|0:1,0:0:0:0:
188,189,183176,1,8,0:0:0:0:
154,94,183343,5,0,1:0:0:0:
58,130,183510,1,2,0:0:0:0:
95,223,183676,1,2,0:0:0:0:
335,136,183843,5,4,1:2:0:0:
431,172,184010,1,8,0:3:0:0:
394,265,184176,1,8,0:0:0:0:
188,189,184343,5,0,1:0:0:0:
328,129,184510,1,12,0:0:0:0:
236,31,184676,5,8,0:3:0:0:
295,228,184843,1,0,1:0:0:0:
208,333,185010,6,0,P|185:251|99:136,1,210,4|2,1:2|0:1,0:0:0:0:
236,31,185343,1,8,0:0:0:0:
132,309,185510,2,0,P|173:230|194:102,1,210,4|2,1:2|0:1,0:0:0:0:
295,228,185843,1,8,0:0:0:0:
75,236,186010,5,0,1:0:0:0:
35,144,186176,1,2,0:0:0:0:
297,124,186343,5,2,0:0:0:0:
131,53,186510,1,4,1:2:0:0:
402,102,186676,5,8,0:3:0:0:
236,31,186843,1,8,0:0:0:0:
197,344,187010,5,0,1:0:0:0:
134,162,187176,1,12,0:0:0:0:
280,371,187343,5,0,1:0:0:0:
217,189,187509,1,2,0:1:0:0:
119,314,187676,6,0,B|27:274|14:446|-104:456|-4:164|86:258,1,315.000012016297,4|2,1:2|0:1,0:0:0:0:
256,114,188010,1,8,0:0:0:0:
393,314,188176,2,0,B|485:274|498:446|616:456|516:164|426:258,1,315.000012016297,4|2,1:2|0:1,0:0:0:0:
256,114,188510,1,8,0:0:0:0:
258,285,188676,5,0,1:0:0:0:
295,189,188843,1,2,0:0:0:0:
113,140,189010,5,2,0:0:0:0:
173,229,189176,1,4,1:2:0:0:
329,72,189343,5,8,0:3:0:0:
203,24,189510,1,8,0:0:0:0:
56,286,189676,5,4,1:2:0:0:
184,235,189843,1,0,1:0:0:0:
306,189,190010,5,8,0:3:0:0:
218,146,190176,1,0,1:0:0:0:
328,351,190343,5,4,1:2:0:0:
408,318,190510,1,2,0:1:0:0:
354,252,190676,1,8,0:0:0:0:
273,282,190843,1,4,1:2:0:0:
113,263,191010,5,2,0:1:0:0:
59,197,191177,1,8,0:0:0:0:
139,164,191343,1,2,1:1:0:0:
194,233,191510,1,2,0:0:0:0:
109,269,191676,6,0,P|64:176|2:113,1,188.999994232178,2|2,0:0|1:1,0:0:0:0:
40,41,192010,2,0,P|140:66|228:59,1,188.999994232178,8|2,0:3|0:1,0:0:0:0:
371,69,192343,5,2,1:1:0:0:
372,76,192426,1,2,0:1:0:0:
373,84,192509,1,12,0:0:0:0:
374,92,192593,1,2,0:1:0:0:
376,100,192676,2,0,L|382:140,3,35,2|2|2|2,1:1|0:1|1:1|1:1,0:0:0:0:
210,218,193010,6,2,B|144:240|144:240|120:168,1,140,4|0,1:2|0:0,0:1:0:0:
302,166,193232,2,2,B|368:144|368:144|392:216,1,140,0|0,1:0|0:0,0:1:0:0:
222,135,193454,6,2,L|252:93,1,46.6666666666667,0|0,1:0|0:0,0:1:0:0:
290,249,193676,2,2,L|260:289,1,46.6666666666667,4|0,1:2|0:0,0:1:0:0:
123,151,194010,6,2,B|134:220|134:220|204:210,1,140,4|0,1:2|0:0,0:1:0:0:
387,231,194232,2,2,B|377:163|377:163|307:173,1,140,0|0,1:0|0:0,0:1:0:0:
263,95,194454,6,2,L|231:128,1,46.6666666666667,0|0,1:0|0:0,0:1:0:0:
247,287,194676,2,2,L|280:255,1,46.6666666666667,4|0,1:2|0:0,0:1:0:0:
201,201,195010,6,2,B|128:199|128:199|130:119,1,140,4|0,1:2|0:0,0:1:0:0:
310,182,195232,2,2,B|383:184|383:184|381:264,1,140,0|0,1:0|0:0,0:1:0:0:
242,123,195454,6,2,L|282:94,1,46.6666666666667,0|0,1:0|0:0,0:1:0:0:
269,260,195676,2,2,L|230:285,1,46.6666666666667,4|0,1:2|0:0,0:1:0:0:
138,111,196010,6,2,B|126:176|126:176|199:191,1,140,4|0,1:2|0:0,0:1:0:0:
372,271,196232,2,2,B|385:207|385:207|312:192,1,140,0|0,1:0|0:0,0:1:0:0:
296,101,196454,6,2,L|254:120,1,46.6666666666667,0|0,1:0|0:0,0:1:0:0:
213,280,196676,2,2,L|257:263,1,46.6666666666667,4|0,1:2|0:0,0:1:0:0:
135,264,196843,5,2,0:0:0:0:
135,264,196926,1,8,0:3:0:0:
135,264,197010,6,2,L|14:300,1,105.000004005432,4|0,1:2|0:0,0:1:0:0:
331,202,197232,2,2,L|175:192,1,140,0|0,1:0|0:0,0:1:0:0:
277,282,197454,6,2,L|202:313,1,70.0000026702882,0|0,1:0|0:0,0:1:0:0:
137,128,197676,2,2,L|62:120,1,70.0000026702882,4|0,1:2|0:0,0:1:0:0:
21,212,197843,5,2,0:0:0:0:
21,212,197926,1,8,0:3:0:0:
21,212,198010,6,2,L|159:155,1,140,4|0,1:2|0:0,0:1:0:0:
158,305,198232,2,2,L|259:150,1,175,0|0,1:0|0:0,0:1:0:0:
67,284,198454,6,2,L|97:379,1,93.3333333333333,0|0,1:0|0:0,0:1:0:0:
254,150,198676,2,2,L|199:72,1,93.3333333333333,4|0,1:2|0:0,0:1:0:0:
123,199,198843,5,2,0:0:0:0:
123,199,198926,1,8,0:3:0:0:
123,199,199010,6,2,L|305:256,1,175,4|0,1:2|0:0,0:1:0:0:
327,370,199232,2,2,L|509:246,1,210.000008010865,0|0,1:0|0:0,0:1:0:0:
166,300,199454,6,2,L|246:387,1,116.666666666667,0|0,1:0|0:0,0:1:0:0:
375,229,199676,2,2,L|360:104,1,116.666666666667,4|0,1:2|0:0,0:1:0:0:
283,254,199843,5,2,0:0:0:0:
283,254,199926,1,8,0:3:0:0:
283,254,200010,6,2,P|375:262|418:368,1,210.000008010865,4|0,1:2|0:0,0:1:0:0:
209,317,200232,2,2,L|153:103,1,210.000008010865,0|0,1:0|0:0,0:1:0:0:
343,351,200454,6,2,L|241:390,1,93.3333333333333,0|0,1:0|0:0,0:1:0:0:
259,168,200676,2,2,L|284:6,2,157.500006008148,12|8|8,1:1|0:1|0:1,0:1:0:0:
106,245,201343,6,0,L|90:196,3,45.4999979171754,6|0|2|0,1:3|1:0|1:1|1:0,0:0:0:0:
215,311,201676,2,0,L|231:262,3,45.4999979171754,2|0|2|0,1:3|1:0|1:1|1:0,0:0:0:0:
0,329,202010,5,8,1:3:0:0:
33,333,202093,1,0,1:0:0:0:
67,337,202176,1,2,1:1:0:0:
101,342,202260,1,0,1:0:0:0:
135,346,202343,1,2,1:3:0:0:
189,189,202510,5,2,1:1:0:0:
189,189,202593,1,0,1:0:0:0:
189,189,202676,1,2,1:3:0:0:
50,111,202843,5,2,1:1:0:0:
50,111,202926,1,0,1:0:0:0:
50,111,203010,2,0,L|60:61,3,45.4999979171754,2|0|0|0,1:3|1:0|1:0|1:0,0:0:0:0:
150,99,203343,5,8,1:3:0:0:
183,94,203426,1,0,1:0:0:0:
217,90,203509,1,0,1:0:0:0:
251,85,203593,1,0,1:0:0:0:
285,81,203676,5,8,1:1:0:0:
288,89,203760,1,2,1:1:0:0:
291,97,203843,1,2,3:1:0:0:
294,105,203926,1,2,1:1:0:0:
297,113,204010,5,6,1:1:0:0:
290,148,204093,1,2,1:1:0:0:
283,183,204176,1,2,1:1:0:0:
276,219,204260,1,2,1:1:0:0:
269,254,204343,5,2,1:3:0:0:
304,245,204426,1,2,1:1:0:0:
339,236,204510,1,2,1:1:0:0:
374,227,204593,1,2,1:1:0:0:
409,218,204676,6,0,L|413:170,3,45.4999979171754,8|2|2|2,1:3|1:1|1:1|1:1,0:0:0:0:
486,276,205010,2,0,L|490:324,3,45.4999979171754,2|2|2|2,1:3|1:1|1:1|1:1,0:0:0:0:
416,361,205343,5,2,1:3:0:0:
370,355,205426,1,2,1:1:0:0:
325,349,205509,1,2,1:1:0:0:
280,344,205593,1,2,1:1:0:0:
233,364,205676,5,2,1:3:0:0:
190,345,205759,1,2,1:1:0:0:
148,327,205842,1,2,1:1:0:0:
106,310,205926,1,2,1:1:0:0:
53,314,206010,6,0,L|22:265,3,45.4999979171754,8|0|2|0,1:3|1:0|1:1|1:0,0:0:0:0:
68,198,206343,2,0,L|56:143,3,45.4999979171754,8|0|2|0,1:1|1:0|3:1|1:0,0:0:0:0:
121,92,206676,2,0,L|129:24,3,62.9999980773926,6|0|0|0,1:1|1:0|1:0|1:0,0:0:0:0:
152,170,207010,6,0,B|201:162|201:162|221:172|221:172|276:163,1,125.999996154785,2|2,1:3|1:1,0:0:0:0:
342,117,207343,5,8,1:3:0:0:
241,35,207510,1,2,1:1:0:0:
281,173,207676,5,2,1:3:0:0:
328,32,207843,1,2,1:1:0:0:
444,166,208010,5,2,1:3:0:0:
444,166,208093,1,0,1:0:0:0:
444,166,208176,1,2,1:1:0:0:
444,166,208260,1,0,1:0:0:0:
444,166,208343,2,0,L|453:235,3,62.9999980773926,2|0|0|0,1:3|1:0|1:0|1:0,0:0:0:0:
389,283,208676,5,8,1:3:0:0:
354,278,208759,1,0,1:0:0:0:
319,273,208842,1,0,1:0:0:0:
284,269,208926,1,0,1:0:0:0:
248,265,209010,6,0,L|255:312,1,41.9999987182618,2|0,1:3|1:0,0:0:0:0:
170,277,209176,2,0,L|177:324,1,41.9999987182618,2|0,1:1|1:0,0:0:0:0:
126,384,209343,6,0,L|154:184,1,188.999994232178,6|0,1:1|1:0,0:0:0:0:
91,89,209676,5,2,1:3:0:0:
126,84,209759,1,0,1:0:0:0:
161,79,209842,1,0,1:0:0:0:
196,75,209926,1,0,1:0:0:0:
232,71,210010,6,0,L|225:118,1,41.9999987182618,8|0,1:3|1:0,0:0:0:0:
310,83,210176,2,0,L|303:130,1,41.9999987182618,2|8,1:1|1:1,0:0:0:0:
366,186,210343,6,0,L|336:-11,1,188.999994232178,2|0,1:3|1:0,0:0:0:0:
229,121,210676,6,0,L|244:201,3,77.0000023498536,2|0|0|0,1:3|1:0|1:0|1:0,0:0:0:0:
306,247,211010,6,0,L|363:266,1,52.5000020027161,2|0,1:3|1:0,0:0:0:0:
159,195,211176,2,0,L|102:176,1,52.5000020027161,2|0,1:1|1:0,0:0:0:0:
366,186,211343,6,0,L|422:172,1,52.5000020027161,8|0,1:3|1:0,0:0:0:0:
97,262,211510,2,0,L|41:276,1,52.5000020027161,10|0,1:1|1:0,0:0:0:0:
248,191,211676,6,0,L|256:133,1,52.5000020027161,2|0,3:3|1:0,0:0:0:0:
210,270,211843,2,0,L|227:378,1,105.000004005432,10|2,1:1|1:1,0:0:0:0:
