osu file format v14

[General]
AudioFilename: audio.mp3
AudioLeadIn: 0
PreviewTime: 169010
Countdown: 0
SampleSet: Soft
StackLeniency: 0.4
Mode: 0
LetterboxInBreaks: 0
EpilepsyWarning: 1
WidescreenStoryboard: 1

[Editor]
Bookmarks: 97010
DistanceSpacing: 6
BeatDivisor: 6
GridSize: 32
TimelineZoom: 3.199998

[Metadata]
Title:Unmei
TitleUnicode:運命
Artist:Harumaki Gohan x NILFRUITS feat. Hatsune Miku & v flower
ArtistUnicode:はるまきごはん×煮ル果実 feat. 初音ミク& v flower
Creator:Yugu
Version:AuroraE's Insane
Source:
Tags:japanese pop electronic j-pop jpop seros Tachibana Gekka AuroraE vocaloid ボカロ ボーカロイド キメラ chimera Niru Kajitsu v-flower
BeatmapID:3446689
BeatmapSetID:1662031

[Difficulty]
HPDrainRate:5
CircleSize:4.5
OverallDifficulty:8
ApproachRate:9
SliderMultiplier:1.8
SliderTickRate:1

[Events]
//Background and Video events
0,0,"8356(RGB)(noise_scale)(Level3)(x2.000000).jpg",0,0
Video,0,"video720p.mp4"
//Break Periods
2,161209,168410
//Storyboard Layer 0 (Background)
//Storyboard Layer 1 (Fail)
//Storyboard Layer 2 (Pass)
//Storyboard Layer 3 (Foreground)
//Storyboard Layer 4 (Overlay)
//Storyboard Sound Samples

[TimingPoints]
-323,333.333333333333,4,2,1,50,1,0
1010,-125,4,2,1,50,0,0
5510,-125,4,2,1,50,0,0
5551,-125,4,2,2,5,0,0
5593,-125,4,2,1,10,0,0
5635,-125,4,2,2,15,0,0
5676,-125,4,2,1,30,0,0
5718,-125,4,2,2,32,0,0
5760,-125,4,2,1,35,0,0
5801,-125,4,2,2,37,0,0
5843,-125,4,2,1,40,0,0
5885,-125,4,2,2,42,0,0
5926,-125,4,2,1,45,0,0
5968,-125,4,2,2,47,0,0
6010,-125,4,2,1,50,0,0
10843,-125,4,2,1,50,0,0
10885,-125,4,2,2,5,0,0
10926,-125,4,2,1,7,0,0
10968,-125,4,2,2,10,0,0
11010,-125,4,2,1,12,0,0
11051,-125,4,2,2,15,0,0
11093,-125,4,2,1,17,0,0
11135,-125,4,2,2,20,0,0
11176,-125,4,2,1,22,0,0
11218,-125,4,2,2,25,0,0
11260,-125,4,2,1,27,0,0
11301,-125,4,2,2,30,0,0
11343,-125,4,2,1,32,0,0
11385,-125,4,2,2,35,0,0
11426,-125,4,2,1,37,0,0
11468,-125,4,2,2,40,0,0
11510,-125,4,2,1,42,0,0
11551,-125,4,2,2,45,0,0
11593,-125,4,2,1,47,0,0
11635,-125,4,2,2,50,0,0
11676,-111.111111111111,4,2,1,60,0,0
13010,-142.857142857143,4,2,1,60,0,0
14676,-111.111111111111,4,2,1,60,0,0
22343,-100,4,2,1,65,0,0
23510,-125,4,2,1,65,0,0
27676,-100,4,2,1,65,0,0
28843,-125,4,2,1,65,0,0
31510,-100,4,2,1,65,0,0
33010,-100,4,2,2,70,0,0
33343,-100,4,2,2,70,0,0
53843,-100,4,2,3,70,0,0
54010,-100,4,2,4,70,0,0
54176,-100,4,2,5,70,0,0
54343,-100,4,2,21,65,0,0
61843,-100,4,2,21,65,0,0
61885,-100,4,2,21,37,0,0
61926,-100,4,2,21,40,0,0
61968,-100,4,2,21,42,0,0
62010,-100,4,2,21,45,0,0
62051,-100,4,2,21,47,0,0
62093,-100,4,2,21,50,0,0
62135,-100,4,2,21,52,0,0
62176,-100,4,2,21,55,0,0
62218,-100,4,2,21,57,0,0
62260,-100,4,2,21,60,0,0
62343,-100,4,2,21,65,0,0
65010,-133.333333333333,4,2,22,45,0,0
67676,-133.333333333333,4,2,22,50,0,0
70343,-133.333333333333,4,2,22,55,0,0
73010,-133.333333333333,4,2,3,40,0,0
74343,-133.333333333333,4,2,3,50,0,0
75676,-76.9230769230769,4,2,31,90,0,1
76676,-80,4,2,31,90,0,1
78010,-125,4,2,31,90,0,1
78343,-76.9230769230769,4,2,31,90,0,1
79343,-80,4,2,31,90,0,1
81010,-76.9230769230769,4,2,31,90,0,1
82010,-80,4,2,31,90,0,1
84676,-66.6666666666667,4,2,31,90,0,1
85676,-76.9230769230769,4,2,31,90,0,1
86010,-66.6666666666667,4,2,31,90,0,1
86343,-74.0740740740741,4,2,31,90,0,1
89010,-71.4285714285714,4,2,31,90,0,1
91676,-68.9655172413793,4,2,31,90,0,1
96843,-100,4,2,31,90,0,1
97010,-125,4,2,1,65,0,0
106843,-125,4,2,1,65,0,0
106885,-125,4,2,2,17,0,0
106926,-125,4,2,1,20,0,0
106968,-125,4,2,2,22,0,0
107010,-125,4,2,1,25,0,0
107051,-125,4,2,2,27,0,0
107093,-125,4,2,1,30,0,0
107135,-125,4,2,2,32,0,0
107176,-125,4,2,1,35,0,0
107218,-125,4,2,2,37,0,0
107260,-125,4,2,1,40,0,0
107301,-125,4,2,2,42,0,0
107343,-125,4,2,1,45,0,0
107385,-125,4,2,2,47,0,0
107426,-125,4,2,1,50,0,0
107468,-125,4,2,2,52,0,0
107510,-125,4,2,1,55,0,0
107551,-125,4,2,2,57,0,0
107593,-125,4,2,1,60,0,0
107635,-125,4,2,2,62,0,0
107676,-100,4,2,1,65,0,0
109010,-142.857142857143,4,2,1,65,0,0
110010,-100,4,2,1,65,0,0
118343,-100,4,2,1,65,0,0
119510,-125,4,2,1,65,0,0
123676,-100,4,2,1,65,0,0
124843,-90.9090909090909,4,2,1,65,0,0
126343,-125,4,2,1,65,0,0
129010,-100,4,2,2,70,0,0
149843,-100,4,2,3,70,0,0
150176,-100,4,2,5,70,0,0
150343,-125,4,2,21,65,0,0
161010,-125,4,2,22,45,0,0
171676,-76.9230769230769,4,2,31,90,0,1
172676,-80,4,2,31,90,0,1
174010,-125,4,2,31,90,0,1
174343,-76.9230769230769,4,2,31,90,0,1
175343,-80,4,2,31,90,0,1
177010,-76.9230769230769,4,2,31,90,0,1
178010,-80,4,2,31,90,0,1
180676,-66.6666666666667,4,2,31,90,0,1
181676,-76.9230769230769,4,2,31,90,0,1
182010,-66.6666666666667,4,2,31,90,0,1
182343,-71.4285714285714,4,2,98,90,0,1
182426,-71.4285714285714,4,2,99,90,0,1
182510,-71.4285714285714,4,2,98,90,0,1
182593,-71.4285714285714,4,2,99,90,0,1
182676,-71.4285714285714,4,2,98,90,0,1
182759,-71.4285714285714,4,2,99,90,0,1
182926,-71.4285714285714,4,2,31,90,0,1
185010,-71.4285714285714,4,2,31,90,0,1
191010,-76.9230769230769,4,2,31,90,0,1
191676,-83.3333333333333,4,2,31,90,0,1
193010,-71.4285714285714,4,2,31,90,0,0
197010,-68.9655172413793,4,2,31,90,0,0
200010,-66.6666666666667,4,2,31,90,0,0
200676,-80,4,2,31,90,0,0
201343,-80,4,2,32,95,0,0
212010,-57.1428571428571,4,2,32,95,0,0
212105,-57.1428571428571,4,2,32,95,0,0
212114,-57.1428571428571,4,2,1,5,0,0
212176,-57.1428571428571,4,2,32,95,0,0
212197,-57.1428571428571,4,2,1,5,0,0
212260,-57.1428571428571,4,2,32,95,0,0
212269,-57.1428571428571,4,2,1,5,0,0
212288,-57.1428571428571,4,2,32,95,0,0
212301,-57.1428571428571,4,2,1,5,0,0
212343,-57.1428571428571,4,2,32,95,0,0
212364,-57.1428571428571,4,2,1,5,0,0
212491,-57.1428571428571,4,2,32,95,0,0
212510,-57.1428571428571,4,2,1,5,0,0

[Colours]
Combo1 : 235,41,47
Combo2 : 223,223,223
Combo3 : 33,28,236

[HitObjects]
30,84,1010,6,0,L|185:114,1,144,0|0,1:0|3:0,0:0:0:0:
255,128,1510,1,0,1:0:0:0:
288,48,1676,2,0,L|348:29,2,36,0|0|0,1:0|1:0|3:0,0:0:0:0:
171,111,2010,5,0,3:0:0:0:
171,111,2093,1,0,3:0:0:0:
171,111,2176,1,0,3:0:0:0:
171,111,2260,1,0,3:0:0:0:
171,111,2343,2,0,B|155:150|117:166|117:166|156:160|204:173,1,144,2|2,1:3|0:3,0:0:0:0:
254,128,2843,1,2,1:3:0:0:
479,63,3343,2,0,L|443:54,2,36,0|0|0,1:0|1:0|3:0,0:0:0:0:
512,142,3676,6,0,L|499:230,1,72,0|0,1:0|1:0,0:0:0:0:
418,241,4010,1,0,3:0:0:0:
340,272,4176,1,0,1:0:0:0:
340,272,4260,2,0,L|350:343,1,72,0|2,1:0|0:3,0:0:0:0:
385,368,4510,2,0,L|376:309,1,36,2|2,1:3|1:3,0:0:0:0:
418,241,4676,1,4,0:3:0:0:
418,241,4760,2,0,L|338:271,1,72,4|4,0:3|0:3,0:0:0:0:
340,272,5010,6,0,L|350:343,1,72,2|0,1:1|1:0,0:0:0:0:
418,241,5343,1,0,3:0:0:0:
285,203,5510,2,0,P|259:293|343:249,1,216,2|2,1:1|2:1,0:0:0:0:
146,191,6343,5,2,1:1:0:0:
236,318,6676,1,8,0:0:0:0:
155,280,6843,1,0,1:0:0:0:
84,338,7010,2,0,L|41:361,2,36,0|0|0,1:0|1:0|3:0,0:0:0:0:
1,259,7343,5,0,3:0:0:0:
1,259,7426,1,0,3:0:0:0:
1,259,7510,1,0,3:0:0:0:
1,259,7593,1,0,3:0:0:0:
1,259,7676,6,0,P|79:286|81:346,1,144,2|2,1:3|0:3,0:0:0:0:
155,280,8176,1,2,1:3:0:0:
35,136,8676,2,0,L|-5:144,2,36,0|0|2,1:0|1:0|0:0,0:0:0:0:
119,152,9010,6,0,L|132:58,1,72,0|0,1:0|1:0,0:0:0:0:
210,52,9343,1,2,3:2:0:0:
297,69,9510,1,0,1:0:0:0:
297,69,9593,2,0,L|308:170,1,72,0|2,1:0|0:3,0:0:0:0:
274,172,9843,2,0,L|269:128,1,36,2|2,1:3|1:3,0:0:0:0:
210,52,10010,1,4,0:3:0:0:
210,52,10093,2,0,L|290:66,1,72,4|4,0:3|0:3,0:0:0:0:
297,69,10343,6,0,L|308:170,1,72,0|0,1:0|1:0,0:0:0:0:
210,52,10676,1,2,3:2:0:0:
360,16,10843,2,0,P|412:141|297:67,1,360,0|0,1:0|1:0,0:0:0:0:
83,103,12010,6,0,B|145:131,1,40.4999987640381,2|0,0:0|0:0,0:0:0:0:
183,169,12176,1,2,1:3:0:0:
183,169,12260,2,0,B|182:243|152:225|163:302,1,121.499996292114,2|0,1:3|1:0,0:0:0:0:
69,372,12676,2,0,P|81:322|77:276,1,80.9999975280763,8|0,0:0|0:0,0:0:0:0:
11,181,13010,6,0,L|-2:108,2,62.9999980773926,0|10|2,1:0|0:3|0:3,0:0:0:0:
83,103,13510,2,0,L|94:165,2,62.9999980773926,0|8|8,1:0|0:3|0:3,0:0:0:0:
182,28,14010,1,0,1:0:0:0:
265,44,14176,1,8,0:0:0:0:
182,28,14343,1,0,1:0:0:0:
406,127,14676,6,0,B|397:192,1,40.4999987640381,2|0,0:0|0:0,0:0:0:0:
334,214,14843,1,0,1:0:0:0:
334,214,14926,2,0,P|352:272|364:354,1,121.499996292114,0|0,1:0|1:0,0:0:0:0:
445,383,15343,2,0,P|441:330|434:284,1,80.9999975280763,8|0,0:0|1:0,0:0:0:0:
437,302,15593,1,0,0:0:0:0:
437,302,15676,6,0,P|392:316|352:337,1,80.9999975280763,2|0,0:1|0:0,0:0:0:0:
287,364,16010,1,2,0:0:0:0:
231,305,16176,2,0,P|299:263|373:230,1,161.999995056153,2|0,1:1|0:0,0:0:0:0:
437,302,16676,2,0,P|392:316|352:337,1,80.9999975280763,2|2,0:0|0:3,0:0:0:0:
287,364,17010,1,2,1:1:0:0:
218,186,17343,6,0,B|211:129,1,40.4999987640381,2|0,0:0|0:0,0:0:0:0:
202,65,17510,1,2,1:3:0:0:
202,65,17593,2,0,P|134:56|48:48,1,121.499996292114,0|0,1:0|1:0,0:0:0:0:
1,136,18010,2,0,P|50:139|104:147,1,80.9999975280763,8|0,0:0|0:0,0:0:0:0:
213,145,18343,6,0,P|171:219|159:300,1,161.999995056153,0|2,1:0|0:3,0:0:0:0:
232,322,18843,2,0,P|273:247|285:166,1,161.999995056153,0|8,1:0|0:3,0:0:0:0:
252,58,19343,1,0,1:0:0:0:
252,58,19426,1,0,1:0:0:0:
252,58,19510,1,8,0:0:0:0:
331,33,19676,5,0,1:0:0:0:
331,33,19843,1,0,1:0:0:0:
404,80,20010,2,0,B|416:122|416:122|399:172,1,80.9999975280763,2|2,0:0|1:3,0:0:0:0:
330,255,20260,2,0,B|315:219|315:219|332:155,1,80.9999975280763,0|0,1:0|0:0,0:0:0:0:
403,157,20510,2,0,P|432:162|458:174,1,40.4999987640381,0|0,1:0|1:0,0:0:0:0:
485,294,20676,5,2,0:0:0:0:
485,294,20760,1,2,0:0:0:0:
485,294,20843,1,0,1:0:0:0:
485,294,20926,1,0,1:0:0:0:
485,293,21010,2,0,P|411:261|331:256,1,161.999995056153,0|2,1:0|1:2,0:0:0:0:
209,299,21510,2,0,P|248:329|315:320,1,80.9999975280763,0|2,1:0|1:3,0:0:0:0:
364,330,21843,1,2,1:3:0:0:
325,179,22010,2,0,P|318:228|359:281,1,80.9999975280763,0|2,1:0|1:3,0:0:0:0:
416,144,22343,5,4,1:1:0:0:
356,76,22510,1,10,0:3:0:0:
334,71,22593,1,10,0:3:0:0:
323,90,22676,1,2,0:0:0:0:
325,179,22843,1,2,1:3:0:0:
325,179,23010,2,0,B|219:171|258:263|131:234,1,180,0|8,0:0|0:0,0:0:0:0:
163,239,23510,5,4,2:1:0:0:
334,269,23843,1,10,0:3:0:0:
238,313,24176,2,0,L|226:393,2,72,2|8|8,1:3|0:3|0:3,0:0:0:0:
163,240,24676,1,0,1:0:0:0:
334,269,24843,1,8,0:0:0:0:
334,269,25176,5,4,2:1:0:0:
238,313,25510,2,0,L|226:393,2,72,0|2|0,1:0|0:3|1:0,0:0:0:0:
164,240,26010,1,8,0:0:0:0:
334,269,26176,6,0,P|400:285|421:345,1,108,4|0,1:1|0:0,0:0:0:0:
418,316,26510,2,0,P|433:275|432:241,1,72,0|2,0:0|0:0,0:0:0:0:
424,136,26843,2,0,P|457:95|510:89,1,108,4|0,1:1|0:0,0:0:0:0:
509,88,27176,2,0,P|494:129|495:163,2,72,0|2|2,0:0|0:0|0:3,0:0:0:0:
383,48,27676,5,4,1:1:0:0:
294,28,27843,1,8,0:3:0:0:
271,28,27926,1,8,0:3:0:0:
261,48,28010,1,2,0:0:0:0:
278,138,28176,1,0,1:0:0:0:
278,138,28343,2,0,B|226:157|188:133|188:133|167:181|90:196,1,180,0|8,0:0|0:0,0:0:0:0:
123,187,28843,5,4,0:1:0:0:
186,346,29176,1,10,0:3:0:0:
217,242,29510,2,0,L|305:264,2,72,2|8|8,1:3|0:3|0:3,0:0:0:0:
84,354,30010,1,0,1:0:0:0:
123,187,30176,1,8,0:0:0:0:
186,346,30510,5,4,1:1:0:0:
217,242,30843,2,0,L|305:264,2,72,2|0|0,1:3|1:0|1:0,0:0:0:0:
84,354,31343,5,2,0:0:0:0:
84,354,31426,1,2,0:0:0:0:
84,354,31510,2,0,B|91:284|38:299|47:194,1,135,4|0,0:1|0:0,0:0:0:0:
46,227,31843,2,0,P|93:205|120:163,1,90,0|2,1:0|0:0,0:0:0:0:
206,0,32176,2,0,P|146:27|115:85,1,135,4|0,1:1|0:0,0:0:0:0:
115,86,32510,2,0,P|165:102|197:134,2,90,0|0|0,1:0|1:0|1:0,0:0:0:0:
13,75,33010,2,0,L|24:188,1,90,2|2,1:3|0:3,0:0:0:0:
103,290,33343,5,2,0:0:0:0:
25,314,33510,1,10,1:3:0:0:
77,375,33676,1,2,1:3:0:0:
156,356,33843,2,0,P|247:357|343:389,1,180,2|2,0:3|0:3,0:0:0:0:
451,316,34343,5,2,1:3:0:0:
451,316,34510,2,0,P|412:347|413:388,1,90,2|2,0:3|0:0,0:0:0:0:
335,384,34843,1,10,1:3:0:0:
335,384,35010,2,0,P|313:315|250:225,1,180,2|2,1:3|0:0,0:0:0:0:
132,86,35676,6,0,P|202:70|312:80,2,180,2|8|2,1:3|0:0|1:3,0:0:0:0:
71,141,36510,1,2,1:3:0:0:
97,217,36676,1,8,0:0:0:0:
158,164,36843,1,2,0:3:0:0:
238,58,37010,5,2,1:1:0:0:
309,79,37176,2,0,L|296:179,1,90,2|2,0:3|0:0,0:0:0:0:
290,246,37510,1,2,1:1:0:0:
290,246,37593,1,10,1:3:0:0:
290,246,37676,1,2,1:3:0:0:
371,220,37843,1,2,1:3:0:0:
309,79,38010,2,0,L|296:179,1,90,8|8,0:0|0:3,0:0:0:0:
290,246,38343,5,2,1:1:0:0:
371,220,38510,2,0,L|481:244,2,90,2|2|10,0:3|0:0|1:3,0:0:0:0:
337,95,39010,2,0,P|303:126|299:176,1,90,2|2,1:3|1:3,0:0:0:0:
371,220,39343,1,8,0:0:0:0:
371,220,39510,2,0,L|357:324,1,90,2|2,0:3|1:3,0:0:0:0:
188,278,39843,6,0,L|199:367,2,90,2|2|10,0:3|0:0|1:3,0:0:0:0:
225,206,40343,1,2,1:3:0:0:
168,148,40510,1,2,1:3:0:0:
97,188,40676,1,8,0:0:0:0:
111,263,40843,2,0,P|83:295|13:316,1,90,2|2,0:3|1:3,0:0:0:0:
97,188,41176,6,0,B|66:147|15:134,2,90,2|2|10,0:3|0:0|1:3,0:0:0:0:
97,188,41676,1,2,1:3:0:0:
74,79,41843,1,2,1:3:0:0:
168,148,42010,1,8,0:0:0:0:
152,40,42176,1,2,1:3:0:0:
250,111,42343,6,0,L|352:120,2,90,2|2|2,1:3|0:1|0:0,0:0:0:0:
250,111,42843,1,2,1:3:0:0:
268,263,43010,1,2,1:1:0:0:
168,148,43176,1,2,1:1:0:0:
317,181,43343,1,8,0:0:0:0:
176,241,43510,1,2,0:1:0:0:
250,111,43676,5,2,1:3:0:0:
412,83,44010,1,2,0:0:0:0:
412,83,44176,1,10,1:3:0:0:
253,17,44343,2,0,B|289:43|338:42|338:42|315:90|353:149,1,180,2|8,1:3|0:0,0:0:0:0:
344,212,44843,2,0,P|310:258|302:319,1,90,2|2,0:3|1:3,0:0:0:0:
194,274,45176,5,2,0:3:0:0:
201,193,45343,1,2,0:0:0:0:
276,163,45510,1,10,1:3:0:0:
339,42,45676,2,0,P|330:79|352:143,1,90,2|2,1:3|1:3,0:0:0:0:
344,212,46010,2,0,P|429:214|481:252,1,135,8|2,0:0|0:3,0:0:0:0:
469,239,46343,6,0,P|434:321|523:325,2,180,2|2|2,1:3|0:0|1:3,0:0:0:0:
445,161,47176,1,2,1:3:0:0:
474,87,47343,1,8,0:0:0:0:
307,74,47510,6,0,P|349:72|394:108,1,90,2|2,0:3|1:1,0:0:0:0:
445,161,47843,1,2,0:3:0:0:
445,161,48010,2,0,P|402:199|402:264,1,90,2|2,0:0|1:1,0:0:0:0:
245,369,48343,2,0,P|227:225|346:153,1,270,2|8,1:3|0:3,0:0:0:0:
271,38,49010,5,2,1:1:0:0:
196,69,49176,2,0,P|192:112|151:155,2,90,2|2|10,0:3|0:0|1:3,0:0:0:0:
125,18,49676,1,2,1:3:0:0:
111,29,49760,1,0,0:0:0:0:
122,42,49843,1,2,1:3:0:0:
196,69,50010,1,8,0:0:0:0:
271,38,50176,2,0,P|332:60|347:109,1,90,2|2,0:3|1:3,0:0:0:0:
401,207,50510,6,0,P|345:205|291:256,2,90,2|2|10,0:3|0:0|1:3,0:0:0:0:
379,285,51010,1,2,1:3:0:0:
445,331,51176,1,2,1:3:0:0:
511,284,51343,1,8,0:0:0:0:
486,207,51510,2,0,P|470:153|405:117,1,90,2|2,0:3|1:3,0:0:0:0:
379,285,51843,6,0,P|337:283|261:299,2,90,2|2|10,0:3|0:0|1:3,0:0:0:0:
379,285,52343,1,2,1:3:0:0:
312,159,52510,1,2,0:3:0:0:
401,207,52676,1,8,0:0:0:0:
245,206,52843,1,2,0:3:0:0:
393,112,53010,6,0,P|383:62|361:15,1,90,2|2,1:1|0:1,0:0:0:0:
312,159,53343,2,0,P|321:208|343:256,1,90,6|2,0:2|1:1,0:0:0:0:
393,112,53676,1,10,1:1:0:0:
425,262,53843,1,10,1:1:0:0:
312,159,54010,1,10,1:1:0:0:
463,175,54176,1,10,1:1:0:0:
331,253,54343,5,12,1:3:0:0:
104,49,54843,2,0,P|117:104|122:162,1,90,2|2,0:3|0:3,0:0:0:0:
35,209,55176,1,0,1:0:0:0:
195,236,55343,1,2,1:3:0:0:
195,236,55426,1,2,1:3:0:0:
195,236,55510,1,0,1:0:0:0:
195,236,55593,1,0,1:0:0:0:
195,236,55676,5,8,1:1:0:0:
107,271,55926,5,8,0:1:0:0:
35,209,56176,5,8,0:1:0:0:
104,49,56343,6,0,P|113:81|118:123,1,45,8|0,3:2|0:0,0:0:0:0:
123,174,56510,1,0,1:0:0:0:
208,64,56676,2,0,B|217:108|217:108|201:152,1,90,0|0,3:0|1:0,0:0:0:0:
201,150,56926,1,0,3:0:0:0:
201,150,57010,5,4,1:3:0:0:
495,55,57510,2,0,P|437:59|380:82,1,90,2|2,1:3|1:3,0:0:0:0:
308,37,57843,1,0,0:0:0:0:
344,197,58010,1,2,0:3:0:0:
344,197,58093,1,2,1:3:0:0:
344,197,58176,1,2,1:3:0:0:
344,197,58260,1,2,1:3:0:0:
344,197,58343,5,8,3:1:0:0:
279,127,58593,5,8,0:1:0:0:
308,37,58843,5,8,0:1:0:0:
344,197,59010,6,0,B|357:257,1,45,8|0,0:0|0:0,0:0:0:0:
373,107,59176,1,0,1:0:0:0:
438,212,59343,2,0,B|453:319|388:285|406:387,1,180,0|12,1:0|1:3,0:0:0:0:
173,321,60176,6,0,P|193:266|229:232,1,90,2|2,1:3|1:3,0:0:0:0:
295,176,60510,1,0,1:0:0:0:
137,144,60677,1,2,0:3:0:0:
137,144,60760,1,2,1:3:0:0:
137,144,60843,1,0,1:0:0:0:
137,144,60926,1,0,1:0:0:0:
137,144,61010,6,0,P|135:166|139:188,1,45,8|0,3:1|0:0,0:0:0:0:
226,112,61260,5,8,0:1:0:0:
295,176,61510,5,8,0:1:0:0:
137,144,61676,6,0,P|135:166|139:188,1,45,8|0,1:2|1:0,0:0:0:0:
87,287,61843,2,0,L|78:307,10,22.5,0|0|0|0|0|0|0|0|0|0|0,1:0|1:0|1:0|1:0|1:0|1:0|1:0|1:0|1:0|1:0|1:0,0:0:0:0:
87,287,62343,6,0,P|145:317|168:354,1,90,0|2,1:0|0:0,0:0:0:0:
280,227,62676,2,0,P|221:238|181:268,1,90,2|2,1:3|0:0,0:0:0:0:
83,374,63010,1,2,1:3:0:0:
90,204,63176,1,2,1:3:0:0:
5,312,63343,5,0,1:0:0:0:
5,312,63426,1,2,0:0:0:0:
5,312,63510,1,2,0:0:0:0:
5,312,63593,1,2,0:0:0:0:
5,312,63676,6,0,L|67:314,1,45,2|0,1:1|0:0,0:0:0:0:
53,230,63843,6,0,L|105:192,1,45,2|0,1:1|1:0,0:0:0:0:
135,284,64010,6,0,L|197:286,1,45,2|0,1:1|0:0,0:0:0:0:
183,202,64177,6,0,L|235:164,1,45,2|0,1:1|0:0,0:0:0:0:
307,222,64343,5,6,1:1:0:0:
320,219,64426,1,2,1:1:0:0:
333,216,64510,1,2,0:1:0:0:
346,214,64593,1,2,1:1:0:0:
359,211,64676,1,6,1:1:0:0:
373,208,64760,1,2,1:1:0:0:
386,206,64843,1,6,1:1:0:0:
399,203,64926,1,6,1:1:0:0:
412,200,65010,6,0,P|428:263|385:312,1,135.000005149842,2|0,0:0|0:0,0:0:0:0:
291,349,65510,1,2,0:0:0:0:
0,240,66010,2,0,P|74:242|100:307,2,135.000005149842,0|0|0,0:0|0:0|0:0,0:0:0:0:
60,150,67010,1,0,0:0:0:0:
158,168,67343,1,0,0:0:0:0:
419,27,67676,6,0,P|345:29|319:94,1,135.000005149842,2|0,0:0|0:0,0:0:0:0:
221,95,68176,1,2,0:0:0:0:
320,247,68676,2,0,P|331:314|271:360,2,135.000005149842,0|0|0,0:0|0:0|0:0,0:0:0:0:
339,149,69676,2,0,P|391:105|461:134,1,135.000005149842,0|0,0:0|0:0,0:0:0:0:
163,100,70343,6,0,P|180:162|241:184,1,135.000005149842,2|0,0:0|0:0,0:0:0:0:
339,149,70843,1,2,0:0:0:0:
339,149,71343,1,0,0:0:0:0:
419,188,71510,2,0,B|320:283|280:158|196:249|196:249|216:299|173:337,1,337.500012874604,0|0,0:0|0:0,0:0:0:0:
119,107,72676,6,0,P|73:54|7:51,2,135.000005149842,0|2|0,0:0|0:0|0:0,0:0:0:0:
144,231,73676,2,0,P|110:283|133:357,1,135.000005149842,0|0,0:0|0:0,0:0:0:0:
247,152,74343,1,0,1:0:0:0:
302,294,74676,1,0,1:0:0:0:
302,294,74760,1,0,1:0:0:0:
302,294,74843,1,0,1:0:0:0:
302,294,74926,1,0,1:0:0:0:
302,294,75010,2,0,L|298:317,8,16.8750006437302,0|0|0|0|0|0|0|0|0,1:0|1:0|1:0|1:0|1:0|1:0|1:0|1:0|1:0,0:0:0:0:
304,151,75676,6,2,P|253:176|247:232,1,116.999994644165,4|2,1:2|0:1,0:1:0:0:
302,294,75926,1,2,0:1:0:0:
302,294,76010,2,0,P|312:320|337:334,1,58.4999973220826,8|0,0:0|0:0,0:0:0:0:
411,370,76176,2,2,P|490:347|497:265,1,175.499991966248,4|2,1:2|0:1,0:1:0:0:
498,181,76510,2,0,P|486:154|464:135,1,58.4999973220826,8|0,0:0|0:0,0:0:0:0:
383,53,76676,5,0,1:0:0:0:
361,54,76760,1,0,1:0:0:0:
339,55,76843,1,2,0:0:0:0:
317,56,76926,1,2,0:0:0:0:
295,58,77010,2,0,P|245:48|191:14,1,112.5,2|4,0:0|1:2,0:0:0:0:
52,53,77343,2,0,P|45:116|28:164,1,112.5,8|8,0:3|0:0,0:0:0:0:
57,300,77676,5,4,1:2:0:0:
57,300,77760,1,0,0:0:0:0:
57,300,77843,2,0,L|117:329,1,56.25,0|0,3:0|0:0,0:0:0:0:
181,309,78010,2,0,L|241:338,3,36,0|0|0|0,3:0|0:0|3:0|0:0,0:0:0:0:
145,245,78343,6,2,P|150:188|194:151,1,116.999994644165,4|2,1:2|0:1,0:1:0:0:
250,91,78593,1,2,0:1:0:0:
250,91,78676,2,0,P|278:93|304:106,1,58.4999973220826,8|0,0:0|0:0,0:0:0:0:
384,89,78843,2,2,P|455:135|466:219,1,175.499991966248,4|2,1:2|0:1,0:1:0:0:
491,298,79176,2,0,P|474:322|449:336,1,58.4999973220826,8|0,0:0|0:0,0:0:0:0:
345,381,79343,5,0,1:0:0:0:
342,358,79426,1,0,1:0:0:0:
339,335,79510,1,2,0:0:0:0:
336,312,79593,1,2,0:0:0:0:
332,288,79676,2,0,P|340:233|372:188,1,112.5,2|4,0:0|1:2,0:0:0:0:
456,39,80010,5,8,0:3:0:0:
372,188,80176,1,8,0:0:0:0:
477,124,80343,1,4,1:2:0:0:
297,131,80510,1,2,0:1:0:0:
345,30,80676,2,0,P|381:105|363:208,1,168.75,0|2,1:0|0:1,0:0:0:0:
289,221,81010,6,2,P|224:217|175:157,1,116.999994644165,4|2,1:2|0:1,0:1:0:0:
127,92,81260,1,2,0:1:0:0:
127,92,81343,2,0,P|124:130|93:168,1,58.4999973220826,8|0,0:0|0:0,0:0:0:0:
61,217,81510,2,2,B|160:222|127:299|250:297,1,175.499991966248,4|2,1:2|0:1,0:1:0:0:
195,375,81843,2,0,P|166:364|137:360,1,58.4999973220826,8|0,0:0|0:0,0:0:0:0:
56,373,82010,5,0,1:0:0:0:
45,354,82093,1,0,1:0:0:0:
45,332,82176,1,2,0:0:0:0:
54,312,82260,1,2,0:0:0:0:
73,299,82343,1,2,0:0:0:0:
35,112,82510,6,0,P|76:147|86:202,1,112.5,4|8,1:2|0:3,0:0:0:0:
73,299,82843,1,8,0:0:0:0:
216,173,83010,2,0,P|205:227|163:262,1,112.5,4|0,1:2|3:0,0:0:0:0:
45,354,83343,2,0,P|109:361|162:375,1,112.5,0|0,3:0|3:0,0:0:0:0:
307,146,83676,6,0,P|272:222|258:305,1,168.75,4|0,1:2|0:0,0:0:0:0:
256,384,84010,1,8,0:0:0:0:
167,225,84176,2,0,B|136:216|159:143|294:171|254:323,1,225,4|0,1:2|1:0,0:0:0:0:
423,200,84676,2,0,P|317:241|232:360,1,202.500007724762,0|0,1:0|1:0,0:0:0:0:
256,384,85010,5,10,0:0:0:0:
121,179,85176,2,0,P|238:246|257:334,1,202.500007724762,4|0,1:2|0:0,0:0:0:0:
256,384,85510,1,8,0:0:0:0:
257,304,85676,2,0,P|243:234|257:190,1,116.999994644165,4|8,1:2|0:0,0:0:0:0:
256,191,86010,2,0,P|284:287|256:383,1,202.500007724762,0|0,1:0|1:0,0:0:0:0:
126,301,86343,6,2,P|237:303|257:193,1,243.000000926971,4|8,1:2|0:0,0:1:0:0:
389,86,86843,6,2,P|277:83|257:193,1,243.000000926971,4|8,1:2|0:0,0:1:0:0:
405,218,87343,5,0,1:0:0:0:
396,196,87426,1,0,1:0:0:0:
377,181,87510,1,2,0:0:0:0:
355,173,87593,1,2,0:0:0:0:
331,175,87676,1,2,0:0:0:0:
165,132,87843,6,0,P|223:142|255:191,1,121.500000463486,4|8,1:2|0:3,0:0:0:0:
181,209,88176,1,8,0:0:0:0:
331,175,88343,1,0,1:0:0:0:
181,209,88510,1,12,0:0:0:0:
347,251,88676,2,0,P|288:241|256:192,1,121.500000463486,8|0,0:3|1:0,0:0:0:0:
182,351,89010,6,2,B|210:292|150:248|150:248|185:162|287:200,1,251.999992309571,4|8,1:2|0:0,0:1:0:0:
330,31,89510,6,2,B|302:90|362:134|362:134|327:220|225:182,1,251.999992309571,4|8,1:2|0:0,0:1:0:0:
88,159,90010,6,0,P|83:129|94:100,1,62.9999980773926,0|0,1:0|0:0,0:0:0:0:
160,57,90176,1,2,0:0:0:0:
160,57,90260,1,0,0:0:0:0:
160,57,90343,2,0,B|192:44|227:63|227:63|229:110|286:130,1,125.999996154785,2|4,0:0|1:2,0:0:0:0:
423,224,90676,6,0,P|428:254|418:284,1,62.9999980773926,8|8,0:3|0:3,0:0:0:0:
352,327,90843,1,8,0:0:0:0:
352,327,90926,1,0,0:0:0:0:
352,327,91009,2,0,B|320:340|285:321|285:321|283:274|226:254,1,125.999996154785,0|12,1:0|0:0,0:0:0:0:
256,192,91343,1,0,1:0:0:0:
98,329,91510,5,2,0:1:0:0:
98,329,91593,1,2,0:1:0:0:
98,329,91676,6,2,B|141:267|128:208|128:208|196:229|256:192,1,261.000007965088,4|8,1:2|0:0,0:1:0:0:
413,54,92176,6,2,B|370:116|383:175|383:175|315:154|256:192,1,261.000007965088,4|8,1:2|0:0,0:1:0:0:
98,178,92676,6,0,P|118:153|148:140,1,65.250001991272,0|0,1:0|0:0,0:0:0:0:
169,64,92843,1,2,0:0:0:0:
169,64,92926,1,0,0:0:0:0:
169,64,93009,2,0,B|202:79|220:110|220:110|253:88|329:93,1,130.500003982544,2|4,0:0|1:2,0:0:0:0:
414,206,93343,6,0,P|393:230|363:243,1,65.250001991272,8|8,0:3|0:3,0:0:0:0:
343,320,93510,1,8,0:0:0:0:
343,320,93593,1,0,0:0:0:0:
343,320,93676,2,0,B|309:304|291:273|291:273|258:295|182:290,1,130.500003982544,4|0,1:2|1:0,0:0:0:0:
256,192,94009,1,8,0:3:0:0:
151,105,94176,5,0,1:0:0:0:
151,105,94260,1,0,1:0:0:0:
151,105,94343,2,0,B|172:75|172:75|206:58,3,65.250001991272,4|2|2|2,1:2|0:1|0:1|0:1,0:0:0:0:
261,100,94676,1,8,0:0:0:0:
362,158,94843,2,0,B|377:191|377:191|375:229,3,65.250001991272,4|2|2|2,1:2|0:1|0:1|0:1,0:0:0:0:
312,262,95176,1,8,0:0:0:0:
228,320,95343,5,2,1:1:0:0:
217,297,95426,1,2,1:1:0:0:
211,272,95510,1,2,0:0:0:0:
211,247,95593,1,2,0:1:0:0:
220,223,95676,2,0,P|173:192|45:212,1,130.500003982544,2|4,0:0|1:2,0:0:0:0:
247,145,96010,2,0,P|296:119|343:0,1,130.500003982544,8|8,0:3|0:0,0:0:0:0:
300,207,96343,2,0,P|298:263|379:363,1,130.500003982544,2|12,1:1|0:0,0:0:0:0:
256,192,96676,5,2,1:1:0:0:
256,102,96843,2,0,L|256:224,1,90,2|0,0:1|1:0,0:0:0:0:
90,203,97343,5,2,0:0:0:0:
19,239,97510,1,2,1:3:0:0:
19,239,97593,2,0,L|30:360,1,108,0|0,1:0|1:0,0:0:0:0:
110,377,98010,2,0,B|100:280,1,72,8|0,0:0|0:0,0:0:0:0:
19,239,98343,5,2,1:3:0:0:
244,327,98843,1,2,1:3:0:0:
217,85,99343,1,2,1:3:0:0:
131,100,99510,2,0,B|123:171,1,72,2|2,0:0|1:3,0:0:0:0:
131,100,100010,5,2,0:0:0:0:
217,85,100176,1,2,1:3:0:0:
217,85,100260,2,0,L|204:222,1,108,0|2,1:0|1:3,0:0:0:0:
344,254,100676,2,0,B|272:261,1,72,8|0,0:0|1:0,0:0:0:0:
15,179,101343,6,0,B|86:171,1,72,2|2,0:0|1:1,0:0:0:0:
206,192,102010,2,0,L|217:85,1,108,2|2,0:0|0:3,0:0:0:0:
217,85,102343,1,2,1:1:0:0:
397,52,102676,5,2,0:0:0:0:
469,106,102843,1,2,1:3:0:0:
469,106,102926,2,0,L|484:228,1,108,0|0,1:0|1:0,0:0:0:0:
407,256,103343,2,0,L|398:184,1,72,8|2,0:0|0:3,0:0:0:0:
469,106,103676,5,2,1:3:0:0:
305,307,104176,1,2,1:3:0:0:
206,76,104676,1,2,1:3:0:0:
206,76,104760,1,0,1:0:0:0:
206,76,104843,2,0,L|194:172,1,72,2|2,0:0|1:3,0:0:0:0:
186,233,105176,5,0,1:0:0:0:
276,243,105343,1,2,0:0:0:0:
289,158,105510,1,2,1:3:0:0:
289,158,105593,2,0,P|235:122|215:71,1,108,0|2,1:0|1:3,0:0:0:0:
206,76,105927,1,2,1:3:0:0:
206,76,106010,2,0,L|194:172,1,72,2|0,0:0|1:0,0:0:0:0:
197,147,106260,6,0,L|64:172,1,108,2|0,0:0|1:0,0:0:0:0:
0,186,106676,1,2,0:0:0:0:
125,259,106843,2,0,P|233:179|86:183,1,360,2|2,1:3|1:3,0:0:0:0:
473,67,108010,6,0,B|406:83,1,45,2|0,0:0|0:0,0:0:0:0:
413,166,108176,1,2,1:3:0:0:
413,166,108260,2,0,B|384:232|393:299,1,135,2|0,1:3|1:0,0:0:0:0:
297,384,108676,2,0,P|309:334|307:285,1,90,8|0,0:0|0:0,0:0:0:0:
227,214,109010,6,0,L|154:227,2,62.9999980773926,0|10|2,1:0|0:3|0:3,0:0:0:0:
250,124,109510,2,0,L|312:113,2,62.9999980773926,0|8|8,1:0|0:3|0:3,0:0:0:0:
158,33,110010,1,0,1:0:0:0:
75,49,110176,1,8,0:0:0:0:
158,33,110343,1,0,1:0:0:0:
232,210,110676,6,0,B|245:270,1,45,2|0,0:0|0:0,0:0:0:0:
239,344,110843,1,0,1:0:0:0:
239,344,110926,2,0,B|312:342|287:294|372:292,1,135,0|0,1:0|1:0,0:0:0:0:
470,209,111343,2,0,P|429:216|365:213,1,90,8|0,0:0|1:0,0:0:0:0:
381,216,111593,1,0,0:0:0:0:
381,216,111676,6,0,P|352:255|374:309,1,90,2|0,0:1|0:0,0:0:0:0:
350,383,112010,1,2,0:0:0:0:
239,344,112176,2,0,B|298:345|293:284|340:268|369:321|433:283,1,180,2|0,1:1|0:0,0:0:0:0:
470,209,112676,2,0,P|429:216|365:213,1,90,2|2,0:0|0:3,0:0:0:0:
297,178,113010,1,2,1:1:0:0:
49,112,113343,6,0,B|95:95,1,45,2|0,0:0|0:0,0:0:0:0:
169,52,113510,1,2,1:3:0:0:
169,52,113593,2,0,P|179:107|178:198,1,135,0|0,1:0|1:0,0:0:0:0:
75,294,114010,2,0,P|87:239|89:197,1,90,8|0,0:0|0:0,0:0:0:0:
49,112,114343,6,0,P|147:119|238:82,1,180,0|2,1:0|0:3,0:0:0:0:
238,213,114843,2,0,P|149:204|64:233,1,180,0|8,1:0|0:3,0:0:0:0:
0,362,115343,1,0,1:0:0:0:
0,362,115426,1,0,1:0:0:0:
0,362,115510,1,8,0:0:0:0:
82,323,115676,5,0,1:0:0:0:
82,323,115843,1,0,1:0:0:0:
64,233,116010,2,0,B|51:188|51:188|69:146,1,90,2|2,0:0|1:3,0:0:0:0:
161,53,116260,2,0,B|174:100|174:100|159:150,1,90,0|0,1:0|0:0,0:0:0:0:
68,148,116510,2,0,P|44:152|22:163,1,45,0|0,1:0|1:0,0:0:0:0:
33,65,116676,5,2,0:0:0:0:
33,65,116760,1,2,0:0:0:0:
33,65,116843,1,0,1:0:0:0:
33,65,116926,1,0,1:0:0:0:
33,65,117010,2,0,P|124:68|157:167,1,180,0|2,1:0|1:2,0:0:0:0:
231,242,117510,2,0,P|186:247|146:227,1,90,0|2,1:0|1:3,0:0:0:0:
68,148,117843,1,2,1:3:0:0:
161,53,118010,2,0,P|174:95|161:138,1,90,0|2,1:0|1:3,0:0:0:0:
326,117,118343,5,4,1:1:0:0:
288,34,118510,1,10,0:3:0:0:
273,17,118593,1,10,0:3:0:0:
251,24,118676,1,2,0:0:0:0:
161,53,118843,1,2,1:3:0:0:
161,53,119010,2,0,B|188:96|161:139|161:139|134:179|155:234,1,180,0|8,0:0|0:0,0:0:0:0:
151,223,119510,5,4,2:1:0:0:
305,192,119843,1,10,0:3:0:0:
239,264,120176,2,0,L|257:344,2,72,2|8|8,1:3|0:3|0:3,0:0:0:0:
151,223,120676,1,0,1:0:0:0:
305,192,120843,1,8,0:0:0:0:
305,192,121176,5,4,2:1:0:0:
239,264,121510,2,0,L|257:344,2,72,0|2|0,1:0|0:3|1:0,0:0:0:0:
151,223,122010,1,8,0:0:0:0:
305,192,122176,1,4,1:1:0:0:
162,126,122343,5,0,0:0:0:0:
305,192,122510,1,0,0:0:0:0:
151,223,122676,1,2,0:0:0:0:
63,185,122843,2,0,B|38:254|103:267|69:341,1,144,4|0,1:1|0:0,0:0:0:0:
75,324,123343,1,2,0:0:0:0:
152,373,123510,1,2,0:3:0:0:
239,264,123676,5,4,1:1:0:0:
290,338,123843,1,8,0:3:0:0:
309,349,123926,1,8,0:3:0:0:
330,342,124009,1,2,0:0:0:0:
396,280,124176,1,0,1:0:0:0:
396,280,124343,2,0,P|409:200|299:153,1,180,0|8,0:0|0:0,0:0:0:0:
250,83,124843,6,0,P|223:158|261:230,1,148.50000453186,4|2,0:1|0:3,0:0:0:0:
213,298,125176,2,0,P|306:276|329:194,1,148.50000453186,10|2,0:3|0:3,0:0:0:0:
396,280,125510,2,0,P|400:193|293:162,1,198.000006042481,2|8,1:3|0:3,0:0:0:0:
250,83,126010,1,0,1:0:0:0:
230,97,126093,1,0,0:0:0:0:
240,119,126176,1,8,0:0:0:0:
137,218,126343,5,0,1:0:0:0:
215,210,126510,1,4,1:1:0:0:
274,262,126676,1,8,0:0:0:0:
277,340,126843,2,0,P|233:334|181:338,1,72,2|0,1:3|1:0,0:0:0:0:
115,339,127176,2,0,L|105:378,2,36,0|0|2,1:0|1:0|0:0,0:0:0:0:
204,333,127510,2,0,P|190:264|137:218,1,144,4|2,0:1|1:1,0:0:0:0:
295,183,128176,5,4,1:1:0:0:
423,59,128510,1,2,1:1:0:0:
345,51,128677,1,2,1:1:0:0:
286,103,128843,1,2,1:1:0:0:
168,44,129010,6,0,P|195:92|193:153,1,90,2|2,1:3|0:3,0:0:0:0:
232,234,129343,1,2,0:0:0:0:
295,183,129510,1,10,1:3:0:0:
308,262,129676,1,2,1:3:0:0:
371,211,129843,2,0,P|411:133|498:84,1,180,2|2,0:3|0:3,0:0:0:0:
403,0,130343,6,0,P|373:43|322:53,1,90,2|2,1:3|0:3,0:0:0:0:
325,134,130676,2,0,P|275:116|252:69,1,90,2|10,0:0|1:3,0:0:0:0:
201,25,131010,2,0,P|157:34|121:88,2,90,2|2|2,1:3|1:3|0:0,0:0:0:0:
279,3,131510,1,2,0:3:0:0:
196,99,131676,5,2,1:3:0:0:
258,150,131843,1,2,0:3:0:0:
208,214,132010,1,8,0:0:0:0:
145,163,132176,1,10,1:3:0:0:
102,81,132343,6,0,P|8:112|23:180,2,180,2|8|2,1:3|0:0|1:1,0:0:0:0:
145,163,133176,2,0,P|179:194|166:252,1,90,2|2,0:3|0:0,0:0:0:0:
120,293,133510,1,2,1:1:0:0:
120,293,133593,1,10,1:3:0:0:
120,293,133676,1,2,1:3:0:0:
143,370,133843,1,2,1:3:0:0:
30,286,134010,2,0,P|31:330|64:359,1,90,8|8,0:0|0:3,0:0:0:0:
120,293,134343,5,2,1:1:0:0:
178,235,134510,2,0,P|177:191|144:162,2,90,2|2|10,0:3|0:0|1:3,0:0:0:0:
255,258,135010,1,2,1:3:0:0:
212,384,135176,1,2,1:3:0:0:
120,293,135343,1,8,0:0:0:0:
276,335,135510,1,2,0:3:0:0:
352,308,135676,6,0,L|368:210,1,90,2|2,1:3|0:3,0:0:0:0:
360,137,136010,1,2,0:0:0:0:
471,33,136176,2,0,P|463:87|420:109,1,90,10|2,1:3|1:3,0:0:0:0:
360,137,136510,2,0,P|297:127|223:127,1,135,2|2,1:3|0:3,0:0:0:0:
225,126,136843,2,0,P|196:173|208:207,1,90,2|2,0:3|1:3,0:0:0:0:
84,267,137176,6,0,P|53:236|-17:254,2,90,2|2|10,0:3|0:0|1:3,0:0:0:0:
125,194,137676,1,2,1:3:0:0:
205,203,137843,1,2,1:3:0:0:
218,282,138010,1,8,0:0:0:0:
147,320,138176,1,2,1:3:0:0:
84,267,138343,6,0,P|52:225|54:160,1,90,2|2,1:1|0:1,0:0:0:0:
5,78,138676,2,0,P|57:71|132:126,1,135,2|2,0:0|1:3,0:0:0:0:
124,113,139010,1,2,1:1:0:0:
125,194,139176,2,0,P|195:191|242:132,1,135,2|2,1:1|0:1,0:0:0:0:
237,146,139510,1,2,0:1:0:0:
337,55,139676,6,0,B|318:145|398:145|360:252,2,180,2|2|2,1:3|0:0|1:3,0:0:0:0:
290,198,140676,1,8,0:0:0:0:
290,198,140843,2,0,P|248:168|210:172,1,90,2|2,0:3|1:3,0:0:0:0:
123,258,141176,5,2,0:3:0:0:
190,303,141343,1,2,0:0:0:0:
266,275,141510,1,10,1:3:0:0:
290,198,141676,2,0,P|264:144|295:99,1,90,2|2,1:3|1:3,0:0:0:0:
337,55,142010,2,0,P|389:109|451:106,1,135,8|2,0:0|0:3,0:0:0:0:
445,108,142343,6,0,P|389:203|403:292,2,180,2|2|2,1:3|0:0|1:3,0:0:0:0:
470,31,143176,1,2,1:3:0:0:
397,0,143343,1,8,0:0:0:0:
308,135,143510,6,0,P|334:99|336:54,1,90,2|2,0:3|1:1,0:0:0:0:
260,73,143843,1,2,0:3:0:0:
260,73,144010,2,0,P|213:85|141:47,1,90,2|2,0:0|1:1,0:0:0:0:
32,159,144343,2,0,P|166:220|164:333,1,270,2|8,1:3|0:3,0:0:0:0:
254,384,145010,5,2,1:1:0:0:
324,344,145176,2,0,L|445:358,2,90,2|2|10,0:3|0:0|1:3,0:0:0:0:
262,291,145676,1,2,1:3:0:0:
160,374,145843,1,2,1:3:0:0:
168,285,146010,1,8,0:0:0:0:
254,384,146176,1,2,0:3:0:0:
324,344,146343,6,0,P|398:344|475:382,1,135,2|2,1:3|0:3,0:0:0:0:
453,366,146676,1,2,0:0:0:0:
512,206,146843,2,0,B|475:258|364:255,1,135,10|2,1:3|0:3,0:0:0:0:
391,254,147176,2,0,P|393:203|379:159,1,90,2|8,1:3|0:0,0:0:0:0:
260,234,147510,6,0,P|220:212|164:217,2,90,2|2|2,0:3|1:3|0:3,0:0:0:0:
201,289,148010,2,0,P|196:336|224:375,1,90,2|10,0:0|1:3,0:0:0:0:
278,316,148343,1,2,1:3:0:0:
357,328,148509,1,2,0:3:0:0:
391,254,148676,1,8,0:0:0:0:
334,195,148843,1,2,0:3:0:0:
260,234,149010,6,0,P|212:226|163:181,2,90,2|2|6,1:1|0:1|0:2,0:0:0:0:
391,254,149510,1,2,1:1:0:0:
347,118,149676,1,10,1:1:0:0:
269,100,149843,2,0,P|255:173|263:250,1,135,10|0,1:1|0:0,0:0:0:0:
259,233,150176,1,10,1:1:0:0:
185,316,150343,5,14,1:3:0:0:
58,268,150565,1,2,0:3:0:0:
74,233,150676,2,0,P|124:200|182:190,1,96,2|2,0:3|0:3,0:0:0:0:
159,152,151010,2,0,P|218:148|274:168,1,96,2|2,0:3|0:3,0:0:0:0:
274,125,151343,2,0,P|327:151|365:197,1,96,2|2,1:3|0:3,0:0:0:0:
335,211,151676,6,0,B|349:267|349:267|322:328,2,108,8|8|8,1:1|0:1|0:1,0:0:0:0:
260,262,152343,1,8,3:2:0:0:
274,125,152510,2,0,L|280:83,2,36,2|4|4,1:3|1:2|3:2,0:0:0:0:
158,176,152843,2,0,L|164:218,2,36,4|4|6,3:2|3:2|1:3,0:0:0:0:
85,39,153343,5,2,0:3:0:0:
47,47,153454,2,0,L|-28:60,2,48,2|2|0,0:3|1:3|1:0,0:0:0:0:
69,136,153899,1,2,0:3:0:0:
63,173,154010,2,0,L|78:276,1,96,2|2,1:3|0:3,0:0:0:0:
111,284,154343,6,0,B|166:276|166:276|231:319,2,108,8|10|8,1:1|0:1|0:1,0:0:0:0:
142,371,155010,1,8,0:2:0:0:
209,304,155176,2,0,L|219:251,2,36,0|4|8,1:0|1:2|0:2,0:0:0:0:
288,349,155510,2,0,L|298:402,2,36,4|2|14,1:2|0:3|1:3,0:0:0:0:
428,255,156010,5,2,1:3:0:0:
466,263,156121,2,0,L|522:275,2,48,2|2|2,1:3|0:3|0:3,0:0:0:0:
480,131,156565,5,2,1:3:0:0:
446,109,156676,2,0,P|413:112|383:133,1,48,2|2,1:3|0:3,0:0:0:0:
375,55,156899,5,2,0:3:0:0:
335,53,157010,2,0,P|308:72|293:105,1,48,8|2,3:1|0:3,0:0:0:0:
242,41,157232,5,2,1:3:0:0:
206,58,157343,2,0,P|192:87|196:124,1,48,2|0,0:3|0:0,0:0:0:0:
120,97,157565,5,2,0:3:0:0:
97,130,157676,2,0,P|100:162|121:192,1,48,2|2,1:3|0:3,0:0:0:0:
41,213,157899,5,2,0:3:0:0:
39,252,158010,2,0,P|58:278|91:293,1,48,2|0,0:3|0:0,0:0:0:0:
154,275,158232,5,2,0:3:0:0:
149,313,158343,2,0,L|140:401,2,72,0|2|2,1:0|0:0|1:3,0:0:0:0:
225,249,158843,1,2,0:0:0:0:
167,174,159010,1,2,1:3:0:0:
93,235,159176,1,2,1:3:0:0:
106,104,159343,5,0,1:0:0:0:
106,104,159426,1,2,0:0:0:0:
106,104,159510,1,2,0:0:0:0:
106,104,159593,1,2,0:0:0:0:
106,104,159676,6,0,L|-16:87,2,108,0|0|0,1:0|1:0|1:0,0:0:0:0:
222,138,160343,1,4,3:1:0:0:
239,215,160510,1,0,3:0:0:0:
265,298,160676,1,4,3:1:0:0:
265,298,160760,1,0,3:0:0:0:
265,298,160843,2,0,L|287:302,4,18,4|0|4|0|2,3:1|3:0|3:1|3:0|0:0,0:0:0:0:
256,192,169010,12,2,171343,0:1:0:0:
218,100,171676,6,2,P|164:58|100:78,1,116.999994644165,6|0,1:1|1:0,0:1:0:0:
35,44,171926,1,0,1:0:0:0:
35,44,172010,2,2,P|11:60|0:87,1,58.4999973220826,8|0,0:0|0:0,0:1:0:0:
34,163,172176,2,2,P|45:243|126:254,1,175.499991966248,6|0,1:1|1:0,0:1:0:0:
170,184,172510,2,0,P|165:155|148:132,1,58.4999973220826,8|0,0:0|0:0,0:0:0:0:
34,163,172676,5,2,1:1:0:0:
32,185,172760,1,2,0:1:0:0:
39,206,172843,1,2,0:2:0:0:
52,224,172926,1,2,0:1:0:0:
70,237,173010,2,0,P|81:304|43:343,1,112.5,2|6,0:2|1:1,0:0:0:0:
247,375,173343,2,0,P|236:308|274:269,1,112.5,2|8,0:1|0:0,0:0:0:0:
374,317,173676,5,6,1:1:0:0:
392,305,173759,1,2,0:1:0:0:
386,282,173843,2,0,L|374:220,1,56.25,2|2,3:1|0:1,0:0:0:0:
328,169,174010,2,0,L|338:118,3,36,2|2|2|2,3:1|0:1|3:1|0:1,0:0:0:0:
264,204,174343,6,2,P|194:200|167:126,1,116.999994644165,6|0,1:1|1:0,0:1:0:0:
70,121,174593,1,0,1:0:0:0:
70,121,174676,2,2,P|89:157|85:196,1,58.4999973220826,8|0,0:0|0:0,0:1:0:0:
47,241,174843,2,2,P|131:240|167:165,1,175.499991966248,6|0,1:1|1:0,0:1:0:0:
173,38,175176,2,0,P|157:62|152:91,1,58.4999973220826,8|0,0:0|0:0,0:0:0:0:
168,166,175343,5,2,1:1:0:0:
178,185,175426,1,2,0:1:0:0:
195,200,175510,1,2,0:0:0:0:
215,209,175593,1,2,0:1:0:0:
238,210,175676,2,0,P|293:212|339:243,1,112.5,2|6,0:0|1:1,0:0:0:0:
467,384,176010,5,2,0:1:0:0:
446,222,176176,1,8,0:0:0:0:
315,326,176343,1,6,1:1:0:0:
505,299,176510,1,8,0:0:0:0:
383,272,176676,2,0,P|345:197|361:109,1,168.75,2|2,1:1|0:1,0:0:0:0:
442,91,177010,6,2,P|406:43|337:33,1,116.999994644165,6|0,1:1|1:0,0:1:0:0:
263,31,177260,1,0,1:0:0:0:
263,31,177343,2,2,P|274:72|265:107,1,58.4999973220826,8|0,0:0|0:0,0:1:0:0:
227,200,177510,2,2,B|339:181|291:256|421:233,1,175.499991966248,6|0,1:1|1:0,0:1:0:0:
372,162,177843,2,0,P|393:136|432:126,1,58.4999973220826,8|0,0:0|0:0,0:0:0:0:
488,88,178010,5,2,1:1:0:0:
498,106,178093,1,2,0:1:0:0:
503,129,178177,1,2,0:0:0:0:
499,152,178260,1,2,0:1:0:0:
488,170,178343,1,2,0:0:0:0:
437,306,178510,6,0,P|453:263|537:252,1,112.5,6|2,1:1|0:1,0:0:0:0:
330,192,178843,1,8,0:0:0:0:
357,115,179010,2,0,P|400:147|403:229,1,112.5,6|2,1:1|3:1,0:0:0:0:
428,348,179343,2,0,P|372:350|327:318,1,112.5,2|2,3:1|3:1,0:0:0:0:
195,149,179676,6,0,P|236:215|253:322,1,168.75,4|0,1:0|0:0,0:0:0:0:
256,384,180010,1,8,0:0:0:0:
344,223,180176,2,0,B|375:214|352:141|217:169|257:321,1,225,4|8,1:0|0:0,0:0:0:0:
88,213,180676,2,0,P|198:237|263:333,1,202.500007724762,0|0,1:0|0:0,0:0:0:0:
256,384,181010,5,2,3:1:0:0:
389,178,181176,2,0,P|272:245|253:333,1,202.500007724762,6|2,1:1|0:1,0:0:0:0:
256,384,181510,1,8,0:0:0:0:
256,192,181676,2,0,P|238:253|254:304,1,116.999994644165,6|8,1:1|0:0,0:0:0:0:
256,384,182010,2,0,P|283:288|256:193,1,202.500007724762,2|0,1:1|0:0,0:0:0:0:
256,179,182343,5,8,0:0:0:0:
245,185,182426,1,8,0:0:0:0:
245,198,182510,1,8,0:0:0:0:
255,204,182593,1,8,0:0:0:0:
266,198,182676,1,8,0:0:0:0:
266,185,182760,1,8,0:0:0:0:
256,192,182843,2,0,P|304:98|194:127,1,251.999992309571,14|8,1:2|0:0,0:0:0:0:
68,134,183343,5,0,1:0:0:0:
84,152,183426,1,0,1:0:0:0:
94,174,183510,1,2,0:0:0:0:
100,198,183593,1,2,0:0:0:0:
102,222,183676,1,2,0:0:0:0:
72,346,183843,6,0,B|97:305|97:305|202:293|202:293|229:249,1,188.999994232178,4|8,1:2|0:3,0:0:0:0:
205,134,184176,2,0,B|190:112|190:112|193:77,1,62.9999980773926,8|0,0:0|0:0,0:0:0:0:
256,192,184343,1,0,1:0:0:0:
386,194,184510,2,0,B|357:175|357:175|313:178,1,62.9999980773926,12|0,0:0|0:0,0:0:0:0:
256,192,184676,2,0,B|212:265|256:328|256:328|256:295|279:270,1,188.999994232178,8|0,0:3|1:0,0:0:0:0:
336,330,185010,5,4,1:2:0:0:
359,321,185093,1,2,0:1:0:0:
381,310,185176,1,2,0:1:0:0:
403,299,185260,1,2,0:1:0:0:
426,289,185343,1,8,0:0:0:0:
512,199,185510,6,0,B|490:140|490:140|424:108,1,125.999996154785,4|2,1:2|0:1,0:0:0:0:
347,31,185843,1,8,0:0:0:0:
433,112,186010,2,0,P|398:141|316:149,1,125.999996154785,0|2,1:0|0:0,0:0:0:0:
171,129,186343,6,0,B|170:162|170:162|195:204,3,62.9999980773926,2|0|4|0,0:0|0:0|1:2|1:0,0:0:0:0:
243,297,186676,2,0,B|273:281|273:281|297:237,3,62.9999980773926,8|8|8|0,0:3|0:3|0:0|0:0,0:0:0:0:
353,149,187010,2,0,B|324:132|324:132|275:133,3,62.9999980773926,0|0|12|0,1:0|1:0|0:0|1:0,0:0:0:0:
256,192,187343,1,0,1:0:0:0:
131,262,187510,5,2,0:1:0:0:
131,262,187593,1,2,0:1:0:0:
131,262,187676,2,0,P|93:204|164:133,1,125.999996154785,4|2,1:2|0:1,0:0:0:0:
122,5,188010,1,8,0:0:0:0:
246,86,188176,2,0,B|301:119|301:119|365:100,1,125.999996154785,4|2,1:2|0:1,0:0:0:0:
315,0,188510,1,8,0:0:0:0:
359,102,188676,2,0,P|397:157|361:235,1,125.999996154785,0|2,1:0|0:0,0:0:0:0:
279,307,189010,6,0,B|253:286|253:286|240:229,3,62.9999980773926,2|0|4|0,0:0|0:0|1:2|1:0,0:0:0:0:
144,153,189343,2,0,B|174:142|174:142|230:159,3,62.9999980773926,8|8|8|0,0:3|0:3|0:0|0:0,0:0:0:0:
343,113,189676,2,0,B|338:145|338:145|296:185,3,62.9999980773926,4|0|0|0,1:2|1:0|1:0|1:0,0:0:0:0:
256,192,190010,1,8,0:3:0:0:
227,76,190176,5,0,1:0:0:0:
227,76,190260,1,0,1:0:0:0:
227,76,190343,5,4,1:2:0:0:
170,275,190510,1,2,0:1:0:0:
370,224,190676,1,8,0:0:0:0:
232,99,190843,5,4,1:2:0:0:
187,258,191010,1,2,0:1:0:0:
347,218,191176,1,8,0:0:0:0:
255,192,191343,6,0,P|261:248|305:284,1,116.999994644165,2|2,1:1|0:0,0:0:0:0:
412,333,191676,1,2,0:0:0:0:
428,217,191843,2,0,P|423:164|382:132,1,107.999996704102,4|8,1:2|0:3,0:0:0:0:
255,192,192176,1,8,0:0:0:0:
190,150,192343,5,2,1:1:0:0:
296,126,192510,1,12,0:0:0:0:
320,232,192676,1,2,1:1:0:0:
214,256,192843,1,2,1:1:0:0:
190,150,193010,6,2,P|177:189|186:230,1,83.9999974365235,4|0,1:2|0:0,0:1:0:0:
120,268,193232,2,2,P|92:237|52:225,1,83.9999974365235,0|0,1:0|0:0,0:1:0:0:
55,150,193454,2,2,P|95:141|126:113,1,83.9999974365235,0|0,1:0|0:0,0:1:0:0:
122,190,193676,1,4,1:2:0:0:
324,156,194010,6,2,P|296:125|257:111,1,83.9999974365235,4|0,1:2|0:0,0:1:0:0:
258,36,194232,2,2,P|297:27|328:0,1,83.9999974365235,0|0,1:0|0:0,0:1:0:0:
391,39,194454,2,2,P|379:78|388:119,1,83.9999974365235,0|0,1:0|0:0,0:1:0:0:
325,77,194676,1,4,1:2:0:0:
251,269,195010,6,2,P|291:260|323:232,1,83.9999974365235,4|0,1:2|0:0,0:1:0:0:
388,270,195232,2,2,P|376:309|384:350,1,83.9999974365235,0|0,1:0|0:0,0:1:0:0:
320,384,195454,2,2,P|290:353|251:341,1,83.9999974365235,0|0,1:0|0:0,0:1:0:0:
320,309,195676,1,4,1:2:0:0:
323,232,196010,6,2,P|292:260|251:269,1,83.9999974365235,4|0,1:2|0:0,0:1:0:0:
257,111,196232,6,2,P|296:125|324:156,1,83.9999974365235,0|0,1:0|0:0,0:1:0:0:
186,229,196454,6,2,P|177:188|190:149,1,83.9999974365235,0|0,1:0|0:0,0:1:0:0:
256,192,196676,5,4,1:2:0:0:
324,156,197010,6,2,P|375:181|387:225,1,87.0000026550294,4|0,1:2|0:0,0:1:0:0:
461,178,197232,2,2,P|412:209|368:197,1,87.0000026550294,0|0,1:0|0:0,0:1:0:0:
374,285,197454,2,2,P|370:226|402:194,1,87.0000026550294,0|0,1:0|0:0,0:1:0:0:
384,205,197676,1,4,1:2:0:0:
253,268,198010,6,2,P|205:300|161:288,1,87.0000026550294,4|0,1:2|0:0,0:1:0:0:
165,376,198232,2,2,P|162:318|194:286,1,87.0000026550294,0|0,1:0|0:0,0:1:0:0:
115,246,198454,2,2,P|167:272|179:316,1,87.0000026550294,0|0,1:0|0:0,0:1:0:0:
177,296,198676,1,4,1:2:0:0:
190,151,199010,6,2,P|187:93|219:61,1,87.0000026550294,4|0,1:2|0:0,0:1:0:0:
140,20,199232,2,2,P|191:46|203:90,1,87.0000026550294,0|0,1:0|0:0,0:1:0:0:
277,42,199454,2,2,P|228:74|184:63,1,87.0000026550294,0|0,1:0|0:0,0:1:0:0:
201,71,199676,1,4,1:2:0:0:
321,151,199843,5,2,0:0:0:0:
321,151,199926,1,8,0:3:0:0:
321,151,200010,6,2,P|373:177|385:221,1,90.0000034332277,4|0,1:2|0:0,0:1:0:0:
190,151,200232,6,2,P|186:93|218:61,1,90.0000034332277,0|0,1:0|0:0,0:1:0:0:
253,268,200454,6,2,P|205:300|161:288,1,90.0000034332277,0|0,1:0|0:0,0:1:0:0:
256,192,200676,6,2,B|177:179|181:65|299:49|348:134|295:183|266:212|266:212|239:242|230:282|280:346,1,393.75,12|0,1:1|0:0,0:1:0:0:
329,361,201343,5,6,1:3:0:0:
479,282,201510,1,2,1:1:0:0:
416,344,201676,1,2,1:3:0:0:
497,196,201843,1,2,1:1:0:0:
479,282,202010,1,8,1:3:0:0:
464,114,202176,1,2,1:1:0:0:
396,223,202343,6,0,B|377:229|377:229|329:217|333:161|368:143,1,112.5,2|2,1:3|1:1,0:0:0:0:
390,64,202676,1,2,1:3:0:0:
497,196,202843,1,2,1:1:0:0:
351,156,203010,2,0,L|212:138,1,112.5,2|0,1:3|1:0,0:0:0:0:
238,292,203343,2,0,L|349:306,1,112.5,8|0,1:3|1:0,0:0:0:0:
170,254,203676,5,8,1:1:0:0:
161,287,203760,1,2,1:1:0:0:
165,321,203843,1,2,3:1:0:0:
185,349,203926,1,2,1:1:0:0:
215,364,204010,2,0,L|281:372,3,56.25,6|2|2|2,1:1|1:1|1:1|1:1,0:0:0:0:
238,292,204343,2,0,L|300:266,3,56.25,2|2|2|2,1:3|1:1|1:1|1:1,0:0:0:0:
221,218,204676,2,0,L|261:164,3,56.25,8|2|2|2,1:3|1:1|1:1|1:1,0:0:0:0:
169,162,205010,2,0,L|177:95,3,56.25,2|2|2|2,1:3|1:1|1:1|1:1,0:0:0:0:
75,118,205343,6,0,L|86:229,1,112.5,2|2,1:3|1:1,0:0:0:0:
18,347,205676,1,2,1:3:0:0:
51,350,205760,1,2,1:1:0:0:
84,353,205843,1,2,1:1:0:0:
221,378,206010,1,8,1:3:0:0:
263,298,206176,1,2,1:1:0:0:
349,272,206343,1,8,1:1:0:0:
428,314,206510,1,2,3:1:0:0:
263,298,206676,6,0,P|216:270|195:219,1,112.5,6|0,1:1|1:0,0:0:0:0:
306,123,207010,1,2,1:3:0:0:
285,211,207176,1,2,1:1:0:0:
229,76,207343,1,8,1:3:0:0:
195,219,207510,1,2,1:1:0:0:
161,135,207676,2,0,P|105:134|61:100,1,112.5,2|2,1:3|1:1,0:0:0:0:
123,1,208010,5,2,1:3:0:0:
161,135,208176,1,2,1:1:0:0:
260,38,208343,2,0,B|327:14|327:14|443:57,1,168.75,2|0,1:3|1:0,0:0:0:0:
453,118,208676,6,0,L|461:185,3,56.25,8|0|0|0,1:3|1:0|1:0|1:0,0:0:0:0:
400,227,209010,1,2,1:3:0:0:
512,262,209176,1,2,1:1:0:0:
413,308,209343,2,0,L|405:375,3,56.25,6|0|0|0,1:1|1:0|1:0|1:0,0:0:0:0:
327,280,209676,6,0,L|335:347,3,56.25,2|0|0|0,1:3|1:0|1:0|1:0,0:0:0:0:
267,374,210010,1,8,1:3:0:0:
255,237,210176,1,2,1:1:0:0:
186,354,210343,2,0,L|194:287,3,56.25,2|0|0|0,1:3|1:0|3:0|1:0,0:0:0:0:
129,224,210676,5,2,1:3:0:0:
124,190,210760,1,0,1:0:0:0:
120,156,210843,1,0,1:0:0:0:
116,123,210926,1,0,1:0:0:0:
112,89,211010,2,0,L|104:144,1,56.25,2|0,1:3|1:0,0:0:0:0:
164,268,211176,2,0,L|155:213,1,56.25,2|0,1:1|1:0,0:0:0:0:
258,114,211343,2,0,L|250:169,1,56.25,8|0,1:3|1:0,0:0:0:0:
310,243,211510,1,10,1:1:0:0:
404,139,211676,1,2,3:3:0:0:
456,218,211843,1,10,1:1:0:0:
512,162,212010,6,0,B|426:169|426:169|413:164|413:164|386:212|386:212|345:116|345:116|331:197|331:197|297:183|297:183|203:193,1,472.500004506111,2|0,1:1|0:0,0:0:0:0:
