osu file format v14

[General]
AudioFilename: audio.mp3
AudioLeadIn: 0
PreviewTime: 51229
Countdown: 0
SampleSet: Soft
StackLeniency: 0.7
Mode: 0
LetterboxInBreaks: 0
WidescreenStoryboard: 1

[Editor]
Bookmarks: 16155,19905,21008,31597,31817,33030,34023,34905,35347,38876,40200,40420,41302,43067,44832,47920,49464,52773,54538,56302,58067,59832,61376,65347,68655,72185,74170,75494,82552
DistanceSpacing: 1.5
BeatDivisor: 4
GridSize: 8
TimelineZoom: 1.3

[Metadata]
Title:Yakusoku (Cut Ver.)
TitleUnicode:約束 (Cut Ver.)
Artist:Harumaki Gohan feat. Hatsune Miku
ArtistUnicode:はるまきごはん feat. 初音ミク
Creator:ruchuers
Version:IWEJ's Hard
Source:
Tags:ナナ リリ nana riri lili IWEJ cutver short version ふたりの Futarino promise harumaki_gohan jpop j-pop japanese pop vocaloid VOCALOID殿堂入り ミクオリジナル曲 スタジオごはん feat.初音ミク
BeatmapID:2644463
BeatmapSetID:1266328

[Difficulty]
HPDrainRate:5
CircleSize:4
OverallDifficulty:6
ApproachRate:7
SliderMultiplier:1.4
SliderTickRate:1

[Events]
//Background and Video events
0,0,"bg.jpg",0,0
//Break Periods
//Storyboard Layer 0 (Background)
//Storyboard Layer 1 (Fail)
//Storyboard Layer 2 (Pass)
//Storyboard Layer 3 (Foreground)
//Storyboard Layer 4 (Overlay)
//Storyboard Sound Samples

[TimingPoints]
5347,441.176470588235,4,2,1,50,1,0
5347,-200,4,2,1,50,0,0
19464,-133.333333333333,4,2,1,60,0,0
19684,-133.333333333333,4,2,1,50,0,0
19905,-133.333333333333,4,2,1,60,0,0
20125,-133.333333333333,4,2,1,50,0,0
20347,-133.333333333333,4,2,1,60,0,0
21450,-133.333333333333,4,2,1,50,0,0
21670,-133.333333333333,4,2,1,60,0,0
21890,-133.333333333333,4,2,1,50,0,0
22111,-133.333333333333,4,2,1,60,0,0
23214,-133.333333333333,4,2,1,50,0,0
23435,-133.333333333333,4,2,1,60,0,0
23655,-133.333333333333,4,2,1,50,0,0
23876,-133.333333333333,4,2,1,60,0,0
24979,-133.333333333333,4,2,1,50,0,0
25200,-133.333333333333,4,2,1,60,0,0
25420,-133.333333333333,4,2,1,50,0,0
25641,-133.333333333333,4,2,1,60,0,0
27185,-133.333333333333,4,2,1,50,0,0
27405,-133.333333333333,4,2,1,60,0,0
28067,-133.333333333333,4,2,1,50,0,0
28288,-133.333333333333,4,2,1,60,0,0
28950,-133.333333333333,4,2,1,50,0,0
29170,-133.333333333333,4,2,1,60,0,0
29391,-133.333333333333,4,2,1,50,0,0
29611,-133.333333333333,4,2,1,60,0,0
29832,-133.333333333333,4,2,1,50,0,0
30052,-133.333333333333,4,2,1,60,0,0
30272,-133.333333333333,4,2,1,50,0,0
30935,-133.333333333333,4,2,1,60,0,0
32479,-133.333333333333,4,2,1,50,0,0
32700,-133.333333333333,4,2,1,60,0,0
32920,-133.333333333333,4,2,1,50,0,0
33141,-133.333333333333,4,2,1,60,0,0
33912,-133.333333333333,4,2,1,50,0,0
35126,-133.333333333333,4,2,1,60,0,0
35567,-133.333333333333,4,2,1,50,0,0
37111,-133.333333333333,4,2,1,60,0,0
37331,-133.333333333333,4,2,1,50,0,0
38655,-133.333333333333,4,2,1,60,0,0
39097,-133.333333333333,4,2,1,50,0,0
39979,-133.333333333333,4,2,1,60,0,0
47037,-133.333333333333,4,2,1,50,0,0
47920,-133.333333333333,4,2,1,60,0,0
51229,-100,4,2,1,75,0,1
64464,-100,4,2,1,60,0,1
65347,-100,4,2,1,75,0,1
77479,-100,4,2,1,60,0,0

[Colours]
Combo1 : 255,75,255
Combo2 : 164,32,240
Combo3 : 37,185,239
Combo4 : 23,209,116

[HitObjects]
232,304,5347,6,0,P|261:319|297:316,1,70,2|0,0:0|0:0,0:0:0:0:
359,278,6008,1,0,0:0:0:0:
359,278,6229,2,0,P|392:273|423:290,1,70,12|0,0:0|0:0,0:0:0:0:
488,326,6891,1,0,0:0:0:0:
488,326,7111,2,0,L|506:256,1,70,2|0,0:0|0:0,0:0:0:0:
474,163,7773,6,0,P|468:179|467:197,1,35,0|8,0:0|0:0,0:0:0:0:
402,225,8214,1,0,0:0:0:0:
330,220,8435,2,0,L|296:229,1,35
370,161,8876,2,0,L|403:151,1,35,2|0,0:0|0:0,0:0:0:0:
300,156,9317,1,0,0:0:0:0:
165,125,9758,1,8,0:0:0:0:
276,325,10641,6,0,P|322:342|301:283,1,140,2|8,0:0|0:0,0:0:0:0:
25,289,12405,6,0,P|58:296|89:281,1,70,2|0,0:0|0:0,0:0:0:0:
116,215,13067,1,0,0:0:0:0:
116,214,13288,2,0,P|146:198|179:207,1,70,12|0,0:0|0:0,0:0:0:0:
245,247,13950,1,0,0:3:0:0:
245,247,14170,2,0,B|260:214|249:178,1,70,2|0,0:3|0:3,0:3:0:0:
222,72,14832,5,0,0:0:0:0:
222,72,15052,2,0,L|238:133,1,35,8|0,0:0|0:0,0:0:0:0:
164,138,15494,2,0,L|174:171,1,35
198,241,15935,2,0,P|181:246|164:243,1,35,2|0,0:0|0:0,0:0:0:0:
96,223,16376,1,0,0:0:0:0:
36,185,16597,1,0,0:0:0:0:
11,120,16817,1,8,0:0:0:0:
32,258,17258,5,0,0:0:0:0:
57,323,17479,1,0,0:0:0:0:
122,354,17700,2,0,P|172:369|221:353,1,105,2|0,0:0|0:0,0:0:0:0:
274,281,18582,5,2,0:0:0:0:
205,265,18802,1,0,0:0:0:0:
154,215,19023,1,2,0:0:0:0:
140,146,19244,1,2,0:0:0:0:
159,77,19464,6,0,P|174:55|197:42,1,52.5000020027161,2|0,3:2|0:0,0:0:0:0:
274,81,19905,2,0,P|258:101|235:114,1,52.5000020027161,0|0,3:2|0:0,0:0:0:0:
337,33,20347,2,0,P|391:19|438:36,1,105.000004005432,12|0,3:2|3:2,0:0:0:0:
266,132,21229,5,2,3:2:0:0:
337,156,21450,1,2,0:0:0:0:
381,94,21670,1,2,3:2:0:0:
337,33,21890,1,0,0:0:0:0:
266,56,22111,1,2,3:2:0:0:
265,207,22552,1,0,3:2:0:0:
413,230,22994,5,2,3:2:0:0:
348,220,23214,1,2,0:0:0:0:
337,156,23435,1,2,3:2:0:0:
393,126,23655,1,0,0:0:0:0:
439,170,23876,1,2,3:2:0:0:
385,298,24317,1,0,3:2:0:0:
251,314,24758,5,2,3:2:0:0:
293,289,24979,1,0,0:0:0:0:
284,241,25200,1,2,3:2:0:0:
236,234,25420,1,2,0:0:0:0:
214,278,25641,1,2,3:2:0:0:
307,364,26082,1,0,3:2:0:0:
435,354,26523,6,0,P|456:307|450:255,1,105.000004005432,2|0,3:2|3:2,0:0:0:0:
396,200,27185,1,0,0:0:0:0:
396,200,27405,2,0,P|388:147|411:101,1,105.000004005432,12|0,3:2|3:2,0:0:0:0:
447,20,28067,1,0,0:0:0:0:
447,20,28288,2,0,B|404:35|370:20|370:20|345:28,1,105.000004005432,2|0,3:2|3:2,0:0:0:0:
263,106,28950,6,0,P|262:79|248:56,1,52.5000020027161,0|8,0:0|3:2,0:0:0:0:
181,18,29391,1,0,0:0:0:0:
103,30,29611,1,0,3:2:0:0:
59,95,29832,1,0,0:0:0:0:
23,165,30052,6,0,P|18:191|27:215,1,52.5000020027161,2|0,3:2|0:0,0:0:0:0:
105,212,30494,2,0,P|113:236|108:261,1,52.5000020027161
58,324,30935,2,0,P|107:309|157:323,1,105.000004005432,10|0,1:2|0:0,0:0:0:0:
226,363,31597,1,2,3:2:0:0:
289,303,31817,2,0,L|297:329,2,26.2500010013581,2|0|2,3:2|0:0|0:2,0:0:0:0:
363,275,32258,2,0,B|387:267|414:274,1,52.5000020027161,2|0,0:0|0:0,0:0:0:0:
321,208,32700,5,8,3:3:0:0:
297,127,32920,1,0,0:3:0:0:
297,127,33030,1,10,3:3:0:0:
297,127,33141,1,8,3:2:0:0:
337,53,33361,1,8,3:3:0:0:
420,52,33582,2,0,P|455:79|459:123,1,78.7500030040742,4|0,0:3|0:0,0:0:0:0:
449,138,34023,1,2,0:0:0:0:
449,138,34244,1,2,0:0:0:0:
248,68,34685,6,0,L|302:82,1,52.5000020027161
313,158,35126,1,0,3:2:0:0:
313,158,35347,1,0,3:2:0:0:
327,235,35567,2,0,P|352:233|375:220,2,52.5000020027161,2|0|2,0:0|0:0|0:0,0:0:0:0:
129,162,36450,5,2,0:0:0:0:
153,87,36670,1,2,0:0:0:0:
120,15,36891,1,2,0:0:0:0:
29,77,37111,2,0,P|55:75|75:91,1,52.5000020027161,4|0,3:3|0:0,0:0:0:0:
26,156,37552,5,0,0:0:0:0:
26,156,37773,2,0,P|11:183|44:185,1,52.5000020027161,2|0,0:0|0:0,0:0:0:0:
102,202,38214,2,0,P|116:221|99:239,1,52.5000020027161,2|0,0:0|0:0,0:0:0:0:
29,299,38655,5,0,3:2:0:0:
93,369,38876,2,0,L|105:318,1,52.5000020027161,4|2,3:3|0:0,0:0:0:0:
173,277,39317,1,0,0:3:0:0:
197,352,39538,1,2,0:0:0:0:
315,326,39979,5,0,3:2:0:0:
390,350,40199,1,0,3:2:0:0:
460,315,40420,1,2,3:2:0:0:
475,238,40640,2,0,P|425:223|377:242,1,105.000004005432,2|0,3:2|3:2,0:0:0:0:
372,153,41302,5,2,0:0:0:0:
327,90,41523,2,0,L|340:39,2,52.5000020027161,2|2|2,3:2|0:0|3:2,0:0:0:0:
257,126,42185,1,2,0:0:0:0:
282,198,42405,2,0,P|296:247|277:294,1,105.000004005432,2|0,3:2|3:2,0:0:0:0:
204,243,43067,5,2,0:0:0:0:
136,203,43288,2,0,L|119:264,1,52.5000020027161,2|2,3:2|0:0,0:0:0:0:
185,366,43729,2,0,L|171:315,1,52.5000020027161,2|2,3:2|0:0,0:0:0:0:
96,330,44170,2,0,P|52:302|40:252,1,105.000004005432,2|0,3:2|3:2,0:0:0:0:
60,165,44832,5,2,0:0:0:0:
94,83,45052,1,2,3:2:0:0:
170,37,45273,1,2,0:0:0:0:
257,53,45493,1,2,3:2:0:0:
314,120,45714,1,2,0:0:0:0:
286,204,45935,6,0,P|237:222|189:205,1,105.000004005432,2|2,3:2|3:2,0:0:0:0:
220,91,46597,1,2,0:0:0:0:
220,91,46817,2,0,L|236:152,1,52.5000020027161,2|2,3:2|2:2,0:0:0:0:
324,133,47258,2,0,L|308:170,3,26.2500010013581,2|0|0|0,1:2|1:2|1:2|1:2,0:0:0:0:
257,53,47920,5,8,3:1:0:0:
257,53,48141,1,2,3:2:0:0:
144,172,48582,5,2,3:2:0:0:
256,212,48913,1,2,3:2:0:0:
368,172,49244,1,2,3:2:0:0:
295,134,49464,6,0,P|256:129|217:136,2,78.7500030040742,2|2|2,1:2|1:2|1:2,0:0:0:0:
373,93,50347,2,0,P|411:97|450:90,2,78.7500030040742,2|2|2,1:2|1:2|1:2,0:0:0:0:
329,16,51229,6,0,P|285:68|296:135,1,140,2|8,3:2|3:1,0:0:0:0:
407,190,51891,1,2,0:0:0:0:
407,190,52111,2,0,P|417:257|374:309,1,140,2|8,3:2|3:1,0:0:0:0:
272,225,52773,6,0,L|232:231,1,35
215,262,52994,2,0,B|163:275|127:238|71:262,1,140,2|8,3:2|3:1,0:0:0:0:
139,368,53655,1,2,0:0:0:0:
139,368,53876,2,0,B|89:390|53:353|1:366,1,140,2|8,3:2|3:1,0:0:0:0:
2,235,54538,5,2,0:0:0:0:
2,235,54758,2,0,P|-19:169|2:103,1,140,2|8,3:2|3:1,0:0:0:0:
99,33,55420,1,2,0:0:0:0:
99,33,55641,2,0,P|120:98|98:164,1,140,2|8,3:2|3:1,0:0:0:0:
226,198,56302,6,0,L|232:233,1,35,2|0,0:0|0:0,0:0:0:0:
209,262,56523,2,0,B|238:278|238:278|288:249|339:278,1,140,2|8,3:2|3:1,0:0:0:0:
343,163,57185,1,2,0:0:0:0:
343,163,57405,2,0,B|394:192|444:163|444:163|473:179,1,140,2|8,3:2|3:1,0:0:0:0:
379,79,58067,5,2,0:0:0:0:
379,79,58288,2,0,P|366:22|347:66,1,140,2|8,3:2|3:1,0:0:0:0:
231,102,58950,1,2,0:0:0:0:
231,102,59171,2,0,P|243:44|262:89,1,140,2|8,3:2|3:1,0:0:0:0:
317,160,59832,5,2,0:0:0:0:
403,215,60052,2,0,P|382:242|350:256,1,70,2|0,3:2|0:0,0:0:0:0:
233,206,60494,2,0,P|219:174|223:139,1,70,10|0,3:1|0:0,0:0:0:0:
324,67,60935,2,0,P|358:70|386:91,1,70,2|0,3:2|0:0,0:0:0:0:
317,160,61376,5,2,3:2:0:0:
317,160,61597,1,2,3:2:0:0:
282,254,61817,5,2,3:2:0:0:
192,282,62038,1,2,0:0:0:0:
98,269,62258,1,2,1:2:0:0:
47,189,62479,1,2,3:2:0:0:
173,27,62920,5,2,1:2:0:0:
266,14,63140,1,10,1:1:0:0:
341,70,63361,1,2,3:2:0:0:
279,137,63582,5,0,3:2:0:0:
279,137,63692,1,0,3:2:0:0:
279,137,63802,2,0,P|252:121|212:127,1,70,0|0,3:2|3:3,0:0:0:0:
127,194,64244,1,6,3:2:0:0:
222,252,64464,2,0,L|231:303,3,35,0|0|0|0,1:2|1:2|1:2|1:2,0:0:0:0:
291,220,64905,2,0,L|300:271,3,35,0|0|0|0,1:2|1:2|1:2|1:2,0:0:0:0:
369,269,65347,6,0,P|441:283|508:250,1,140,4|8,1:2|3:1,0:0:0:0:
425,165,66008,2,0,L|391:155,1,35,2|0,0:0|0:0,0:0:0:0:
369,126,66229,2,0,P|334:123|305:141,2,70,2|0|8,3:2|3:0|3:1,0:0:0:0:
445,35,66891,5,2,0:0:0:0:
445,35,67111,2,0,P|479:39|510:23,2,70,2|0|8,3:2|3:0|3:1,0:0:0:0:
326,22,67773,2,0,L|316:55,1,35,2|0,0:0|0:0,0:0:0:0:
285,77,67994,2,0,P|273:110|280:144,1,70,2|0,3:2|3:1,0:0:0:0:
390,119,68435,1,8,3:1:0:0:
277,328,68876,6,0,B|225:341|189:304|133:328,1,140,2|8,3:2|3:1,0:0:0:0:
22,347,69538,2,0,L|34:301,1,35,2|0,0:0|0:0,0:0:0:0:
61,291,69758,2,0,P|38:225|59:159,1,140,2|8,3:2|3:1,0:0:0:0:
23,35,70420,5,2,0:0:0:0:
23,35,70641,2,0,L|172:61,1,140,2|8,3:2|3:1,0:0:0:0:
270,14,71302,2,0,P|279:28|280:46,1,35,2|0,0:0|0:0,0:0:0:0:
290,82,71523,2,0,B|273:129|273:129|280:147,2,70,2|0|8,3:2|3:0|3:1,0:0:0:0:
373,175,72185,5,2,0:0:0:0:
373,175,72405,2,0,P|439:193|506:175,1,140,2|8,3:2|3:1,0:0:0:0:
512,59,73067,1,6,0:1:0:0:
512,59,73288,2,0,L|436:78,1,70,2|4,3:2|0:1,0:0:0:0:
338,37,73729,1,8,3:1:0:0:
245,95,73950,5,6,0:1:0:0:
245,95,74060,1,6,0:1:0:0:
245,95,74170,2,0,L|261:167,1,70,2|0,3:2|0:0,0:0:0:0:
162,203,74611,2,0,P|128:197|97:214,1,70,10|4,3:1|0:1,0:0:0:0:
236,274,75052,2,0,P|270:278|300:260,1,70,6|4,3:3|0:1,0:0:0:0:
408,236,75494,5,10,3:1:0:0:
408,236,75714,1,2,0:0:0:0:
366,332,75935,5,2,3:2:0:0:
268,368,76155,1,2,0:0:0:0:
163,369,76376,1,10,3:1:0:0:
88,293,76597,1,6,0:3:0:0:
151,104,77038,5,2,0:0:0:0:
88,187,77258,1,2,3:2:0:0:
160,264,77479,2,0,B|207:295|255:263|255:263|311:295|358:263,1,210,6|0,0:3|0:0,0:0:0:0:
447,327,78361,5,2,0:0:0:0:
447,327,78582,2,0,P|462:293|463:256,1,70,2|0,0:0|0:0,0:0:0:0:
437,164,79023,1,2,0:0:0:0:
437,164,79244,2,0,B|469:124|450:63|414:45|374:61|367:65|367:65|358:61|318:45|286:77|278:117|302:165|302:165|334:221|318:269|318:269|302:309|254:325|254:325|206:309|190:269|190:269|174:221|206:165|206:165|230:117|222:77|190:45|150:61|142:65|142:65|134:61|102:45|61:60|30:117|86:181,1,1050,2|4,0:0|0:2,0:0:0:0:
