osu file format v14

[General]
AudioFilename: audio.mp3
AudioLeadIn: 0
PreviewTime: 52165
Countdown: 0
SampleSet: Soft
StackLeniency: 0.3
Mode: 0
LetterboxInBreaks: 0
WidescreenStoryboard: 1

[Editor]
Bookmarks: 5586,16253,27581,37586,53586,74753,82920,93586,104248,114920,130920,152086,162920,173586,181586,189920,200253,210920,229586
DistanceSpacing: 1.3
BeatDivisor: 4
GridSize: 4
TimelineZoom: 1.6

[Metadata]
Title:Suisei ni Nareta nara
TitleUnicode:彗星になれたなら
Artist:Harumaki Gohan feat. Hatsune Miku
ArtistUnicode:はるまきごはん feat. 初音ミク
Creator:torriru
Version:Hard
Source:
Tags:japanese vocaloid if i could be a comet jpop j-pop pop futarino ふたりの nana lili shirahane suou my angel ram
BeatmapID:2784504
BeatmapSetID:1344515

[Difficulty]
HPDrainRate:4
CircleSize:3.2
OverallDifficulty:6
ApproachRate:7.5
SliderMultiplier:1.4
SliderTickRate:1

[Events]
//Background and Video events
0,0,"bg.jpg",0,0
//Break Periods
2,83115,90090
2,173781,176756
//Storyboard Layer 0 (Background)
//Storyboard Layer 1 (Fail)
//Storyboard Layer 2 (Pass)
//Storyboard Layer 3 (Foreground)
//Storyboard Layer 4 (Overlay)
//Storyboard Sound Samples

[TimingPoints]
4249,333.333333333333,4,2,1,20,1,0
5249,-100,4,2,1,30,0,0
5582,-100,4,2,1,40,0,0
16248,-111.111111111111,4,2,1,50,0,0
37581,-200,4,2,1,40,0,0
42248,-111.111111111111,4,2,1,40,0,0
42915,-111.111111111111,4,2,1,50,0,0
48248,-111.111111111111,4,2,1,60,0,0
52248,-142.857142857143,4,2,1,40,0,0
53582,-100,4,2,1,70,0,1
74748,-100,4,2,1,60,0,0
81748,-100,4,2,1,20,0,0
82582,-100,4,2,1,30,0,0
82915,-100,4,2,1,40,0,0
93581,-111.111111111111,4,2,1,50,0,0
114915,-200,4,2,1,40,0,0
119415,-111.111111111111,4,2,1,40,0,0
120248,-111.111111111111,4,2,1,50,0,0
125581,-111.111111111111,4,2,1,60,0,0
129581,-142.857142857143,4,2,1,40,0,0
130915,-100,4,2,1,70,0,1
152082,-100,4,2,1,60,0,0
162915,-100,4,2,1,70,0,0
168248,-111.111111111111,4,2,1,60,0,0
170748,-111.111111111111,4,2,1,40,0,0
177581,-111.111111111111,4,2,1,20,0,0
178248,-111.111111111111,4,2,1,30,0,0
178915,-111.111111111111,4,2,1,40,0,0
179581,-111.111111111111,4,2,1,50,0,0
180248,-111.111111111111,4,2,1,60,0,0
181248,-111.111111111111,4,2,1,70,0,0
181581,-111.111111111111,4,2,1,50,0,0
186915,-111.111111111111,4,2,1,60,0,0
189915,-100,4,2,1,70,0,1
200248,-142.857142857143,4,2,1,30,0,0
210748,-142.857142857143,4,2,1,5,0,0
210915,-142.857142857143,4,2,1,20,0,0

[Colours]
Combo1 : 119,159,255
Combo2 : 85,100,255

[HitObjects]
256,192,13581,12,10,15915,1:2:0:0:
105,103,16248,6,0,L|93:166,1,62.9999980773926,2|0,1:2|1:2,0:0:0:0:
36,224,16581,2,0,P|84:248|160:212,1,125.999996154785,8|2,0:2|1:2,0:2:0:0:
235,232,17081,1,2,1:2:0:0:
235,232,17248,2,0,L|223:295,1,62.9999980773926,10|2,0:2|0:2,0:0:0:0:
216,375,17581,6,1,B|263:366|263:366|288:382|288:382|337:373,1,125.999996154785,2|10,1:2|0:2,0:2:0:0:
419,356,18081,1,10,0:2:0:0:
419,356,18248,2,0,B|392:283|392:283|420:243,1,125.999996154785,0|10,1:2|0:2,0:2:0:0:
456,170,18748,1,2,3:2:0:0:
484,92,18915,6,0,B|453:69|415:88|431:94|395:110|365:93,1,125.999996154785,2|10,1:2|0:2,0:2:0:0:
301,41,19415,2,1,B|273:81|273:81|300:153,1,125.999996154785,2|0,0:2|1:2,0:2:0:0:
330,229,19915,1,8,0:2:0:0:
443,363,20248,6,0,L|380:373,1,62.9999980773926,0|0,1:2|1:2,0:0:0:0:
311,318,20581,2,0,L|248:307,1,62.9999980773926,8|8,0:2|0:2,0:0:0:0:
175,357,20915,2,0,L|153:230,1,125.999996154785,2|8,1:2|0:2,0:2:0:0:
102,160,21415,1,2,0:2:0:0:
137,79,21581,6,0,B|184:70|184:70|209:86|209:86|258:77,2,125.999996154785,2|8|0,1:2|0:2|1:2,0:2:0:0:
52,88,22415,1,0,1:2:0:0:
52,88,22581,1,8,0:2:0:0:
206,172,22915,6,0,L|276:159,1,62.9999980773926,2|0,1:2|1:2,0:2:0:0:
339,107,23248,1,10,0:2:0:0:
339,107,23415,1,8,0:2:0:0:
422,133,23581,2,0,L|432:195,1,62.9999980773926,2|0,1:2|1:2,0:2:0:0:
350,230,23915,2,0,L|339:292,1,62.9999980773926,10|0,0:2|3:2,0:0:0:0:
395,359,24248,6,1,P|338:381|282:357,1,125.999996154785,2|10,1:2|0:2,0:2:0:0:
194,373,24748,2,0,B|166:333|166:333|193:260,1,125.999996154785,2|0,0:2|1:2,0:2:0:0:
232,182,25248,1,8,0:2:0:0:
396,246,25581,6,0,L|407:179,1,62.9999980773926,0|0,1:2|1:2,0:0:0:0:
471,123,25915,2,8,L|459:56,1,62.9999980773926,8|8,0:2|0:3,0:2:0:0:
448,23,26165,1,8,0:3:0:0:
448,23,26248,2,0,L|381:11,1,62.9999980773926,8|8,1:3|0:3,0:2:0:0:
320,70,26581,1,4,0:3:0:0:
320,70,26748,1,4,0:3:0:0:
235,43,26915,6,0,L|168:54,1,62.9999980773926,6|0,1:2|1:2,0:2:0:0:
102,1,27248,2,0,P|78:49|114:125,1,125.999996154785,8|2,0:2|1:2,0:2:0:0:
187,147,27748,1,2,1:2:0:0:
187,147,27915,2,0,L|175:213,1,62.9999980773926,10|2,0:2|0:2,0:0:0:0:
145,291,28248,6,0,B|175:313|213:294|197:288|233:272|263:289,1,125.999996154785,0|10,1:0|0:2,0:0:0:0:
342,342,28748,1,10,0:2:0:0:
342,342,28915,2,0,L|364:215,1,125.999996154785,0|10,1:2|0:2,0:2:0:0:
422,152,29415,1,2,0:2:0:0:
422,152,29581,6,0,P|374:128|298:164,1,125.999996154785,2|10,1:2|0:2,0:2:0:0:
249,216,30082,1,2,0:2:0:0:
249,216,30248,1,0,1:0:0:0:
279,55,30581,2,0,L|217:46,1,62.9999980773926,10|2,0:2|0:2,0:0:0:0:
159,106,30915,2,0,L|97:114,1,62.9999980773926,0|0,1:2|1:2,0:2:0:0:
37,57,31248,1,8,0:2:0:0:
88,212,31582,6,0,B|60:252|60:252|87:325,1,125.999996154785,2|10,1:2|0:2,0:2:0:0:
171,368,32081,1,2,0:2:0:0:
171,368,32248,2,0,B|201:345|239:364|223:370|259:386|289:369,2,125.999996154785,2|8|0,1:2|0:2|1:2,0:2:0:0:
91,329,33081,1,0,1:2:0:0:
91,329,33248,1,10,0:2:0:0:
141,173,33581,6,0,L|207:184,1,62.9999980773926,2|0,1:2|1:2,0:2:0:0:
278,229,33915,1,10,0:2:0:0:
278,229,34081,1,8,0:2:0:0:
343,179,34248,2,0,L|405:168,1,62.9999980773926,2|0,1:2|1:2,0:2:0:0:
472,215,34581,2,0,L|461:277,1,62.9999980773926,10|8,0:2|0:2,0:0:0:0:
446,358,34915,6,0,P|389:381|332:356,2,125.999996154785,2|8|2,1:2|0:2|1:2,0:2:0:0:
467,281,35748,1,0,1:2:0:0:
467,281,35915,1,0,1:2:0:0:
256,192,37582,12,0,39582,0:0:0:0:
256,192,40248,12,0,41748,0:0:0:0:
69,347,42081,5,0,1:2:0:0:
69,347,42165,1,0,1:2:0:0:
69,347,42248,2,0,L|131:336,1,62.9999980773926,10|0,0:2|1:2,0:0:0:0:
196,285,42581,2,0,L|258:296,1,62.9999980773926,2|0,0:2|0:0,0:0:0:0:
317,353,42915,6,0,P|359:366|407:346,2,94.499997116089,2|0|0,1:2|1:0|1:0,0:2:0:0:
341,274,43581,2,0,L|352:212,1,62.9999980773926,8|0,1:2|0:0,0:2:0:0:
418,162,43915,2,0,L|407:100,1,62.9999980773926,2|0,0:2|1:2,0:0:0:0:
392,19,44248,6,0,P|360:-1|264:31,1,125.999996154785,2|0,3:2|0:0,0:0:0:0:
114,1,44915,2,0,L|125:63,1,62.9999980773926,10|0,0:2|0:2,0:2:0:0:
183,121,45248,2,0,L|172:183,1,62.9999980773926,2|8,1:2|0:2,0:0:0:0:
134,256,45582,6,0,P|176:269|224:249,2,94.499997116089,2|0|0,1:2|1:0|1:0,0:2:0:0:
52,243,46248,2,0,L|41:305,1,62.9999980773926,10|0,0:2|1:2,0:0:0:0:
80,377,46581,2,0,L|142:366,1,62.9999980773926,10|4,0:3|1:3,0:0:0:0:
222,347,46915,1,4,1:2:0:0:
222,347,47082,1,0,1:2:0:0:
265,277,47248,6,0,L|254:215,1,62.9999980773926,10|8,0:2|0:2,0:0:0:0:
229,189,47498,1,8,0:2:0:0:
229,189,47581,2,0,L|240:127,1,62.9999980773926,10|8,0:2|0:3,0:2:0:0:
257,46,47915,1,6,1:3:0:0:
392,137,48248,6,0,B|465:110|465:110|505:138,2,125.999996154785,6|10|2,1:2|0:2|1:2,0:2:0:0:
315,177,49081,1,0,1:2:0:0:
315,177,49248,2,0,L|326:239,1,62.9999980773926,10|0,0:2|0:2,0:2:0:0:
276,312,49581,6,1,P|334:330|391:306,2,125.999996154785,2|10|3,1:2|0:2|1:2,0:2:0:0:
226,245,50415,1,8,1:3:0:0:
226,245,50581,2,0,L|237:183,1,62.9999980773926,10|4,0:2|0:3,0:2:0:0:
288,110,50915,2,0,L|277:48,1,62.9999980773926,6|0,1:2|0:2,0:2:0:0:
195,14,51248,6,0,L|151:21,3,31.4999990386963,8|0|0|0,0:2|1:2|1:2|1:2,0:0:0:0:
130,47,51581,2,0,L|98:41,3,31.4999990386963,8|0|0|0,0:2|1:2|1:2|1:2,0:0:0:0:
64,13,51915,2,0,L|32:18,3,31.4999990386963,8|8|8|8,0:2|0:2|0:2|0:2,0:0:0:0:
14,47,52248,6,0,L|30:143,2,97.9999970092774,10|2|2,0:2|0:2|0:2,0:2:0:0:
14,47,53248,1,2,0:2:0:0:
49,240,53582,6,1,B|83:265|126:244|108:237|148:219|182:238,2,140,6|8|2,1:2|0:2|1:2,0:2:0:0:
80,157,54415,1,0,1:2:0:0:
80,157,54581,2,0,L|66:83,1,70,10|0,0:2|0:2,0:0:0:0:
116,11,54915,6,0,P|176:-12|247:17,2,140,2|8|2,1:2|0:2|1:2,0:2:0:0:
184,78,55748,1,0,1:2:0:0:
184,78,55915,2,0,L|198:152,1,70,10|0,0:2|0:2,0:0:0:0:
226,232,56248,6,0,B|306:261|306:261|351:230,2,140,6|8|0,1:2|0:2|1:2,0:2:0:0:
140,219,57081,1,0,1:2:0:0:
140,219,57248,1,8,0:2:0:0:
251,363,57582,6,0,L|388:338,1,140,2|10,1:2|0:2,0:2:0:0:
455,277,58081,1,0,1:2:0:0:
455,277,58248,2,0,L|469:208,1,70,2|0,0:2|1:2,0:0:0:0:
402,146,58581,2,0,L|389:77,1,70,10|0,0:2|1:2,0:0:0:0:
453,12,58915,6,1,B|373:-17|373:-17|328:14,2,140,6|10|2,1:2|0:2|1:2,0:2:0:0:
394,82,59748,1,0,1:2:0:0:
394,82,59915,2,0,L|408:150,1,70,8|0,0:2|0:2,0:2:0:0:
427,239,60248,6,0,L|358:252,1,70,2|0,1:2|0:2,0:2:0:0:
288,310,60581,2,0,L|219:296,1,70,10|0,0:2|0:2,0:0:0:0:
136,330,60915,1,2,1:2:0:0:
136,330,61081,1,0,1:2:0:0:
66,270,61248,1,10,0:2:0:0:
144,105,61581,6,1,B|93:114|93:114|65:96|65:96|12:106,2,140,4|8|1,1:2|0:2|1:2,0:2:0:0:
208,39,62415,1,0,1:2:0:0:
208,39,62581,2,0,L|287:53,1,70,8|0,0:2|1:3,0:2:0:0:
336,120,62915,2,0,L|406:108,1,70,2|0,0:2|1:2,0:2:0:0:
471,170,63248,2,0,L|459:238,1,70,10|0,0:2|1:2,0:0:0:0:
392,310,63581,1,10,0:2:0:0:
315,261,63748,1,8,0:2:0:0:
235,323,63915,1,10,0:2:0:0:
235,323,63998,1,8,0:2:0:0:
235,323,64082,2,0,L|242:368,2,35,8|8|2,0:2|0:2|1:2,0:0:0:0:
54,317,64581,6,0,L|66:247,1,70,14|0,0:2|0:2,0:2:0:0:
24,168,64915,1,2,1:2:0:0:
24,168,65081,1,0,1:2:0:0:
84,98,65248,2,0,L|166:112,1,70,10|0,0:2|0:2,0:0:0:0:
223,168,65581,6,0,P|250:106|222:44,1,140,2|10,1:2|0:2,0:2:0:0:
302,10,66081,1,0,0:2:0:0:
302,10,66248,2,0,L|372:-2,1,70,2|0,1:2|1:2,0:0:0:0:
441,57,66581,2,0,L|429:125,1,70,10|0,0:2|0:2,0:2:0:0:
486,197,66915,6,0,B|442:228|442:228|361:199,1,140,6|10,1:2|0:2,0:2:0:0:
268,185,67415,1,8,0:2:0:0:
268,185,67581,2,0,L|281:254,1,70,2|8,0:2|0:3,0:2:0:0:
217,318,67915,2,0,L|148:306,1,70,6|4,0:3|1:3,0:0:0:0:
59,290,68248,1,0,1:2:0:0:
52,108,68581,6,0,L|39:38,1,70,10|0,0:2|1:2,0:2:0:0:
133,0,68915,1,2,0:2:0:0:
133,0,69081,1,0,1:2:0:0:
213,44,69248,2,0,L|283:57,1,70,10|0,0:2|0:2,0:2:0:0:
361,10,69581,6,1,B|414:1|414:1|442:19|442:19|495:9,2,140,6|10|3,1:2|0:2|1:2,0:2:0:0:
396,97,70415,1,0,1:2:0:0:
396,97,70581,2,0,L|383:168,1,70,10|0,0:2|0:2,0:2:0:0:
449,230,70915,6,0,P|387:259|324:231,1,140,2|8,1:2|0:2,0:2:0:0:
248,182,71415,1,0,0:2:0:0:
248,182,71581,2,0,L|260:114,1,70,2|0,1:2|1:2,0:2:0:0:
213,36,71915,1,10,0:2:0:0:
213,36,72081,1,2,0:2:0:0:
138,87,72248,6,1,B|104:68|64:86|82:93|39:114|5:89,1,140,6|8,1:2|0:2,0:2:0:0:
3,184,72748,1,0,0:0:0:0:
3,184,72915,2,0,L|13:257,1,70,1|0,1:2|1:2,0:0:0:0:
32,347,73248,1,8,0:2:0:0:
32,347,73415,6,0,B|83:337|83:337|111:355|111:355|164:345,1,140,0|0,1:2|1:2,0:2:0:0:
254,378,73915,1,8,0:2:0:0:
254,378,74081,2,0,B|283:298|283:298|252:254,1,140,8|4,0:3|0:3,0:2:0:0:
189,186,74581,1,8,0:2:0:0:
195,95,74748,6,1,P|256:67|319:95,1,140,6|2,1:2|3:2,0:2:0:0:
382,159,75248,2,0,L|373:232,1,70,10|2,0:2|0:2,0:0:0:0:
337,314,75581,1,2,1:2:0:0:
337,314,75748,1,10,0:2:0:0:
162,363,76082,6,0,B|128:344|88:362|106:369|63:390|29:365,1,140,6|2,1:2|3:2,0:2:0:0:
60,279,76581,2,0,L|69:210,1,70,10|2,0:2|0:2,0:0:0:0:
16,136,76915,1,2,1:2:0:0:
16,136,77081,1,10,0:2:0:0:
150,12,77415,6,1,B|184:-13|227:8|209:15|249:33|283:14,1,140,6|2,1:2|3:2,0:2:0:0:
362,59,77915,2,0,L|353:129,1,70,10|2,0:2|0:2,0:0:0:0:
337,223,78249,1,2,1:2:0:0:
337,223,78415,1,10,0:2:0:0:
457,360,78748,6,0,B|404:350|404:350|376:368|376:368|325:358,1,140,6|0,1:2|3:2,0:2:0:0:
266,287,79248,2,0,L|197:295,1,70,8|0,0:2|0:2,0:2:0:0:
128,354,79581,2,0,L|59:346,2,70,2|2|10,1:2|1:2|0:2,0:0:0:0:
197,295,80081,6,1,B|226:215|226:215|194:171,1,140,6|2,1:2|3:2,0:2:0:0:
174,81,80581,2,0,L|243:89,1,70,10|2,0:2|0:2,0:0:0:0:
315,145,80915,1,2,1:2:0:0:
315,145,81081,2,0,L|384:137,1,70,10|8,0:2|0:3,0:0:0:0:
455,77,81415,1,6,1:2:0:0:
256,192,81498,12,0,82915,1:2:0:0:
256,192,90915,12,8,93248,0:2:0:0:
400,72,93581,6,0,L|412:135,1,62.9999980773926,6|0,1:2|3:2,0:2:0:0:
484,184,93915,2,0,L|472:247,1,62.9999980773926,2|0,1:2|0:2,0:2:0:0:
456,332,94248,1,2,1:2:0:0:
301,376,94581,1,2,1:2:0:0:
301,376,94748,6,1,P|277:328|313:252,1,125.999996154785,2|0,0:2|0:2,0:2:0:0:
359,207,95248,1,2,1:2:0:0:
359,207,95415,2,1,P|383:159|347:83,1,125.999996154785,2|0,0:2|0:2,0:2:0:0:
305,32,95915,1,2,1:2:0:0:
146,70,96248,6,0,B|106:42|106:42|33:69,1,125.999996154785,6|2,1:2|1:2,0:2:0:0:
2,144,96748,2,1,L|23:269,1,125.999996154785,2|0,0:2|0:2,0:2:0:0:
42,347,97248,1,2,1:2:0:0:
191,279,97581,6,0,L|266:293,1,62.9999980773926,2|0,1:2|0:2,0:2:0:0:
318,340,97915,2,0,L|393:326,1,62.9999980773926,2|0,1:2|0:2,0:2:0:0:
445,277,98248,2,9,B|472:204|472:204|444:164,1,125.999996154785,2|10,1:2|0:2,0:2:0:0:
390,101,98748,1,2,0:2:0:0:
390,101,98915,6,1,B|343:110|343:110|318:94|318:94|269:103,2,125.999996154785,6|0|1,1:2|1:2|1:2,0:2:0:0:
447,254,99915,6,0,L|372:268,1,62.9999980773926,2|0,0:2|0:2,0:2:0:0:
325,323,100249,2,0,L|250:309,1,62.9999980773926,2|8,0:2|0:1,0:2:0:0:
197,262,100581,2,0,L|122:276,1,62.9999980773926,2|0,0:2|0:2,0:2:0:0:
52,281,100915,2,0,L|66:206,1,62.9999980773926,2|0,1:2|0:2,0:2:0:0:
112,153,101248,2,0,L|98:78,1,62.9999980773926,2|8,1:2|0:1,0:2:0:0:
157,32,101581,6,1,P|109:8|33:44,2,125.999996154785,0|0|1,1:2|1:2|1:2,0:2:0:0:
105,96,102415,1,0,1:2:0:0:
105,96,102581,2,0,L|117:157,1,62.9999980773926,8|0,0:2|0:2,0:2:0:0:
55,212,102915,6,0,L|43:274,1,62.9999980773926,0|0,1:2|1:2,0:0:0:0:
86,343,103248,2,0,L|148:355,1,62.9999980773926,8|8,0:2|0:3,0:2:0:0:
185,335,103498,1,8,0:3:0:0:
185,335,103581,2,0,L|247:323,1,62.9999980773926,8|4,1:3|1:3,0:2:0:0:
328,354,103915,1,4,1:2:0:0:
328,354,104081,1,0,1:2:0:0:
398,312,104248,6,0,L|410:250,1,62.9999980773926,6|2,1:2|1:2,0:0:0:0:
465,189,104581,2,0,P|408:166|351:191,1,125.999996154785,10|2,0:2|1:2,0:2:0:0:
303,257,105081,1,2,1:2:0:0:
303,257,105248,2,0,L|241:245,1,62.9999980773926,10|2,0:2|0:2,0:0:0:0:
208,164,105581,6,1,B|161:173|161:173|136:157|136:157|87:166,1,125.999996154785,0|10,1:2|0:2,0:0:0:0:
20,112,106081,1,2,1:2:0:0:
20,112,106248,2,0,B|-7:39|-7:39|21:-1,1,125.999996154785,2|10,1:2|0:2,0:2:0:0:
100,36,106748,1,2,0:2:0:0:
100,36,106915,6,1,L|241:11,1,125.999996154785,6|10,1:2|0:2,0:2:0:0:
296,64,107415,2,1,L|420:86,1,125.999996154785,2|0,0:2|1:2,0:2:0:0:
496,44,107915,2,0,L|507:108,1,62.9999980773926,10|2,0:2|0:2,0:0:0:0:
444,168,108248,6,0,L|432:232,1,62.9999980773926,2|0,1:2|1:2,0:2:0:0:
488,300,108581,1,8,0:2:0:0:
320,356,108915,2,0,B|280:384|280:384|207:357,1,125.999996154785,2|10,1:2|0:2,0:2:0:0:
128,320,109415,1,2,1:2:0:0:
128,320,109581,6,0,L|150:196,2,125.999996154785,6|8|0,1:2|0:2|1:2,0:2:0:0:
48,356,110415,1,0,1:2:0:0:
48,356,110581,1,10,0:2:0:0:
24,180,110915,6,0,L|12:119,1,62.9999980773926,2|0,1:2|0:2,0:2:0:0:
60,44,111248,1,10,0:2:0:0:
60,44,111415,1,8,0:2:0:0:
136,88,111581,2,0,L|197:76,1,62.9999980773926,2|0,1:2|1:2,0:2:0:0:
268,24,111915,2,0,L|329:36,1,62.9999980773926,10|0,0:2|1:2,0:0:0:0:
416,56,112248,6,0,B|443:129|443:129|415:169,2,125.999996154785,6|10|2,1:2|0:2|0:2,0:2:0:0:
336,28,113081,1,0,1:2:0:0:
336,28,113248,1,6,1:2:0:0:
256,192,114915,12,4,116915,1:2:0:0:
256,192,117582,12,0,119082,0:0:0:0:
312,112,119415,5,0,1:2:0:0:
312,112,119498,1,0,1:2:0:0:
312,112,119581,2,0,L|323:176,1,62.9999980773926,10|0,0:2|1:2,0:0:0:0:
388,236,119915,2,0,L|376:300,1,62.9999980773926,2|0,0:2|0:0,0:0:0:0:
428,372,120248,6,0,L|530:353,2,94.499997116089,2|0|0,1:2|1:0|1:0,0:2:0:0:
339,372,120915,2,0,L|275:360,1,62.9999980773926,8|0,1:2|0:0,0:2:0:0:
199,318,121248,2,0,L|137:330,1,62.9999980773926,2|0,0:2|1:2,0:0:0:0:
60,375,121581,6,0,P|40:343|72:247,1,125.999996154785,2|0,0:2|0:0,0:0:0:0:
202,161,122248,2,0,L|272:174,1,62.9999980773926,10|0,0:2|0:2,0:2:0:0:
332,228,122581,2,0,L|394:218,1,62.9999980773926,2|8,0:2|0:2,0:0:0:0:
459,268,122915,6,0,L|440:370,2,94.499997116089,2|0|0,1:2|1:0|1:0,0:2:0:0:
497,194,123581,2,0,L|487:132,1,62.9999980773926,10|8,0:2|0:3,0:0:0:0:
444,53,123915,2,0,L|382:63,1,62.9999980773926,6|4,0:3|1:3,0:0:0:0:
309,113,124248,2,0,L|247:103,1,62.9999980773926,4|8,1:2|0:3,0:2:0:0:
184,40,124581,6,0,L|122:50,1,62.9999980773926,10|0,1:3|1:2,0:0:0:0:
91,82,124832,1,0,1:2:0:0:
91,82,124915,2,0,L|81:144,1,62.9999980773926,10|4,0:2|0:3,0:2:0:0:
122,222,125248,1,6,1:3:0:0:
229,361,125581,6,1,P|287:381|344:357,2,125.999996154785,6|10|3,1:2|0:2|1:2,0:2:0:0:
163,310,126415,1,0,1:2:0:0:
163,310,126581,2,0,L|153:248,1,62.9999980773926,10|0,0:2|0:2,0:2:0:0:
145,159,126915,6,0,L|282:184,2,125.999996154785,6|10|2,1:2|0:2|1:2,0:2:0:0:
62,145,127748,1,8,1:3:0:0:
62,145,127915,2,0,L|72:83,1,62.9999980773926,10|0,0:2|1:2,0:2:0:0:
138,24,128248,2,0,L|200:34,1,62.9999980773926,6|0,1:2|1:2,0:2:0:0:
275,79,128581,6,0,L|319:72,3,31.4999990386963,8|0|0|0,0:2|1:2|1:2|1:2,0:0:0:0:
346,91,128915,2,0,L|378:97,3,31.4999990386963,8|0|0|0,0:2|1:2|1:2|1:2,0:0:0:0:
415,75,129248,2,0,L|447:70,3,31.4999990386963,8|8|8|8,0:2|0:2|0:2|0:2,0:0:0:0:
473,94,129581,6,0,L|456:193,2,97.9999970092774,10|2|2,0:2|0:2|0:2,0:2:0:0:
473,94,130582,1,2,0:2:0:0:
436,286,130915,6,1,B|383:296|383:296|355:278|355:278|302:288,2,140,6|8|2,1:2|0:2|1:2,0:2:0:0:
464,194,131748,1,0,1:2:0:0:
464,194,131915,2,0,L|452:124,1,70,10|0,0:2|0:2,0:0:0:0:
436,28,132248,6,0,P|373:6|308:32,2,140,2|8|2,1:2|0:2|1:2,0:2:0:0:
378,108,133081,1,0,1:2:0:0:
378,108,133248,2,0,L|366:178,1,70,10|0,0:2|0:2,0:0:0:0:
310,257,133581,6,0,L|169:282,2,140,6|8|0,1:2|0:2|1:2,0:2:0:0:
402,304,134415,1,0,1:2:0:0:
402,304,134581,1,8,0:2:0:0:
233,374,134915,6,0,B|199:399|156:378|174:371|134:353|100:372,1,140,2|10,1:2|0:2,0:2:0:0:
33,318,135415,1,0,1:2:0:0:
33,318,135581,2,0,L|44:248,1,70,2|0,0:2|1:2,0:0:0:0:
109,185,135915,2,0,L|96:110,1,70,10|0,0:2|1:2,0:0:0:0:
128,30,136248,6,1,B|83:-1|83:-1|0:30,2,140,6|10|2,1:2|0:2|1:2,0:2:0:0:
200,94,137081,1,0,1:2:0:0:
200,94,137248,2,0,L|270:83,1,70,8|0,0:2|0:2,0:2:0:0:
360,40,137581,6,0,L|430:51,1,70,2|0,1:2|0:2,0:2:0:0:
508,108,137915,1,10,0:2:0:0:
508,108,138081,1,0,0:2:0:0:
428,164,138248,2,0,L|439:234,1,70,2|0,1:2|1:2,0:0:0:0:
508,304,138581,1,10,0:2:0:0:
316,348,138915,6,1,L|341:207,2,140,4|8|1,1:2|0:2|1:2,0:2:0:0:
228,376,139748,1,0,1:2:0:0:
228,376,139915,2,0,L|158:365,1,70,8|0,0:2|1:3,0:2:0:0:
116,276,140248,6,0,L|105:206,1,70,2|0,0:2|1:2,0:2:0:0:
196,168,140581,2,0,L|207:98,1,70,10|0,0:2|1:2,0:0:0:0:
157,22,140915,1,10,0:2:0:0:
67,37,141081,1,8,0:2:0:0:
46,124,141248,1,10,0:2:0:0:
46,124,141331,1,8,0:2:0:0:
46,124,141415,2,0,L|11:118,2,35,8|8|2,0:2|0:2|1:2,0:0:0:0:
103,298,141915,6,0,L|172:287,1,70,14|0,0:2|0:2,0:2:0:0:
250,336,142248,1,2,1:2:0:0:
250,336,142415,1,0,1:2:0:0:
313,272,142581,2,0,L|302:203,1,70,10|0,0:2|0:2,0:0:0:0:
341,120,142915,6,0,L|272:109,1,70,2|0,1:2|0:2,0:2:0:0:
202,49,143248,2,0,B|172:129|172:129|203:174,1,140,10|2,0:2|1:2,0:2:0:0:
277,235,143748,1,0,1:2:0:0:
277,235,143915,2,0,L|266:304,1,70,10|0,0:2|0:2,0:2:0:0:
341,355,144248,6,0,P|405:383|469:351,1,140,6|10,1:2|0:2,0:2:0:0:
402,297,144748,1,8,0:2:0:0:
402,297,144915,2,0,L|413:228,1,70,2|8,0:2|0:3,0:2:0:0:
456,147,145248,2,0,L|445:78,1,70,6|4,0:3|1:3,0:0:0:0:
368,28,145581,1,0,1:2:0:0:
187,4,145915,6,0,L|118:15,1,70,10|0,0:2|1:2,0:2:0:0:
49,74,146248,1,2,0:2:0:0:
49,74,146415,1,0,1:2:0:0:
108,142,146581,2,0,L|119:211,1,70,10|0,0:2|0:2,0:2:0:0:
137,300,146915,6,1,B|84:309|84:309|56:291|56:291|3:301,2,140,6|10|3,1:2|0:2|1:2,0:2:0:0:
214,250,147748,1,0,1:2:0:0:
214,250,147915,2,0,L|283:261,1,70,10|0,0:2|0:2,0:2:0:0:
349,323,148248,2,0,B|429:353|429:353|474:322,1,140,2|8,1:2|0:2,0:2:0:0:
436,245,148748,1,0,0:2:0:0:
436,245,148915,2,0,L|448:177,1,70,2|0,1:2|1:2,0:2:0:0:
493,98,149248,1,10,0:2:0:0:
493,98,149414,1,2,0:2:0:0:
416,49,149581,6,1,B|336:79|336:79|291:48,1,140,6|8,1:2|0:2,0:2:0:0:
213,11,150081,1,0,0:0:0:0:
213,11,150248,2,0,L|140:21,1,70,1|0,1:2|1:2,0:0:0:0:
75,83,150581,1,8,0:2:0:0:
75,83,150748,6,0,B|49:225,1,140,0|0,1:2|1:2,0:2:0:0:
38,314,151248,1,8,0:2:0:0:
38,314,151414,2,0,B|118:343|118:343|162:312,1,140,8|4,0:3|0:3,0:2:0:0:
234,254,151914,1,8,0:2:0:0:
234,254,152082,6,1,B|287:263|287:263|315:245|315:245|368:255,1,140,6|2,1:2|3:2,0:2:0:0:
455,272,152581,2,0,L|446:203,1,70,10|2,0:2|0:2,0:0:0:0:
441,115,152914,1,2,1:2:0:0:
441,115,153081,1,10,0:2:0:0:
284,22,153414,6,1,L|146:47,1,140,6|2,1:2|3:2,0:2:0:0:
69,96,153915,2,0,L|60:165,1,70,10|2,0:2|0:2,0:0:0:0:
86,257,154248,1,2,1:2:0:0:
86,257,154414,1,10,0:2:0:0:
233,364,154748,6,1,B|267:383|307:365|289:358|332:337|366:362,1,140,6|2,1:2|3:2,0:2:0:0:
449,326,155248,2,0,L|440:256,1,70,10|2,0:2|0:2,0:0:0:0:
395,182,155582,1,2,1:2:0:0:
395,182,155748,1,10,0:2:0:0:
492,28,156081,6,0,B|439:38|439:38|411:20|411:20|360:30,1,140,4|0,1:2|3:2,0:2:0:0:
284,78,156581,2,0,L|215:70,1,70,8|0,0:2|0:2,0:2:0:0:
137,19,156915,2,0,L|68:27,2,70,0|0|8,1:2|1:2|0:2,0:0:0:0:
214,69,157414,6,1,B|243:149|243:149|211:193,1,140,6|2,1:2|3:2,0:2:0:0:
149,261,157915,2,0,L|157:330,1,70,10|2,0:2|0:2,0:0:0:0:
236,384,158248,1,2,1:2:0:0:
236,384,158415,1,10,0:2:0:0:
45,338,158748,6,1,L|69:201,1,140,6|2,1:2|3:2,0:2:0:0:
147,153,159248,2,0,L|139:84,1,70,10|2,0:2|0:2,0:0:0:0:
81,20,159581,1,2,1:2:0:0:
81,20,159748,1,10,0:2:0:0:
245,97,160081,6,1,B|298:107|298:107|326:89|326:89|377:99,1,140,6|2,1:2|3:2,0:2:0:0:
466,119,160581,2,0,L|474:188,1,70,10|2,0:2|0:2,0:0:0:0:
443,277,160914,1,2,1:2:0:0:
443,277,161081,1,10,0:2:0:0:
284,367,161415,6,1,B|250:386|210:368|228:361|185:340|151:365,1,140,6|2,1:2|3:2,0:2:0:0:
67,329,161915,2,0,L|80:251,1,70,10|2,0:2|0:2,0:0:0:0:
95,170,162248,2,0,L|163:183,2,70,2|2|2,1:2|0:2|1:2,0:0:0:0:
57,86,162748,1,2,0:2:0:0:
134,37,162915,6,0,B|214:8|214:8|258:40,2,140,6|10|2,1:2|0:2|1:2,0:2:0:0:
61,90,163748,1,2,1:2:0:0:
61,90,163915,2,0,L|71:163,1,70,10|2,0:2|1:2,0:0:0:0:
18,235,164248,6,0,L|8:308,1,70,2|2,0:2|1:2,0:0:0:0:
68,373,164581,1,8,0:2:0:0:
68,373,164748,2,1,B|102:392|142:374|124:367|167:346|201:371,1,140,2|2,0:2|1:2,0:2:0:0:
283,322,165248,1,10,0:2:0:0:
283,322,165415,6,0,L|273:253,1,70,2|0,0:2|1:2,0:2:0:0:
215,182,165748,1,2,1:2:0:0:
215,182,165915,2,0,L|224:113,1,70,10|0,0:2|0:2,0:0:0:0:
292,40,166248,2,0,B|345:50|345:50|373:32|373:32|424:42,1,140,2|10,1:2|0:2,0:2:0:0:
468,128,166748,1,2,1:2:0:0:
468,128,166915,6,0,L|458:198,1,70,2|2,0:2|1:2,0:0:0:0:
508,280,167248,1,8,0:2:0:0:
508,280,167415,2,1,P|460:300|380:256,1,140,2|6,0:2|0:3,0:2:0:0:
328,184,167915,2,0,L|258:194,1,70,6|4,0:3|1:3,0:2:0:0:
160,208,168248,6,0,B|128:252|128:252|157:332,1,125.999996154785,6|8,1:2|0:2,0:2:0:0:
320,380,168915,2,0,L|330:318,1,62.9999980773926,2|2,0:2|1:2,0:0:0:0:
400,264,169248,2,0,L|389:202,1,62.9999980773926,2|10,0:2|0:2,0:0:0:0:
368,116,169581,1,2,0:2:0:0:
220,16,169915,2,0,L|206:91,1,62.9999980773926,10|6,0:3|1:3,0:0:0:0:
140,132,170248,2,0,L|65:146,2,62.9999980773926,2|0|2,0:2|1:2|1:2,0:2:0:0:
184,208,170748,1,6,1:2:0:0:
256,192,170831,12,2,172248,0:2:0:0:
256,192,173581,5,2,0:2:0:0:
256,192,177581,12,10,181248,0:3:0:0:
452,326,181581,6,0,P|404:350|328:314,1,125.999996154785,6|0,1:2|0:2,0:2:0:0:
404,252,182081,1,0,1:2:0:0:
404,252,182165,1,0,1:2:0:0:
404,252,182248,2,0,L|415:185,1,62.9999980773926,8|0,0:2|1:2,0:0:0:0:
436,104,182581,1,0,0:0:0:0:
276,28,182915,6,0,B|204:1|204:1|164:29,1,125.999996154785,2|2,1:2|0:2,0:2:0:0:
100,88,183415,1,0,1:2:0:0:
100,88,183581,2,0,L|110:151,1,62.9999980773926,10|0,0:2|0:2,0:2:0:0:
176,208,183915,2,0,L|165:271,1,62.9999980773926,10|0,0:2|0:2,0:2:0:0:
106,342,184248,6,0,P|163:365|220:341,1,125.999996154785,6|2,1:2|0:2,0:2:0:0:
392,292,184915,2,0,L|381:230,1,62.9999980773926,10|0,0:2|0:2,0:2:0:0:
436,160,185248,2,0,L|446:98,1,62.9999980773926,2|0,0:2|0:2,0:2:0:0:
392,28,185581,6,0,L|267:50,2,125.999996154785,2|2|10,1:2|1:2|0:2,0:2:0:0:
446,98,186415,1,0,0:2:0:0:
446,98,186581,2,0,L|435:161,1,62.9999980773926,10|0,0:2|0:2,0:2:0:0:
376,224,186915,6,1,B|384:272|384:272|368:297|368:297|377:344,2,125.999996154785,6|8|9,1:2|0:2|0:2,0:2:0:0:
308,172,187748,1,0,0:2:0:0:
308,172,187915,2,0,L|245:183,1,62.9999980773926,8|0,0:2|1:2,0:2:0:0:
192,252,188248,6,0,L|129:242,1,62.9999980773926,2|0,1:2|1:2,0:2:0:0:
62,195,188582,2,0,L|52:132,1,62.9999980773926,10|0,0:2|1:2,0:0:0:0:
39,52,188915,1,2,1:2:0:0:
112,17,189081,1,8,0:3:0:0:
186,57,189248,1,10,0:2:0:0:
186,57,189331,1,8,0:2:0:0:
186,57,189415,2,0,L|230:65,2,31.4999990386963,8|8|2,0:2|0:2|1:2,0:0:0:0:
351,12,189915,6,0,L|365:87,1,70,14|0,0:2|0:2,0:2:0:0:
359,168,190248,1,2,1:2:0:0:
359,168,190415,1,0,1:2:0:0:
429,226,190582,2,0,L|418:295,1,70,10|0,0:2|0:2,0:0:0:0:
376,377,190915,6,0,L|301:364,1,70,2|0,1:2|0:2,0:2:0:0:
225,326,191248,2,0,L|156:339,1,70,10|0,0:2|0:2,0:2:0:0:
71,358,191581,1,2,1:2:0:0:
71,358,191748,1,0,1:2:0:0:
17,285,191915,2,0,L|29:217,1,70,10|0,0:2|0:2,0:2:0:0:
50,128,192248,6,0,B|84:103|127:124|109:131|149:149|183:130,1,140,6|10,1:2|0:2,0:2:0:0:
264,79,192748,1,8,0:2:0:0:
264,79,192915,2,0,L|276:148,1,70,2|8,0:2|0:3,0:2:0:0:
335,217,193248,1,6,0:3:0:0:
411,169,193415,1,4,1:3:0:0:
482,225,193581,6,0,L|469:294,1,70,0|0,1:2|0:2,0:2:0:0:
399,355,193915,2,0,L|330:343,1,70,10|0,0:2|1:2,0:2:0:0:
255,295,194248,2,0,L|186:308,1,70,2|0,0:2|1:2,0:0:0:0:
96,322,194581,1,10,0:2:0:0:
111,141,194915,6,1,B|164:152|164:152|192:134|192:134|246:143,2,140,6|10|3,1:2|0:2|1:2,0:2:0:0:
34,181,195748,1,0,1:2:0:0:
34,181,195915,2,0,L|46:250,1,70,10|0,0:2|0:2,0:2:0:0:
96,322,196248,6,0,P|158:348|220:321,2,140,2|8|2,1:2|0:2|1:2,0:2:0:0:
157,248,197081,1,0,1:2:0:0:
157,248,197248,2,0,L|225:236,1,70,10|2,0:2|0:2,0:0:0:0:
315,219,197581,6,1,B|344:140|344:140|313:95,2,140,6|8|1,1:2|0:2|1:2,0:2:0:0:
310,307,198415,1,0,1:2:0:0:
310,307,198582,2,0,L|378:295,1,70,8|0,0:2|1:2,0:0:0:0:
451,351,198915,6,0,P|477:289|449:227,1,140,2|8,0:2|0:2,0:0:0:0:
373,176,199415,1,8,0:3:0:0:
373,176,199581,2,0,L|385:108,1,70,0|4,0:2|0:3,0:0:0:0:
405,18,199915,2,0,L|337:30,1,70,10|8,0:2|0:0,0:0:0:0:
244,28,200248,6,0,P|228:80|244:124,1,97.9999970092774,6|2,1:2|0:2,0:2:0:0:
284,208,200915,2,0,P|300:260|284:304,1,97.9999970092774,2|2,0:2|0:2,0:2:0:0:
202,351,201581,1,2,0:2:0:0:
114,306,201915,2,0,L|134:192,1,97.9999970092774,2|2,0:2|0:2,0:2:0:0:
64,138,202581,1,2,0:2:0:0:
111,53,202915,6,0,P|156:37|202:51,1,97.9999970092774,2|2,0:2|0:2,0:2:0:0:
277,115,203581,2,0,P|323:130|368:114,1,97.9999970092774,2|2,0:2|0:2,0:2:0:0:
452,64,204248,1,2,0:2:0:0:
484,157,204581,2,0,L|467:254,2,97.9999970092774,2|2|2,0:2|0:2|0:2,0:0:0:0:
452,64,205581,6,0,P|406:48|360:63,1,97.9999970092774,2|2,0:2|0:2,0:0:0:0:
280,119,206248,2,0,P|233:134|188:118,1,97.9999970092774,2|2,0:2|0:2,0:0:0:0:
117,51,206915,2,0,L|98:154,1,97.9999970092774,2|2,0:2|0:2,0:2:0:0:
51,233,207581,2,0,P|96:250|142:235,2,97.9999970092774,2|2|2,0:2|0:2|0:2,0:2:0:0:
256,192,208331,12,2,210915,0:2:0:0:
