osu file format v14

[General]
AudioFilename: audio.mp3
AudioLeadIn: 0
PreviewTime: 51966
Countdown: 0
SampleSet: Soft
StackLeniency: 0.5
Mode: 0
LetterboxInBreaks: 0
WidescreenStoryboard: 1

[Editor]
DistanceSpacing: 1
BeatDivisor: 4
GridSize: 4
TimelineZoom: 2.6

[Metadata]
Title:Suisei ni Nareta nara
TitleUnicode:彗星になれたなら
Artist:Harumaki Gohan feat. Hatsune Miku
ArtistUnicode:はるまきごはん feat. 初音ミク
Creator:Remapper
Version:Kuse's Comet
Source:
Tags:kuse KuBsNia_ZhoYL_ Hakusui3820 japanese vocaloid if i could be a comet jpop j-pop pop futarino ふたりの nana lili
BeatmapID:2534206
BeatmapSetID:1215982

[Difficulty]
HPDrainRate:6
CircleSize:4.2
OverallDifficulty:8.8
ApproachRate:9.2
SliderMultiplier:1.6
SliderTickRate:0.5

[Events]
//Background and Video events
Video,0,"video.mp4"
0,0,"bg.jpg",0,0
//Break Periods
2,173513,176743
//Storyboard Layer 0 (Background)
//Storyboard Layer 1 (Fail)
//Storyboard Layer 2 (Pass)
//Storyboard Layer 3 (Foreground)
//Storyboard Layer 4 (Overlay)
//Storyboard Sound Samples

[TimingPoints]
3980,333.333333333333,4,2,1,30,1,0
4146,-125,4,2,1,10,0,0
4979,-125,4,2,1,30,0,0
5313,-333.333333333333,4,2,1,25,0,0
9979,-200,4,2,1,30,0,0
10646,-333.333333333333,4,2,1,30,0,0
13313,-333.333333333333,4,2,1,30,0,0
15313,-222.222222222222,4,2,1,40,0,0
15563,-166.666666666667,4,2,1,5,0,0
15646,-83.3333333333333,4,2,1,70,0,0
15980,-100,4,2,1,60,0,0
37313,-172.413793103448,4,2,1,60,0,0
39146,-100,4,2,1,5,0,0
39313,-333.333333333333,4,2,1,60,0,0
39813,-333.333333333333,4,2,1,5,0,0
39979,-100,4,2,1,60,0,0
41979,-200,4,2,1,60,0,0
42646,-133.333333333333,4,2,1,60,0,0
42813,-133.333333333333,4,2,1,5,0,0
42896,-133.333333333333,4,2,1,60,0,0
43063,-133.333333333333,4,2,1,5,0,0
43146,-133.333333333333,4,2,1,60,0,0
45479,-133.333333333333,4,2,1,5,0,0
45563,-133.333333333333,4,2,1,60,0,0
45729,-133.333333333333,4,2,1,5,0,0
45813,-133.333333333333,4,2,1,60,0,0
47147,-100,4,2,1,60,0,0
50979,-125,4,2,1,30,0,0
51313,-90.9090909090909,4,2,1,40,0,0
51646,-71.4285714285714,4,2,1,50,0,0
51979,-100,4,2,1,60,0,0
53313,-80,4,2,1,80,0,1
63979,-133.333333333333,4,2,1,60,0,0
64313,-80,4,2,1,80,0,1
74479,-100,4,2,1,60,0,0
81229,-100,4,2,1,5,0,0
81479,-133.333333333333,4,2,1,20,0,0
82313,-133.333333333333,4,2,1,30,0,0
82646,-333.333333333333,4,2,1,30,0,0
85313,-263.157894736842,4,2,1,30,0,0
87979,-181.818181818182,4,2,1,45,0,0
90646,-133.333333333333,4,2,1,45,0,0
92979,-200,4,2,1,60,0,0
93313,-133.333333333333,4,2,1,40,0,0
103980,-100,4,2,1,60,0,0
113313,-100,4,2,1,40,0,0
114479,-100,4,2,1,60,0,0
114646,-204.081632653061,4,2,1,60,0,0
116479,-100,4,2,1,5,0,0
116646,-500,4,2,1,60,0,0
117146,-200,4,2,1,5,0,0
117313,-100,4,2,1,60,0,0
119313,-200,4,2,1,60,0,0
119979,-133.333333333333,4,2,1,60,0,0
120146,-133.333333333333,4,2,1,5,0,0
120229,-133.333333333333,4,2,1,60,0,0
120396,-133.333333333333,4,2,1,5,0,0
120479,-133.333333333333,4,2,1,60,0,0
122813,-133.333333333333,4,2,1,5,0,0
122896,-133.333333333333,4,2,1,60,0,0
123063,-133.333333333333,4,2,1,5,0,0
123146,-133.333333333333,4,2,1,60,0,0
125313,-100,4,2,1,60,0,0
128229,-100,4,2,1,5,0,0
128313,-111.111111111111,4,2,1,40,0,0
128646,-90.9090909090909,4,2,1,50,0,0
128979,-71.4285714285714,4,2,1,60,0,0
130646,-80,4,2,1,80,0,1
141313,-133.333333333333,4,2,1,60,0,0
141646,-80,4,2,1,80,0,1
151813,-100,4,2,1,80,0,0
151896,-100,4,2,1,60,0,0
162646,-83.3333333333333,4,2,1,60,0,0
167979,-100,4,2,1,60,0,0
170479,-250,4,2,1,60,0,0
171813,-250,4,2,1,5,0,0
171979,-250,4,2,1,32,0,0
173313,-250,4,2,1,25,0,0
177146,-250,4,2,1,5,0,0
177313,-250,4,2,1,10,0,0
178646,-100,4,2,1,30,0,0
179980,-100,4,2,1,60,0,0
180813,-100,4,2,1,20,0,0
180980,-200,4,2,1,60,0,0
181313,-74.0740740740741,4,2,1,80,0,0
181979,-100,4,2,1,80,0,0
183979,-74.0740740740741,4,2,1,80,0,0
184646,-100,4,2,1,80,0,0
185313,-76.9230769230769,4,2,1,80,0,0
185979,-100,4,2,1,80,0,0
186646,-74.0740740740741,4,2,1,80,0,0
188979,-83.3333333333333,4,2,1,80,0,0
189313,-83.3333333333333,4,2,1,60,0,0
189646,-80,4,2,1,80,0,1
193313,-66.6666666666667,4,2,1,80,0,1
194646,-80,4,2,1,80,0,1
199979,-200,4,2,1,30,0,0
205313,-333.333333333333,4,2,1,30,0,0
210646,-1000,4,2,1,30,0,0
212479,-1000,4,2,1,5,0,0
212646,-555.555555555556,4,2,1,30,0,0
213146,-555.555555555556,4,2,1,5,0,0
213313,-1000,4,2,1,30,0,0
215146,-200,4,2,1,5,0,0
215313,-555.555555555556,4,2,1,30,0,0
215813,-555.555555555556,4,2,1,5,0,0
215979,-1000,4,2,1,30,0,0
217813,-1000,4,2,1,5,0,0
217979,-555.555555555556,4,2,1,30,0,0
218479,-555.555555555556,4,2,1,5,0,0
218646,-1000,4,2,1,30,0,0
220646,-555.555555555556,4,2,1,5,0,0
221313,-1000,4,2,1,30,0,0
223146,-1000,4,2,1,5,0,0
223313,-555.555555555556,4,2,1,30,0,0
223813,-555.555555555556,4,2,1,5,0,0
223979,-1000,4,2,1,25,0,0
225813,-1000,4,2,1,5,0,0
225979,-555.555555555556,4,2,1,25,0,0
226479,-555.555555555556,4,2,1,5,0,0
226646,-1000,4,2,1,25,0,0
228479,-1000,4,2,1,5,0,0
228646,-555.555555555556,4,2,1,25,0,0
229146,-555.555555555556,4,2,1,5,0,0
229313,-555.555555555556,4,2,1,25,0,0

[Colours]
Combo1 : 128,249,206
Combo2 : 40,185,255
Combo3 : 235,120,235

[HitObjects]
91,277,4146,5,2,0:0:0:0:
91,277,4229,1,2,0:0:0:0:
91,277,4313,1,2,0:0:0:0:
159,203,4479,1,2,0:0:0:0:
91,277,4646,1,2,0:0:0:0:
197,278,4813,1,2,0:0:0:0:
96,283,4979,1,4,0:3:0:0:
438,108,5313,22,0,P|417:158|393:62,1,263.99999194336,2|0,0:0|0:0,0:0:0:0:
429,191,7313,2,0,L|418:269,1,71.9999978027344,2|0,0:0|0:0,0:0:0:0:
160,267,7979,6,0,B|212:226|279:246|308:292|308:292|267:338|223:315,1,263.99999194336,2|0,0:0|0:0,0:0:0:0:
100,216,9979,2,0,L|85:88,1,120,2|0,0:0|0:0,0:0:0:0:
309,28,10646,22,0,B|296:67|296:67|311:99|311:99|284:126|292:171|292:171|304:192|294:216|294:216|298:227|298:227|293:254|293:254|300:283,1,263.99999194336,2|0,0:0|0:0,0:0:0:0:
410,363,12646,2,0,P|374:360|344:380,1,71.9999978027344,2|0,0:0|0:0,0:0:0:0:
132,242,13313,6,0,P|182:317|73:293,1,263.99999194336,2|0,0:0|0:0,0:0:0:0:
223,309,15313,22,0,L|289:322,1,53.9999983520508,2|0,0:0|0:0,0:0:0:0:
357,333,15646,6,0,B|319:368|319:368|295:255,1,143.999995605469,0|0,1:0|0:0,0:0:0:0:
320,189,15979,21,0,0:0:0:0:
219,232,16146,1,0,0:0:0:0:
161,102,16313,2,0,P|211:116|253:155,1,80,0|0,1:0|0:0,0:0:0:0:
405,225,16646,1,2,0:0:0:0:
348,86,16813,1,2,0:0:0:0:
476,171,16979,1,2,1:2:0:0:
392,229,17146,6,0,L|399:135,1,80,2|0,0:0|0:0,0:0:0:0:
408,23,17479,1,0,0:0:0:0:
317,192,17646,2,0,P|284:217|236:227,1,80,2|2,1:2|0:0,0:0:0:0:
102,188,17896,1,0,3:0:0:0:
102,188,17979,2,0,P|141:211|170:270,1,80,0|0,3:0|0:0,0:0:0:0:
207,377,18313,1,2,1:2:0:0:
359,342,18479,1,2,0:0:0:0:
196,381,18646,22,0,P|206:321|239:278,1,80
416,201,18979,1,2,1:2:0:0:
348,255,19146,2,0,L|261:234,1,80,2|0,0:0|0:0,0:0:0:0:
230,45,19479,1,0,0:0:0:0:
270,127,19646,2,0,L|253:231,1,80,0|0,1:0|0:0,0:0:0:0:
138,358,19979,6,0,L|125:265,1,80
194,152,20313,1,0,1:0:0:0:
389,287,20479,1,0,0:0:0:0:
389,287,20563,1,0,3:0:0:0:
389,287,20646,1,2,3:2:0:0:
266,197,20813,1,0,0:0:0:0:
320,332,20979,1,2,1:2:0:0:
355,175,21146,1,0,0:0:0:0:
213,270,21313,21,0,3:0:0:0:
289,118,21479,1,0,0:0:0:0:
414,235,21646,2,0,P|458:212|482:189,1,80,0|0,1:0|0:0,0:0:0:0:
332,27,21979,1,0,0:0:0:0:
464,115,22146,1,0,0:0:0:0:
512,47,22313,2,0,P|471:32|430:38,1,80,0|0,1:0|0:0,0:0:0:0:
285,194,22646,6,0,P|275:236|287:276,1,80,2|0,0:0|0:0,0:0:0:0:
479,191,22979,2,0,P|479:147|460:110,1,80,2|0,1:2|0:0,0:0:0:0:
378,134,23229,1,0,3:0:0:0:
378,134,23313,2,0,L|293:116,1,80,2|0,3:2|0:0,0:0:0:0:
119,253,23646,2,0,L|204:235,1,80,2|0,1:2|0:0,0:0:0:0:
275,24,23979,22,0,P|229:46|202:82,1,80,2|0,0:0|0:0,0:0:0:0:
318,195,24313,1,2,1:2:0:0:
138,165,24479,2,0,P|127:119|141:65,1,80,2|0,0:0|0:0,0:0:0:0:
264,264,24813,1,0,0:0:0:0:
318,195,24979,2,0,P|270:177|240:181,1,80,2|0,1:2|0:0,0:0:0:0:
198,331,25313,5,0,0:0:0:0:
359,272,25479,1,0,0:0:0:0:
146,263,25646,2,0,L|151:201,1,40,0|0,1:0|1:0,0:0:0:0:
287,324,25813,2,0,L|282:380,1,40,8|8,0:3|0:3,0:0:0:0:
232,253,25979,21,4,0:3:0:0:
261,162,26146,1,4,0:3:0:0:
228,23,26313,1,4,1:2:0:0:
162,136,26479,1,0,0:0:0:0:
367,79,26646,5,0,0:0:0:0:
323,218,26813,1,0,0:0:0:0:
367,70,26979,2,0,P|402:102|418:155,1,80,0|0,1:0|0:0,0:0:0:0:
334,354,27313,1,2,0:0:0:0:
465,303,27479,1,2,0:0:0:0:
299,250,27646,1,2,1:2:0:0:
386,279,27813,2,0,P|388:226|363:186,1,80,2|0,0:0|0:0,0:0:0:0:
219,272,28146,21,0,0:0:0:0:
256,83,28313,1,2,1:2:0:0:
255,181,28479,2,0,P|209:169|179:141,1,80,2|0,0:0|3:0,0:0:0:0:
166,12,28813,1,0,0:0:0:0:
267,84,28979,2,0,L|365:99,1,80,2|2,1:2|0:0,0:0:0:0:
472,224,29229,1,0,3:0:0:0:
472,224,29313,6,0,P|432:189|379:179,1,80
309,322,29646,1,2,1:2:0:0:
194,180,29813,2,0,P|222:152|265:136,1,80,2|0,0:0|0:0,0:0:0:0:
272,255,30146,1,0,0:0:0:0:
195,80,30313,1,2,1:2:0:0:
154,265,30479,2,0,P|126:293|83:309,1,80,2|0,0:0|0:0,0:0:0:0:
0,286,30813,21,0,0:0:0:0:
62,68,30979,1,0,1:0:0:0:
11,168,31146,1,0,3:0:0:0:
39,180,31229,1,0,3:0:0:0:
68,192,31313,2,0,L|165:169,1,80,2|0,0:0|0:0,0:0:0:0:
332,127,31646,1,2,1:2:0:0:
170,77,31813,1,2,0:0:0:0:
296,284,31979,6,0,P|322:245|331:205,1,80
136,280,32313,2,0,P|147:318|170:350,1,80,0|0,1:0|0:0,0:0:0:0:
408,270,32646,1,0,0:0:0:0:
222,206,32813,1,0,0:0:0:0:
294,384,32979,22,0,P|341:376|372:343,1,80,2|0,1:2|0:0,0:0:0:0:
442,142,33313,2,0,P|467:177|479:225,1,80,2|0,0:0|0:0,0:0:0:0:
167,230,33646,2,0,P|208:252|267:264,1,80,2|0,1:2|0:0,0:0:0:0:
332,208,33896,1,0,3:0:0:0:
332,208,33979,2,0,L|318:303,1,80,2|0,3:2|0:0,0:0:0:0:
246,79,34313,2,0,L|232:-16,1,80,2|0,1:2|0:0,0:0:0:0:
78,197,34646,5,2,0:0:0:0:
256,154,34813,1,0,0:0:0:0:
54,39,34979,2,0,L|44:128,1,80,0|0,1:0|3:0,0:0:0:0:
82,201,35229,1,0,3:0:0:0:
82,201,35313,1,2,0:0:0:0:
188,114,35479,1,0,0:0:0:0:
271,287,35646,1,0,0:0:0:0:
271,287,35979,21,2,0:0:0:0:
512,228,36313,1,2,0:0:0:0:
101,164,36646,1,2,0:0:0:0:
508,382,36979,1,2,0:0:0:0:
17,381,37313,6,0,P|107:345|529:378,1,510.400015576172,4|0,1:0|0:0,0:0:0:0:
501,377,39313,22,0,P|482:353|479:311,1,71.9999978027344,2|0,0:0|0:0,0:0:0:0:
450,90,39979,6,0,B|259:42|120:158|120:158|58:134|58:134|71:197|71:197|30:243|30:243|93:251|93:251|126:306|126:306|153:247|153:247|215:233|215:233|165:189|165:189|174:136|174:136,1,880,4|0,1:0|3:0,0:0:0:0:
175,160,41896,21,0,3:0:0:0:
175,160,41979,1,4,0:3:0:0:
235,98,42146,2,0,P|274:103|320:102,1,80,0|0,3:0|0:0,0:0:0:0:
346,254,42646,6,0,P|381:246|413:219,1,60.0000022888184,6|0,3:2|0:0,0:0:0:0:
372,162,42896,2,0,P|337:170|305:197,1,60.0000022888184,0|0,3:0|0:0,0:0:0:0:
268,243,43146,1,0,3:0:0:0:
204,75,43313,2,0,P|262:74|320:107,1,120.000004577637,0|2,1:0|0:0,0:0:0:0:
372,162,43813,1,0,0:0:0:0:
209,286,43979,22,0,B|176:299|161:320|161:320|142:299|109:291,1,120.000004577637,2|0,0:0|0:0,0:0:0:0:
155,229,44479,1,0,3:0:0:0:
40,161,44646,2,0,P|72:167|109:181,1,60.0000022888184,2|0,1:2|0:0,0:0:0:0:
233,117,44979,1,2,0:0:0:0:
360,205,45146,1,0,0:0:0:0:
360,205,45229,1,0,0:0:0:0:
360,205,45313,6,0,P|389:221|427:227,1,60.0000022888184,2|0,3:2|0:0,0:0:0:0:
439,154,45563,2,0,P|410:138|372:132,1,60.0000022888184,0|0,3:0|0:0,0:0:0:0:
310,143,45813,1,0,3:0:0:0:
364,302,45979,1,2,1:2:0:0:
286,253,46146,1,8,0:3:0:0:
201,342,46313,2,0,P|204:288|216:260,1,60.0000022888184,2|0,0:0|0:0,0:0:0:0:
265,228,46646,21,0,0:0:0:0:
121,261,46813,1,8,0:3:0:0:
120,94,46979,1,8,0:3:0:0:
183,208,47146,5,0,0:0:0:0:
183,208,47229,1,0,3:0:0:0:
183,208,47313,1,8,0:3:0:0:
238,89,47479,1,4,3:0:0:0:
337,244,47646,1,4,0:3:0:0:
367,148,47813,1,4,3:0:0:0:
504,232,47979,22,0,L|413:216,1,80,2|0,0:0|0:0,0:0:0:0:
238,89,48313,2,0,L|329:73,1,80,2|0,1:2|0:0,0:0:0:0:
470,41,48646,2,0,P|434:23|395:17,1,80,2|0,0:0|0:0,0:0:0:0:
310,273,48979,2,0,P|346:291|386:298,1,80,2|0,1:2|0:0,0:0:0:0:
61,239,49313,6,0,P|92:180|205:198,1,160,4|2,0:0|1:2,0:0:0:0:
256,335,49813,1,0,0:0:0:0:
325,130,49979,1,2,0:0:0:0:
216,254,50146,1,8,0:3:0:0:
145,94,50313,1,0,1:0:0:0:
304,222,50479,1,4,0:3:0:0:
438,21,50646,22,0,B|464:83|464:83|449:147,1,120,0|0,1:0|0:0,0:0:0:0:
445,143,50979,6,0,L|451:109,1,32,0|0,1:0|1:0,0:0:0:0:
299,118,51146,2,0,L|294:67,1,32,0|0,1:0|1:0,0:0:0:0:
370,150,51313,22,0,L|378:97,1,44.0000013427735,0|0,1:0|1:0,0:0:0:0:
223,169,51479,2,0,L|215:113,1,44.0000013427735,0|0,1:0|1:0,0:0:0:0:
296,87,51646,6,0,L|289:21,1,55.9999982910157,0|0,1:0|1:0,0:0:0:0:
140,108,51813,2,0,L|149:46,1,55.9999982910157,0|0,1:0|1:0,0:0:0:0:
212,0,51979,21,0,1:0:0:0:
403,210,53313,22,0,P|335:201|282:278,1,150,4|0,0:1|0:0,0:0:0:0:
276,280,53646,2,0,P|217:324|175:305,1,100,0|0,1:0|0:0,0:0:0:0:
195,148,53979,1,2,0:0:0:0:
126,288,54146,1,0,0:0:0:0:
40,68,54313,2,0,P|101:72|152:96,1,100,2|0,1:2|0:0,0:0:0:0:
13,266,54646,6,0,P|41:207|132:164,1,150
136,161,54979,2,0,P|173:142|146:86,1,100,0|0,1:0|0:0,0:0:0:0:
115,23,55313,1,2,0:0:0:0:
210,219,55479,1,0,0:0:0:0:
323,71,55646,2,0,P|281:36|221:24,1,100,2|0,1:2|0:0,0:0:0:0:
368,293,55979,6,0,B|354:173|456:225|435:78,2,200,0|0|0,3:0|1:0|0:0,0:0:0:0:
434,365,56813,1,0,0:0:0:0:
284,260,56979,2,0,P|230:277|187:307,1,100,0|0,1:0|0:0,0:0:0:0:
4,182,57313,6,0,P|65:221|157:169,1,150,2|0,0:0|0:0,0:0:0:0:
153,184,57646,2,0,P|194:156|252:169,1,100,2|0,1:2|0:0,0:0:0:0:
350,213,57979,1,2,0:0:0:0:
254,56,58146,1,0,0:0:0:0:
424,30,58313,2,0,P|434:73|414:144,1,100,2|0,1:2|0:0,0:0:0:0:
509,350,58646,6,0,P|477:273|408:221,1,150,4|0,3:2|0:0,0:0:0:0:
405,222,58979,2,0,P|365:254|317:242,1,100,2|0,1:2|0:0,0:0:0:0:
168,47,59313,2,0,P|225:63|256:103,1,100,2|0,0:0|0:0,0:0:0:0:
281,348,59646,2,0,P|315:304|322:243,1,100,2|0,1:2|0:0,0:0:0:0:
86,190,59979,6,0,P|115:234|176:262,1,100,2|0,0:0|0:0,0:0:0:0:
300,0,60313,2,0,P|243:14|218:78,1,100,2|0,1:2|0:0,0:0:0:0:
399,184,60646,1,2,0:0:0:0:
420,64,60813,1,0,0:0:0:0:
202,127,60979,1,2,1:2:0:0:
240,240,61146,1,0,3:0:0:0:
477,362,61313,6,0,P|438:322|306:315,1,150,4|0,3:2|0:0,0:0:0:0:
325,307,61646,2,0,P|302:341|224:348,1,100,0|0,1:0|0:0,0:0:0:0:
27,287,61979,1,0,0:0:0:0:
167,332,62146,1,0,0:0:0:0:
151,126,62313,1,0,1:0:0:0:
115,245,62479,1,0,0:0:0:0:
341,102,62646,6,0,B|316:2|316:2|287:51,1,150,2|0,0:0|0:0,0:0:0:0:
294,132,62979,2,0,L|406:124,1,100,2|0,1:2|0:0,0:0:0:0:
481,48,63313,5,2,0:0:0:0:
434,307,63479,1,0,0:0:0:0:
496,202,63646,6,0,L|479:141,1,50,0|0,1:0|1:0,0:0:0:0:
426,321,63813,2,0,L|443:382,1,50,0|0,1:0|1:0,0:0:0:0:
512,282,63979,1,0,3:0:0:0:
55,334,64313,6,0,P|13:287|0:201,1,150,6|0,1:2|0:0,0:0:0:0:
9,181,64646,2,0,P|37:156|46:81,1,100,2|0,0:0|0:0,0:0:0:0:
156,303,64979,2,0,P|175:343|232:374,1,100,2|0,1:2|0:0,0:0:0:0:
345,95,65313,6,0,P|296:139|280:207,1,100,2|0,0:0|0:0,0:0:0:0:
423,384,65646,2,0,P|366:350|337:286,1,100,2|0,1:2|0:0,0:0:0:0:
481,98,65979,1,2,0:0:0:0:
317,242,66146,1,0,0:0:0:0:
412,46,66313,1,2,1:2:0:0:
484,183,66479,1,0,0:0:0:0:
265,91,66646,6,0,P|221:131|155:133,1,100,2|0,0:0|0:0,0:0:0:0:
5,49,66979,1,2,1:2:0:0:
5,49,67146,1,0,1:0:0:0:
156,220,67313,1,2,0:0:0:0:
189,52,67479,1,8,0:3:0:0:
74,182,67646,1,2,1:2:0:0:
234,257,67813,1,4,0:3:0:0:
224,172,67979,6,0,P|158:215|174:316,1,150
164,302,68313,1,2,1:2:0:0:
370,338,68479,1,0,0:0:0:0:
269,283,68646,2,0,L|258:383,1,100,2|0,0:0|0:0,0:0:0:0:
352,252,68979,1,2,1:2:0:0:
178,384,69146,1,0,0:0:0:0:
317,172,69313,6,0,P|360:216|374:292,1,100,6|0,0:0|0:0,0:0:0:0:
111,346,69646,2,0,P|68:302|54:226,1,100,2|0,1:2|0:0,0:0:0:0:
218,66,69979,1,2,0:0:0:0:
67,26,70146,1,0,0:0:0:0:
218,150,70313,1,2,1:2:0:0:
63,188,70479,1,0,0:0:0:0:
351,0,70646,6,0,P|316:30|341:125,1,150,4|0,0:0|0:0,0:0:0:0:
358,132,70979,2,0,P|384:167|350:221,1,100,0|0,1:0|0:0,0:0:0:0:
196,350,71313,2,0,P|236:309|310:323,1,100,2|0,0:0|0:0,0:0:0:0:
371,377,71646,1,2,1:2:0:0:
441,190,71813,1,2,0:0:0:0:
235,195,71979,6,0,P|258:259|377:247,2,200,4|0|0,0:0|1:0|0:0,0:0:0:0:
263,75,72813,1,0,0:0:0:0:
67,203,72979,1,0,1:0:0:0:
29,127,73146,6,0,B|83:104|128:143|128:143|174:180|226:159,1,200
241,156,73563,1,0,0:0:0:0:
241,156,73646,1,8,0:3:0:0:
319,50,73813,1,4,0:3:0:0:
361,225,73979,1,0,0:0:0:0:
316,140,74146,1,4,0:3:0:0:
331,45,74313,1,4,0:3:0:0:
436,293,74479,22,0,P|393:328|314:318,1,120,4|0,0:0|0:0,0:0:0:0:
297,315,74813,1,0,3:0:0:0:
199,146,74979,1,0,1:0:0:0:
225,243,75146,1,0,0:0:0:0:
262,70,75313,1,0,0:0:0:0:
363,214,75479,1,0,1:0:0:0:
367,218,75813,6,0,P|415:211|441:147,1,120,4|0,0:0|0:0,0:0:0:0:
431,126,76146,1,0,3:0:0:0:
421,312,76313,1,0,1:0:0:0:
367,218,76479,1,0,0:0:0:0:
501,325,76646,1,0,0:0:0:0:
338,376,76813,1,0,1:0:0:0:
342,380,77146,22,0,L|345:240,1,120,4|0,0:0|0:0,0:0:0:0:
345,234,77479,1,0,3:0:0:0:
139,155,77646,1,0,1:0:0:0:
240,193,77813,1,0,0:0:0:0:
54,223,77979,1,0,0:0:0:0:
139,155,78146,1,0,1:0:0:0:
143,159,78479,6,0,P|163:216|123:306,1,160,4|0,0:0|0:0,0:0:0:0:
115,330,78896,1,0,3:0:0:0:
115,330,78979,2,0,P|159:354|210:354,1,80,0|0,1:0|0:0,0:0:0:0:
416,260,79313,1,0,0:0:0:0:
383,247,79396,1,0,0:0:0:0:
348,245,79479,1,0,1:0:0:0:
314,256,79563,1,0,1:0:0:0:
287,279,79646,1,0,1:0:0:0:
260,33,79813,22,0,L|272:178,1,120,4|0,0:0|0:0,0:0:0:0:
273,179,80146,1,0,3:0:0:0:
346,39,80313,1,0,1:0:0:0:
275,202,80479,1,0,0:0:0:0:
175,71,80646,1,0,0:0:0:0:
277,226,80813,1,0,1:0:0:0:
276,247,80896,1,0,3:0:0:0:
274,269,80979,1,0,3:0:0:0:
46,332,81146,6,0,L|38:247,1,80,4|0,0:0|0:0,0:0:0:0:
105,95,81479,21,2,0:0:0:0:
105,95,81562,1,2,0:0:0:0:
105,95,81646,1,2,0:0:0:0:
72,178,81812,1,2,0:0:0:0:
109,90,81979,1,2,0:0:0:0:
151,183,82146,1,2,0:0:0:0:
113,85,82312,1,2,0:3:0:0:
452,200,82646,6,0,L|445:248,7,47.9999985351563
344,302,85313,22,0,L|333:237,7,60.7999992578125
359,88,87979,6,0,P|335:66|311:57,1,44.0000013427735
359,88,88313,2,0,P|349:56|332:37,1,44.0000013427735
359,88,88646,2,0,P|366:56|361:30,1,44.0000013427735
359,88,88979,2,0,P|381:64|390:40,1,44.0000013427735
249,159,89313,22,0,P|273:180|297:189,1,44.0000013427735
249,159,89647,2,0,P|258:190|275:209,1,44.0000013427735
249,159,89980,2,0,P|241:190|246:216,1,44.0000013427735
249,159,90313,2,0,P|227:182|218:206,1,44.0000013427735
95,73,90646,6,0,P|121:55|168:57,1,60.0000022888184
95,73,90979,2,0,P|126:75|161:107,1,60.0000022888184
95,73,91313,2,0,P|117:95|123:142,1,60.0000022888184
95,73,91646,2,0,P|97:104|72:144,1,60.0000022888184
106,302,91979,22,0,P|118:271|153:246,1,60.0000022888184
106,302,92313,2,0,P|100:269|118:230,1,60.0000022888184
106,302,92646,2,0,P|85:276|81:233,1,60.0000022888184
217,209,92979,6,0,P|242:235|244:267,1,60,0|0,1:0|0:0,0:0:0:0:
239,282,93313,22,0,P|231:311|236:351,1,60.0000022888184,0|0,3:0|0:0,0:0:0:0:
312,380,93646,2,0,P|320:351|315:311,1,60.0000022888184,0|0,3:0|0:0,0:0:0:0:
306,242,93979,1,2,3:2:0:0:
382,270,94146,1,2,0:0:0:0:
447,224,94313,1,2,3:2:0:0:
436,166,94479,2,0,P|439:203|452:233,1,60.0000022888184,2|0,0:0|3:0,0:0:0:0:
497,288,94813,5,0,0:0:0:0:
444,349,94979,1,2,3:2:0:0:
385,339,95146,2,0,P|422:343|468:359,1,60.0000022888184,2|0,0:0|3:0,0:0:0:0:
413,267,95479,1,0,0:0:0:0:
433,189,95646,2,0,P|396:193|350:209,1,60.0000022888184,2|2,3:2|0:0,0:0:0:0:
308,251,95979,22,0,P|259:245|235:237,1,60.0000022888184,2|0,3:2|0:0,0:0:0:0:
175,193,96313,1,2,3:2:0:0:
117,209,96479,2,0,P|153:195|196:194,1,60.0000022888184,2|0,0:0|3:0,0:0:0:0:
234,138,96813,1,0,0:0:0:0:
304,178,96979,2,0,P|314:146|317:113,1,60.0000022888184,0|0,3:0|0:0,0:0:0:0:
374,55,97313,6,0,P|342:39|301:34,1,60.0000022888184,0|0,3:0|0:0,0:0:0:0:
405,137,97646,2,0,P|434:117|459:84,1,60.0000022888184,0|0,3:0|0:0,0:0:0:0:
316,119,97979,2,0,P|318:154|343:208,1,90.0000034332277,2|0,3:2|0:0,0:0:0:0:
359,227,98313,1,2,3:2:0:0:
335,384,98479,1,2,0:0:0:0:
377,315,98646,22,0,P|349:306|316:305,1,60.0000022888184,0|0,3:0|0:0,0:0:0:0:
167,358,98979,1,0,3:0:0:0:
248,355,99146,2,0,P|239:321|214:282,1,60.0000022888184,2|0,0:3|3:0,0:0:0:0:
183,233,99479,1,0,0:0:0:0:
232,170,99646,2,0,P|200:161|156:158,1,60.0000022888184,2|0,3:2|0:0,0:0:0:0:
98,266,99979,5,2,3:2:0:0:
40,205,100146,2,0,P|68:190|102:182,1,60.0000022888184,2|2,0:3|3:2,0:0:0:0:
161,229,100479,1,0,0:0:0:0:
173,85,100646,2,0,P|202:91|229:104,1,60.0000022888184,2|0,3:2|0:0,0:0:0:0:
289,158,100979,1,2,3:2:0:0:
349,14,101146,1,2,0:3:0:0:
295,73,101313,22,0,P|327:90|351:93,1,60.0000022888184,0|0,3:0|0:0,0:0:0:0:
487,65,101646,1,0,3:0:0:0:
429,121,101813,2,0,P|424:162|432:202,1,60.0000022888184,2|0,0:3|3:0,0:0:0:0:
477,302,102146,1,0,0:0:0:0:
480,307,102313,2,0,L|492:223,1,60.0000022888184,0|0,1:0|0:0,0:0:0:0:
383,247,102646,5,0,3:0:0:0:
383,247,102813,1,0,3:0:0:0:
480,307,102979,2,0,L|492:223,1,60.0000022888184,0|0,1:0|1:0,0:0:0:0:
496,227,103229,1,0,1:0:0:0:
496,227,103313,21,0,1:0:0:0:
383,247,103479,1,8,0:3:0:0:
426,180,103646,1,0,3:0:0:0:
448,290,103813,1,4,0:3:0:0:
482,122,103979,5,0,0:0:0:0:
309,187,104146,1,0,0:0:0:0:
293,77,104313,2,0,P|352:85|392:116,1,80,0|0,1:0|0:0,0:0:0:0:
265,270,104646,1,2,0:0:0:0:
224,140,104813,1,2,0:0:0:0:
269,282,104979,1,2,1:2:0:0:
133,338,105146,2,0,P|79:324|48:294,1,80
41,207,105479,21,0,0:0:0:0:
155,318,105646,1,2,1:2:0:0:
265,202,105813,2,0,P|251:158|222:126,1,80,2|0,0:0|3:0,0:0:0:0:
241,286,106146,1,0,0:0:0:0:
398,245,106313,1,2,1:2:0:0:
322,108,106479,1,2,0:0:0:0:
322,108,106563,1,0,3:0:0:0:
322,108,106646,6,0,P|376:116|415:148,1,80
265,202,106979,1,2,1:2:0:0:
235,75,107146,2,0,P|198:52|147:47,1,80,2|0,0:0|0:0,0:0:0:0:
65,227,107479,1,0,0:0:0:0:
203,150,107646,1,2,1:2:0:0:
88,71,107813,2,0,P|70:122|74:164,1,80,2|0,0:0|0:0,0:0:0:0:
225,296,108146,21,0,0:0:0:0:
309,172,108313,2,0,L|211:195,1,80,0|0,1:0|0:0,0:0:0:0:
204,200,108563,1,0,3:0:0:0:
204,200,108646,1,2,3:2:0:0:
295,258,108813,1,0,0:0:0:0:
325,93,108979,1,2,1:2:0:0:
407,292,109146,1,2,0:0:0:0:
446,63,109313,6,0,P|411:36|360:28,1,80
253,137,109646,2,0,P|213:164|164:170,1,80,0|0,1:0|0:0,0:0:0:0:
21,37,109979,1,0,0:0:0:0:
180,82,110146,1,0,0:0:0:0:
57,189,110313,2,0,L|65:280,1,80,2|0,1:2|0:0,0:0:0:0:
194,360,110646,22,0,P|208:321|213:271,1,80,2|0,0:0|0:0,0:0:0:0:
79,115,110979,2,0,P|121:124|169:161,1,80,2|0,1:2|0:0,0:0:0:0:
239,250,111313,1,2,3:2:0:0:
365,201,111479,1,0,3:0:0:0:
365,201,111563,1,0,3:0:0:0:
365,201,111646,1,0,1:2:0:0:
398,330,111813,1,0,0:0:0:0:
143,187,111979,6,0,P|124:231|145:291,1,80,2|0,0:0|0:0,0:0:0:0:
258,320,112313,1,0,1:0:0:0:
397,232,112479,1,0,3:0:0:0:
397,232,112563,1,0,3:0:0:0:
397,232,112646,2,0,P|350:244|309:245,1,80,2|0,0:0|0:0,0:0:0:0:
275,112,112979,1,0,0:0:0:0:
275,112,113313,21,2,0:0:0:0:
202,368,113646,1,2,0:0:0:0:
47,49,113979,1,2,0:0:0:0:
479,158,114313,1,2,0:0:0:0:
153,152,114646,6,0,P|284:246|227:96,1,431.199996052246,4|0,1:0|0:0,0:0:0:0:
381,28,116646,22,0,L|328:40,1,48,2|0,0:0|0:0,0:0:0:0:
36,158,117313,6,0,B|129:295|412:320|507:294|541:130|350:78|148:68|46:110,1,880,4|0,1:0|3:0,0:0:0:0:
28,130,119229,21,0,3:0:0:0:
28,130,119313,1,4,0:3:0:0:
46,217,119479,2,0,P|85:218|129:223,1,80,0|0,3:0|0:0,0:0:0:0:
217,67,119979,6,0,P|233:97|231:127,1,60.0000022888184,0|0,3:0|0:0,0:0:0:0:
161,140,120229,2,0,P|145:110|147:80,1,60.0000022888184,0|0,3:0|0:0,0:0:0:0:
160,11,120479,1,0,3:0:0:0:
300,165,120646,2,0,P|358:181|426:152,1,120.000004577637,0|2,1:0|0:0,0:0:0:0:
456,70,121146,1,0,0:0:0:0:
440,326,121313,22,0,P|388:313|404:246,1,120.000004577637,2|0,0:0|0:0,0:0:0:0:
487,141,121813,1,0,3:0:0:0:
442,281,121979,2,0,P|403:268|386:249,1,60.0000022888184,2|0,1:2|0:0,0:0:0:0:
344,143,122313,1,2,0:0:0:0:
264,303,122479,1,0,0:0:0:0:
264,303,122563,1,0,0:0:0:0:
264,303,122646,6,0,P|274:268|264:219,1,60.0000022888184,0|0,3:0|0:0,0:0:0:0:
197,232,122896,2,0,P|187:267|197:316,1,60.0000022888184,0|0,3:0|0:0,0:0:0:0:
213,363,123146,1,0,3:0:0:0:
26,322,123313,1,2,1:2:0:0:
101,280,123479,1,8,0:3:0:0:
53,178,123646,2,0,P|38:204|30:233,1,60.0000022888184,2|0,0:0|0:0,0:0:0:0:
90,103,123979,21,0,0:0:0:0:
118,235,124146,1,8,0:3:0:0:
224,155,124313,1,8,0:3:0:0:
252,306,124479,5,0,3:0:0:0:
252,306,124563,1,0,3:0:0:0:
252,306,124646,1,8,0:3:0:0:
306,164,124813,1,8,0:3:0:0:
395,290,124979,1,4,0:3:0:0:
257,226,125146,1,4,0:3:0:0:
425,113,125313,22,0,P|393:75|341:55,1,80,2|0,0:0|0:0,0:0:0:0:
336,237,125646,2,0,P|368:275|420:295,1,80,2|0,1:2|0:0,0:0:0:0:
284,142,125979,2,0,L|181:164,1,80,2|0,0:0|0:0,0:0:0:0:
27,231,126313,2,0,L|130:253,1,80,2|0,1:2|0:0,0:0:0:0:
352,372,126646,6,0,P|277:371|255:291,1,160,0|2,0:0|1:2,0:0:0:0:
302,140,127146,1,0,0:0:0:0:
256,283,127313,1,2,0:0:0:0:
218,85,127479,1,8,0:3:0:0:
260,265,127646,1,2,1:2:0:0:
330,59,127813,1,4,0:3:0:0:
251,299,127979,22,0,L|129:318,1,120
111,314,128313,6,0,L|175:301,1,35.9999989013672,0|0,1:0|1:0,0:0:0:0:
123,158,128479,2,0,L|184:170,1,35.9999989013672,0|0,1:0|1:0,0:0:0:0:
86,244,128646,22,0,L|135:231,1,44.0000013427735,0|0,1:0|1:0,0:0:0:0:
107,80,128813,2,0,L|156:90,1,44.0000013427735,0|0,1:0|1:0,0:0:0:0:
158,164,128979,6,0,L|226:177,1,55.9999982910157,0|0,1:0|1:0,0:0:0:0:
180,18,129146,2,0,L|238:9,1,55.9999982910157,0|0,1:0|1:0,0:0:0:0:
290,103,129313,21,2,1:2:0:0:
380,240,130646,22,0,P|317:273|265:204,1,150,4|0,0:1|0:0,0:0:0:0:
258,203,130979,2,0,P|267:149|240:116,1,100,0|0,1:0|0:0,0:0:0:0:
122,335,131313,1,2,0:0:0:0:
190,176,131479,1,0,0:0:0:0:
256,384,131646,2,0,P|288:334|289:283,1,100,2|0,1:2|0:0,0:0:0:0:
106,195,131979,6,0,P|141:251|247:246,1,150,2|0,0:0|0:0,0:0:0:0:
242,253,132313,2,0,P|270:281|237:334,1,100,0|0,1:0|0:0,0:0:0:0:
190,176,132646,1,2,0:0:0:0:
348,343,132813,1,0,0:0:0:0:
459,164,132979,2,0,P|448:119|416:77,1,100,2|0,1:2|0:0,0:0:0:0:
223,282,133313,6,0,B|342:304|286:209|438:233,2,200,0|0|0,0:0|1:0|0:0,0:0:0:0:
138,209,134146,1,0,0:0:0:0:
283,369,134313,2,0,B|344:372|377:318|377:318,1,100,0|0,1:0|0:0,0:0:0:0:
316,41,134646,6,0,P|273:90|336:167,1,150,2|0,0:0|0:0,0:0:0:0:
329,165,134979,2,0,P|356:196|313:242,1,100,2|0,1:2|0:0,0:0:0:0:
168,141,135313,1,2,0:0:0:0:
130,345,135479,1,0,0:0:0:0:
202,257,135646,2,0,P|159:237|101:235,1,100,2|0,1:2|0:0,0:0:0:0:
359,346,135979,6,0,P|442:357|513:294,1,150,4|0,3:2|0:0,0:0:0:0:
509,303,136313,2,0,P|468:264|394:248,1,100,2|0,1:2|0:0,0:0:0:0:
178,330,136646,2,0,P|219:369|293:385,1,100,2|0,0:0|0:0,0:0:0:0:
424,135,136979,2,0,P|452:205|449:238,1,100,2|0,1:2|0:0,0:0:0:0:
227,80,137313,6,0,P|247:39|315:13,1,100,2|0,0:0|0:0,0:0:0:0:
161,257,137646,2,0,P|114:241|85:200,1,100,2|0,1:2|0:0,0:0:0:0:
393,147,137979,1,2,0:0:0:0:
364,297,138146,1,0,0:0:0:0:
194,144,138313,1,2,1:2:0:0:
222,319,138479,1,0,3:0:0:0:
453,76,138646,6,0,P|412:29|323:19,1,150,4|0,3:2|0:0,0:0:0:0:
305,22,138979,2,0,P|272:62|210:65,1,100,0|0,1:0|0:0,0:0:0:0:
65,29,139313,1,0,0:0:0:0:
222,159,139479,1,0,0:0:0:0:
14,119,139646,1,0,1:0:0:0:
142,67,139813,1,0,0:0:0:0:
65,233,139979,6,0,P|61:281|132:347,1,150,2|0,0:0|0:0,0:0:0:0:
154,345,140313,2,0,P|185:312|257:309,1,100,2|0,1:2|0:0,0:0:0:0:
511,328,140646,5,2,1:2:0:0:
271,231,140813,1,0,0:0:0:0:
388,357,140979,6,0,L|455:344,1,50,2|0,1:2|1:0,0:0:0:0:
395,202,141146,2,0,L|328:215,1,50,0|0,1:0|1:0,0:0:0:0:
307,339,141313,1,0,0:0:0:0:
42,159,141646,6,0,P|108:175|165:113,1,150,6|0,1:2|0:0,0:0:0:0:
165,99,141979,2,0,P|141:50|153:-4,1,100,2|0,0:0|0:0,0:0:0:0:
302,217,142313,2,0,P|271:252|217:267,1,100,2|0,1:2|0:0,0:0:0:0:
303,44,142646,6,0,P|367:67|393:108,1,100,2|0,0:0|0:0,0:0:0:0:
472,368,142979,2,0,P|501:323|495:263,1,100,2|0,1:2|0:0,0:0:0:0:
306,135,143313,1,2,0:0:0:0:
473,97,143479,1,0,0:0:0:0:
302,217,143646,1,2,1:2:0:0:
483,274,143813,1,0,0:0:0:0:
207,117,143979,6,0,P|208:181|246:230,1,100,2|0,0:0|0:0,0:0:0:0:
419,315,144313,1,2,1:2:0:0:
419,315,144479,1,0,1:0:0:0:
305,143,144646,1,2,0:0:0:0:
278,318,144813,1,8,0:3:0:0:
406,159,144979,1,2,1:2:0:0:
207,117,145146,1,4,0:3:0:0:
246,209,145313,6,0,P|297:165|281:56,1,150
291,65,145646,1,2,1:2:0:0:
97,151,145813,1,0,0:0:0:0:
185,40,145979,2,0,L|207:150,1,100,2|0,0:0|0:0,0:0:0:0:
88,2,146313,1,2,1:2:0:0:
291,65,146479,1,0,0:0:0:0:
493,13,146646,6,0,P|515:66|495:128,1,100,6|0,0:0|0:0,0:0:0:0:
295,250,146979,2,0,P|273:197|293:135,1,100,2|0,1:2|0:0,0:0:0:0:
504,204,147313,1,2,0:0:0:0:
300,340,147479,1,0,0:0:0:0:
363,196,147646,1,2,1:2:0:0:
408,363,147813,1,0,0:0:0:0:
432,124,147979,6,0,P|393:73|299:85,1,150,6|0,0:0|0:0,0:0:0:0:
294,90,148313,2,0,P|246:110|194:76,1,100,0|0,1:0|0:0,0:0:0:0:
5,19,148646,2,0,P|47:56|60:119,1,100,2|0,0:0|0:0,0:0:0:0:
48,315,148979,1,2,1:2:0:0:
132,135,149146,1,2,0:0:0:0:
297,246,149313,6,0,P|266:330|175:292,2,200,4|0|0,3:2|1:0|0:0,0:0:0:0:
204,184,150146,1,0,0:0:0:0:
466,318,150313,1,0,1:0:0:0:
371,339,150479,6,0,B|360:217|465:273|452:138,1,200,0|0,3:0|0:0,0:0:0:0:
451,142,150896,1,0,0:0:0:0:
451,142,150979,1,8,0:3:0:0:
336,65,151146,1,4,0:3:0:0:
439,0,151313,1,0,0:0:0:0:
349,158,151479,1,4,0:3:0:0:
216,32,151646,1,2,1:2:0:0:
88,156,151813,22,0,L|104:302,1,120,6|0,0:0|0:0,0:0:0:0:
105,301,152146,1,0,0:0:0:0:
299,322,152313,1,0,1:0:0:0:
206,267,152479,1,0,0:0:0:0:
394,372,152646,1,0,0:0:0:0:
507,188,152813,1,0,1:0:0:0:
511,192,153146,6,0,P|468:225|403:232,1,120,4|0,0:0|0:0,0:0:0:0:
378,232,153479,1,0,0:0:0:0:
220,77,153646,1,0,1:0:0:0:
297,155,153813,1,0,0:0:0:0:
123,116,153979,1,0,0:0:0:0:
316,38,154146,1,0,1:0:0:0:
320,42,154479,22,0,L|309:171,1,120,4|0,0:0|0:0,0:0:0:0:
306,188,154813,1,0,0:0:0:0:
181,377,154979,1,0,1:0:0:0:
208,263,155146,1,0,0:0:0:0:
426,375,155313,1,0,0:0:0:0:
399,261,155480,1,0,1:0:0:0:
403,265,155813,6,0,P|351:310|261:288,1,160,4|0,0:0|0:0,0:0:0:0:
254,277,156229,1,0,3:0:0:0:
252,277,156312,2,0,L|264:179,1,80,0|0,1:0|0:0,0:0:0:0:
161,18,156646,1,0,0:0:0:0:
198,11,156729,1,0,0:0:0:0:
235,21,156813,1,2,1:3:0:0:
263,47,156896,1,2,3:0:0:0:
279,81,156979,1,2,3:0:0:0:
16,146,157146,22,0,P|64:140|146:200,1,120,4|0,0:0|0:0,0:0:0:0:
140,193,157479,1,0,0:0:0:0:
0,327,157646,1,0,1:0:0:0:
72,259,157813,1,0,0:0:0:0:
189,366,157979,1,0,0:0:0:0:
242,198,158146,1,0,1:0:0:0:
246,202,158479,6,0,P|288:230|376:233,1,120,4|0,0:0|0:0,0:0:0:0:
382,236,158813,1,0,0:0:0:0:
433,37,158979,1,0,1:0:0:0:
469,153,159146,1,0,0:0:0:0:
266,98,159313,1,0,0:0:0:0:
368,127,159479,1,0,1:0:0:0:
372,131,159813,22,0,L|359:267,1,120,4|0,0:0|0:0,0:0:0:0:
357,276,160146,1,0,0:0:0:0:
207,157,160313,1,0,1:0:0:0:
184,256,160479,1,0,0:0:0:0:
227,59,160646,1,0,0:0:0:0:
294,249,160813,1,0,1:0:0:0:
298,253,161146,6,0,P|254:215|158:246,1,160,4|0,0:0|3:0,0:0:0:0:
150,264,161563,1,0,3:0:0:0:
150,264,161646,1,0,1:0:0:0:
76,188,161813,1,0,3:0:0:0:
146,340,161979,22,0,P|158:302|135:243,1,80,8|0,0:3|0:0,0:0:0:0:
13,271,162313,2,0,P|5:309|16:347,1,80,4|0,0:3|0:0,0:0:0:0:
255,157,162646,6,0,P|276:83|226:21,1,143.999995605469,6|0,0:0|0:0,0:0:0:0:
215,15,162979,2,0,P|187:71|210:107,1,95.9999970703126,2|0,1:2|0:0,0:0:0:0:
318,213,163313,1,2,0:0:0:0:
390,18,163479,1,2,0:0:0:0:
448,178,163646,1,2,1:2:0:0:
306,110,163813,1,2,0:0:0:0:
493,103,163979,21,2,0:0:0:0:
438,193,164146,2,0,P|442:248|474:286,1,95.9999970703126,2|0,0:0|1:0,0:0:0:0:
302,384,164479,2,0,P|328:344|329:297,1,95.9999970703126,2|0,0:0|0:0,0:0:0:0:
177,157,164813,1,2,0:0:0:0:
251,316,164979,1,2,1:2:0:0:
71,314,165146,2,0,P|101:267|165:253,1,95.9999970703126,2|0,0:0|0:0,0:0:0:0:
352,221,165479,5,2,0:0:0:0:
177,157,165646,1,2,1:2:0:0:
373,119,165813,1,0,0:0:0:0:
153,256,165979,2,0,P|159:308|191:361,1,95.9999970703126,2|0,0:0|0:0,0:0:0:0:
413,309,166313,1,2,1:2:0:0:
245,254,166479,1,0,0:0:0:0:
357,373,166646,21,2,0:0:0:0:
275,130,166813,1,2,0:0:0:0:
281,331,166979,1,2,1:2:0:0:
342,83,167146,2,0,P|387:57|462:61,1,95.9999970703126,2|8,0:0|0:3,0:0:0:0:
457,57,167396,1,0,3:0:0:0:
457,57,167479,1,0,3:0:0:0:
461,243,167646,2,0,P|381:223|330:144,1,143.999995605469,4|0,1:3|0:0,0:0:0:0:
331,163,167979,6,0,L|221:184,1,80,6|0,0:0|0:0,0:0:0:0:
141,257,168313,1,0,1:0:0:0:
108,94,168479,2,0,P|161:90|215:115,1,80,0|2,0:0|0:0,0:0:0:0:
178,331,168813,2,0,P|125:335|71:310,1,80,2|2,0:0|0:0,0:0:0:0:
0,157,169146,22,0,B|80:124|70:209|171:164,1,160,0|0,1:0|0:0,0:0:0:0:
348,211,169646,1,8,0:3:0:0:
234,151,169813,1,8,0:3:0:0:
338,205,169979,1,4,0:3:0:0:
242,155,170146,1,4,0:3:0:0:
287,283,170313,1,4,0:3:0:0:
374,106,170479,6,0,P|391:82|285:88,1,256,6|0,0:0|0:0,0:0:0:0:
314,153,171979,2,0,P|373:141|420:183,1,128,2|2,0:0|0:0,0:0:0:0:
256,192,173313,21,6,0:0:0:0:
256,192,177313,12,2,180813,0:0:0:0:
256,192,180979,5,8,0:3:0:0:
310,148,181313,6,0,P|296:252|210:139,1,324.000001235962,4|0,1:0|3:0,0:0:0:0:
256,86,181896,1,0,3:0:0:0:
256,86,181979,1,0,1:0:0:0:
310,148,182146,6,0,P|269:195|202:147,1,160,0|0,3:0|0:0,0:0:0:0:
358,80,182646,6,0,P|313:31|273:14,1,80,2|0,0:0|0:0,0:0:0:0:
154,80,182979,2,0,P|199:31|239:14,1,80,0|0,0:2|0:0,0:0:0:0:
390,195,183313,5,2,1:2:0:0:
122,195,183479,1,0,0:0:0:0:
365,228,183646,5,2,1:2:0:0:
146,228,183812,1,0,0:0:0:0:
307,175,183979,6,0,B|269:210|257:326|257:326|242:210|201:177,1,324.000001235962,6|0,0:0|0:0,0:0:0:0:
255,118,184563,1,0,0:0:0:0:
255,118,184646,1,2,1:2:0:0:
332,286,184813,6,0,P|256:264|182:289,1,160
110,236,185313,6,0,P|251:182|420:259,1,311.999985717774,6|0,1:2|0:0,0:0:0:0:
178,165,185979,6,0,P|256:191|332:160,1,160,2|2,1:2|0:0,0:0:0:0:
255,118,186396,1,0,0:0:0:0:
255,118,186479,1,0,3:0:0:0:
77,156,186646,6,0,P|93:111|147:74,1,108.000000411987,6|0,0:0|0:0,0:0:0:0:
439,154,186979,2,0,P|423:109|369:72,1,108.000000411987
118,254,187313,1,0,1:0:0:0:
358,177,187479,1,0,0:0:0:0:
157,174,187646,1,0,1:0:0:0:
397,257,187813,1,0,0:0:0:0:
256,376,187979,6,0,B|254:342|254:342|261:323|261:323|261:288|250:263|250:263|257:238|256:214|256:214,1,162.000000617981,2|0,0:0|0:0,0:0:0:0:
256,178,188313,1,2,1:2:0:0:
159,341,188479,1,0,0:0:0:0:
366,317,188646,1,2,1:2:0:0:
256,144,188813,1,0,0:0:0:0:
136,258,188979,6,0,L|48:236,1,47.9999985351563,0|0,1:0|1:0,0:0:0:0:
388,212,189146,2,0,L|466:226,1,47.9999985351563,0|0,1:0|1:0,0:0:0:0:
256,107,189313,1,0,0:0:0:0:
256,70,189646,6,0,P|196:105|133:60,1,150,6|0,1:2|0:0,0:0:0:0:
120,47,189979,2,0,P|79:32|39:79,1,100,2|0,0:0|0:0,0:0:0:0:
220,265,190313,2,0,P|218:316|167:366,1,100,2|0,1:2|0:0,0:0:0:0:
1,188,190646,6,0,P|49:146|113:143,1,100,2|0,0:0|0:0,0:0:0:0:
361,349,190979,2,0,P|347:284|299:241,1,100,2|0,1:2|0:0,0:0:0:0:
99,281,191313,1,2,0:0:0:0:
194,84,191479,1,0,0:0:0:0:
312,253,191646,1,2,1:2:0:0:
136,188,191813,1,0,0:0:0:0:
457,31,191979,6,0,P|474:82|456:129,1,100,6|0,0:0|0:0,0:0:0:0:
198,88,192313,1,2,1:2:0:0:
198,88,192479,1,0,1:0:0:0:
324,48,192646,5,2,0:0:0:0:
82,122,192813,1,8,0:3:0:0:
407,23,192979,1,2,1:2:0:0:
151,326,193146,1,4,0:3:0:0:
221,15,193313,6,0,P|279:9|324:48,1,120.000004577637,2|0,0:0|0:0,0:0:0:0:
132,340,193646,2,0,P|76:346|32:291,1,120.000004577637,2|0,1:2|0:0,0:0:0:0:
108,32,193979,6,0,P|179:34|223:66,1,120.000004577637,2|0,0:0|0:0,0:0:0:0:
453,287,194313,2,0,P|452:223|399:152,1,120.000004577637,2|0,1:2|0:0,0:0:0:0:
30,342,194646,6,0,P|101:372|123:254,2,200,6|0|0,0:0|1:0|0:0,0:0:0:0:
35,195,195479,1,0,0:0:0:0:
228,265,195646,2,0,P|236:299|220:379,1,100,0|0,1:0|0:0,0:0:0:0:
23,87,195979,6,0,P|100:105|174:59,1,150,4|0,0:0|0:0,0:0:0:0:
179,59,196313,2,0,P|223:35|282:46,1,100,0|0,1:0|0:0,0:0:0:0:
446,198,196646,2,0,L|466:91,1,100,2|0,0:0|0:0,0:0:0:0:
380,28,196979,1,0,1:0:0:0:
435,283,197146,1,2,0:0:0:0:
235,114,197313,6,0,P|297:118|345:164,1,100,6|0,3:2|0:0,0:0:0:0:
262,364,197646,2,0,P|200:360|152:314,1,100,0|0,1:0|0:0,0:0:0:0:
94,183,197979,1,0,0:0:0:0:
242,32,198146,1,0,0:0:0:0:
255,236,198313,1,0,1:0:0:0:
241,12,198479,2,0,P|177:1|213:96,1,200
353,63,198979,5,8,0:3:0:0:
196,183,199146,1,4,0:3:0:0:
357,228,199313,1,2,0:0:0:0:
283,137,199479,1,0,1:0:0:0:
259,261,199646,1,2,0:0:0:0:
371,225,199813,1,0,1:0:0:0:
401,338,199979,6,0,P|354:344|324:326,1,80,2|2,0:0|0:0,0:0:0:0:
176,244,200646,2,0,P|141:253|104:298,1,80,2|2,0:0|0:0,0:0:0:0:
252,339,201313,5,2,0:0:0:0:
284,155,201646,2,0,P|326:138|434:182,1,160,2|2,0:0|0:0,0:0:0:0:
222,200,202646,22,0,P|208:169|218:117,1,80,2|2,0:0|0:0,0:0:0:0:
119,136,203313,2,0,P|133:167|123:219,1,80,2|2,0:0|0:0,0:0:0:0:
76,275,203979,1,2,0:0:0:0:
76,275,205313,6,0,P|98:312|191:309,1,143.999995605469,2|2,0:0|0:0,0:0:0:0:
262,252,206646,22,0,B|233:209|257:157|257:157|278:177|272:200,1,143.999995605469,2|2,0:0|0:0,0:0:0:0:
403,298,207979,6,0,P|418:271|363:291,1,143.999995605469,2|0,0:0|0:0,0:0:0:0:
360,365,209313,21,2,0:0:0:0:
394,140,210646,6,0,P|360:116|313:118,1,88,2|0,0:0|0:0,0:0:0:0:
228,136,212646,2,0,L|223:93,1,43.2000010546875,2|0,0:0|0:0,0:0:0:0:
78,168,213313,22,0,P|121:164|156:188,1,88,2|0,0:0|0:0,0:0:0:0:
199,263,215313,2,0,L|241:255,1,43.2000010546875,2|0,0:0|0:0,0:0:0:0:
378,324,215979,6,0,P|356:308|353:251,1,88,2|0,0:0|0:0,0:0:0:0:
399,182,217979,2,0,L|402:138,1,43.2000010546875,2|0,0:0|0:0,0:0:0:0:
317,64,218646,22,0,P|294:107|328:117,1,96,2|0,0:0|0:0,0:0:0:0:
77,329,221313,6,0,P|114:346|160:335,1,88,2|0,0:0|0:0,0:0:0:0:
168,249,223313,2,0,L|171:204,1,43.2000010546875,2|0,0:0|0:0,0:0:0:0:
182,94,223979,22,0,B|233:86|217:115|269:104,1,88,2|0,0:0|0:0,0:0:0:0:
346,97,225979,2,0,L|393:92,1,43.2000010546875,2|0,0:0|0:0,0:0:0:0:
435,230,226646,6,0,P|408:202|359:205,1,88,2|0,0:0|0:0,0:0:0:0:
301,258,228646,2,0,P|281:268|255:270,1,43.2000010546875,2|0,0:0|0:0,0:0:0:0:
256,192,229313,5,2,0:0:0:0:
