osu file format v14

[General]
AudioFilename: audio.mp3
AudioLeadIn: 0
PreviewTime: 51966
Countdown: 0
SampleSet: Soft
StackLeniency: 0.5
Mode: 0
LetterboxInBreaks: 0
WidescreenStoryboard: 1

[Editor]
DistanceSpacing: 1
BeatDivisor: 4
GridSize: 32
TimelineZoom: 2.6

[Metadata]
Title:Suisei ni Nareta nara
TitleUnicode:彗星になれたなら
Artist:Harumaki Gohan feat. Hatsune Miku
ArtistUnicode:はるまきごはん feat. 初音ミク
Creator:Remapper
Version:Hakusui3820's Hard
Source:
Tags:kuse KuBsNia_ZhoYL_ Hakusui3820 japanese vocaloid if i could be a comet jpop j-pop pop futarino ふたりの nana lili
BeatmapID:2556680
BeatmapSetID:1215982

[Difficulty]
HPDrainRate:4.5
CircleSize:4
OverallDifficulty:5.5
ApproachRate:8
SliderMultiplier:1.4
SliderTickRate:0.5

[Events]
//Background and Video events
Video,0,"video.mp4"
0,0,"bg.jpg",0,0
//Break Periods
2,82846,92229
2,173513,176563
//Storyboard Layer 0 (Background)
//Storyboard Layer 1 (Fail)
//Storyboard Layer 2 (Pass)
//Storyboard Layer 3 (Foreground)
//Storyboard Layer 4 (Overlay)
//Storyboard Sound Samples

[TimingPoints]
3980,333.333333333333,4,2,1,30,1,0
4979,-100,4,2,1,30,0,0
5313,-100,4,2,1,50,0,0
7313,-100,4,2,1,20,0,0
7979,-100,4,2,1,60,0,0
9979,-100,4,2,1,20,0,0
10646,-100,4,2,1,60,0,0
12646,-100,4,2,1,20,0,0
13313,-100,4,2,1,60,0,0
15646,-100,4,2,1,80,0,0
15980,-100,4,2,1,60,0,0
37313,-100,4,2,1,60,0,0
50979,-100,4,2,1,30,0,0
51313,-100,4,2,1,40,0,0
51646,-100,4,2,1,50,0,0
51979,-100,4,2,1,60,0,0
53313,-90.9090909090909,4,2,1,80,0,1
63979,-100,4,2,1,60,0,0
64313,-90.9090909090909,4,2,1,80,0,1
74479,-100,4,2,1,60,0,0
82313,-100,4,2,1,30,0,0
92979,-100,4,2,1,60,0,0
93313,-100,4,2,1,40,0,0
103980,-100,4,2,1,60,0,0
114646,-100,4,2,1,60,0,0
128313,-100,4,2,1,30,0,0
128646,-100,4,2,1,40,0,0
128979,-100,4,2,1,50,0,0
129313,-100,4,2,1,60,0,0
130646,-90.9090909090909,4,2,1,80,0,1
141313,-100,4,2,1,60,0,0
141646,-90.9090909090909,4,2,1,80,0,1
151813,-100,4,2,1,60,0,0
177313,-100,4,2,1,10,0,0
178646,-100,4,2,1,30,0,0
179980,-100,4,2,1,60,0,0
181313,-100,4,2,1,80,0,0
189313,-100,4,2,1,60,0,0
189646,-90.9090909090909,4,2,1,80,0,1
199979,-111.111111111111,4,2,1,30,0,0
202646,-142.857142857143,4,2,1,30,0,0
205313,-200,4,2,1,30,0,0
210646,-666.666666666667,4,2,1,30,0,0

[Colours]
Combo1 : 235,120,235
Combo2 : 40,185,255
Combo3 : 128,249,206

[HitObjects]
256,164,4979,5,4,0:3:0:0:
256,192,5313,5,2,0:0:0:0:
256,192,7313,21,2,0:0:0:0:
256,192,7979,5,2,0:0:0:0:
256,192,9979,21,2,0:0:0:0:
256,192,10646,5,2,0:0:0:0:
256,192,12646,21,2,0:0:0:0:
256,192,13313,5,2,0:0:0:0:
60,80,15646,21,0,1:0:0:0:
88,76,15979,6,0,P|126:71|176:68,1,70
232,134,16313,1,0,1:0:0:0:
396,169,16646,22,0,P|408:205|399:247,1,70,2|2,0:0|0:0,0:0:0:0:
323,212,16979,1,2,1:2:0:0:
323,212,17146,2,0,P|295:255|191:260,1,140,2|0,0:0|0:0,0:0:0:0:
136,306,17646,2,0,P|129:266|144:225,1,70,2|2,1:2|0:0,0:0:0:0:
145,227,17896,1,0,3:0:0:0:
154,216,17979,2,0,P|160:176|145:136,1,70,0|0,3:0|0:0,0:0:0:0:
74,115,18313,5,2,1:2:0:0:
74,115,18479,2,0,P|123:128|204:64,1,140,2|0,0:0|0:0,0:0:0:0:
244,16,18979,1,2,1:2:0:0:
244,16,19146,2,0,P|193:2|112:65,1,140,2|0,0:0|0:0,0:0:0:0:
196,84,19646,1,0,1:0:0:0:
196,84,19813,1,0,0:0:0:0:
280,93,19979,22,0,L|268:176,1,70
197,205,20313,2,0,L|209:288,1,70,0|0,1:0|0:0,0:0:0:0:
210,288,20563,1,0,3:0:0:0:
213,302,20646,2,0,L|201:385,1,70,2|0,3:2|0:0,0:0:0:0:
120,384,20979,5,2,1:2:0:0:
44,348,21146,2,0,L|67:189,1,140
25,136,21646,2,0,P|2:101|4:51,1,70,0|0,1:0|0:0,0:0:0:0:
81,69,21979,1,0,0:0:0:0:
81,69,22146,1,0,0:0:0:0:
140,11,22313,2,0,P|161:44|159:94,1,70,0|0,1:0|0:0,0:0:0:0:
199,151,22646,22,0,P|191:193|214:235,1,70,2|0,0:0|0:0,0:0:0:0:
275,181,22979,2,0,P|318:188|360:165,1,70,2|0,1:2|0:0,0:0:0:0:
353,170,23229,1,0,3:0:0:0:
362,159,23313,2,0,P|403:144|449:159,1,70,2|0,3:2|0:0,0:0:0:0:
410,230,23646,2,0,P|449:248|471:291,1,70,2|0,1:2|0:0,0:0:0:0:
392,311,23979,6,0,P|406:352|391:398,1,70,2|0,0:0|0:0,0:0:0:0:
321,357,24313,1,2,1:2:0:0:
321,357,24479,2,0,P|275:371|202:307,1,140,2|0,0:0|0:0,0:0:0:0:
291,213,24979,2,0,L|279:296,1,70,2|0,1:2|0:0,0:0:0:0:
206,321,25313,1,0,0:0:0:0:
206,321,25479,1,0,0:0:0:0:
158,244,25646,2,0,L|170:161,1,70,0|8,1:0|0:3,0:0:0:0:
171,161,25896,1,8,0:3:0:0:
174,147,25979,22,0,L|162:64,1,70,4|4,0:3|0:3,0:0:0:0:
232,27,26313,2,0,L|315:39,1,70,4|0,1:2|0:0,0:0:0:0:
418,96,26646,2,0,L|335:108,1,70
276,149,26979,2,0,L|288:232,1,70,0|0,1:0|0:0,0:0:0:0:
343,281,27313,6,0,P|374:306|424:310,1,70,2|2,0:0|0:0,0:0:0:0:
408,228,27646,1,2,1:2:0:0:
408,228,27813,2,0,P|444:198|451:106,1,140,2|0,0:0|0:0,0:0:0:0:
377,147,28313,2,0,P|345:121|295:117,1,70,2|2,1:2|0:0,0:0:0:0:
303,113,28563,1,0,0:0:0:0:
289,113,28646,2,0,P|255:121|229:144,1,70,0|0,3:0|0:0,0:0:0:0:
200,223,28979,21,2,1:2:0:0:
200,223,29146,2,0,P|226:295|164:349,1,140,2|0,0:0|0:0,0:0:0:0:
104,331,29646,1,2,1:2:0:0:
104,331,29813,2,0,P|78:259|140:205,1,140,2|0,0:0|0:0,0:0:0:0:
154,278,30313,1,2,1:2:0:0:
154,278,30479,2,0,L|313:301,1,140,2|0,0:0|0:0,0:0:0:0:
362,250,30979,2,0,L|350:167,1,70,0|0,1:0|3:0,0:0:0:0:
349,167,31229,1,0,3:0:0:0:
346,153,31313,6,0,L|358:70,1,70,2|0,0:0|0:0,0:0:0:0:
296,24,31646,1,2,1:2:0:0:
296,24,31813,2,0,L|137:47,1,140,2|0,0:0|0:0,0:0:0:0:
36,96,32313,2,0,L|119:108,1,70,0|0,1:0|0:0,0:0:0:0:
166,165,32646,1,0,0:0:0:0:
166,165,32813,1,0,0:0:0:0:
100,216,32979,22,0,P|88:272|100:360,1,140,2|2,1:2|0:0,0:0:0:0:
176,384,33479,1,0,0:0:0:0:
240,329,33646,2,0,P|292:313|327:315,1,70,2|0,1:2|0:0,0:0:0:0:
321,314,33896,1,0,3:0:0:0:
334,318,33979,2,0,P|386:334|421:332,1,70,2|0,3:2|0:0,0:0:0:0:
390,250,34313,2,0,P|438:224|461:198,1,70,2|0,1:2|0:0,0:0:0:0:
422,134,34646,5,2,0:0:0:0:
422,134,34813,1,0,0:0:0:0:
490,84,34979,2,0,L|502:1,1,70,0|0,1:0|0:0,0:0:0:0:
416,7,35313,1,2,0:0:0:0:
416,7,35479,1,0,0:0:0:0:
348,57,35646,2,0,L|265:45,1,70
256,192,37313,21,4,1:0:0:0:
256,192,37479,12,2,39313,0:0:0:0:
256,192,39979,5,4,1:0:0:0:
256,192,40146,12,0,41313,0:0:0:0:
210,109,41813,21,0,3:0:0:0:
221,118,41896,1,0,3:0:0:0:
232,127,41979,1,4,0:3:0:0:
315,146,42146,2,0,P|289:182|270:279,1,140,0|0,3:0|0:3,3:0:0:0:
305,351,42646,6,0,P|254:359|209:334,2,105,6|0|0,3:2|3:0|3:0,0:0:0:0:
270,274,43313,1,0,1:0:0:0:
119,348,43646,2,0,L|131:265,1,70,2|0,0:0|0:0,0:0:0:0:
53,242,43979,2,0,P|41:186|53:98,1,140,2|0,0:0|0:0,0:0:0:0:
129,135,44479,1,0,3:0:0:0:
136,123,44563,1,0,0:0:0:0:
146,113,44646,2,0,P|179:99|218:105,1,70,2|0,1:2|0:0,0:0:0:0:
290,134,44979,2,0,P|323:147|362:141,1,70,2|0,0:0|0:0,0:0:0:0:
432,104,45313,22,0,P|424:47|441:-29,2,105,2|0|0,3:2|3:0|3:0,0:0:0:0:
432,188,45979,2,0,P|435:233|428:265,1,70,2|0,1:2|0:0,0:0:0:0:
426,271,46229,1,0,0:0:0:0:
420,284,46313,2,0,P|400:324|378:348,1,70,2|0,0:0|0:0,0:0:0:0:
302,363,46646,1,0,0:0:0:0:
302,363,46813,1,8,0:3:0:0:
250,296,46979,6,0,L|167:308,1,70,8|0,0:3|0:0,0:0:0:0:
170,315,47229,1,0,3:0:0:0:
159,324,47313,2,0,L|76:312,1,70,8|4,0:3|3:0,0:0:0:0:
232,373,47646,2,0,L|315:361,1,70,4|4,0:3|3:0,0:0:0:0:
328,279,47979,22,0,P|334:204|351:120,1,140,2|2,0:0|1:2,0:0:0:0:
393,70,48479,1,0,0:0:0:0:
393,70,48646,2,0,P|357:58|299:68,1,70,2|0,0:0|0:0,0:0:0:0:
246,88,48979,2,0,P|210:100|152:90,1,70,2|0,1:2|0:0,0:0:0:0:
111,48,49313,6,0,P|123:117|98:163,1,105,4|0,0:0|0:0,0:0:0:0:
104,160,49646,2,0,P|110:235|127:319,1,140,2|2,1:2|0:0,0:0:0:0:
190,369,50146,1,8,0:3:0:0:
252,312,50313,1,0,1:0:0:0:
201,378,50479,1,4,0:3:0:0:
263,321,50646,1,0,1:0:0:0:
220,159,50979,22,0,L|213:111,2,35,0|0|0,1:0|1:0|1:0,0:0:0:0:
306,159,51313,2,0,L|313:111,2,35,0|0|0,1:0|1:0|1:0,0:0:0:0:
263,231,51646,1,0,1:0:0:0:
263,245,51729,1,0,1:0:0:0:
263,259,51813,1,0,1:0:0:0:
263,273,51896,1,0,1:0:0:0:
263,287,51979,5,0,1:0:0:0:
345,24,53313,6,0,P|407:9|517:30,2,154.000004699707,4|0|2,0:1|1:0|0:0,0:0:0:0:
263,82,54146,1,0,0:0:0:0:
326,160,54313,2,0,L|314:243,1,77.0000023498536,2|0,1:2|0:0,0:0:0:0:
228,288,54646,6,0,P|175:280|157:343,1,115.50000352478
155,340,54979,2,0,P|171:360|234:354,1,77.0000023498536,0|0,1:0|0:0,0:0:0:0:
317,336,55313,1,2,0:0:0:0:
317,336,55479,1,0,0:0:0:0:
315,236,55646,2,0,L|327:153,1,77.0000023498536,2|0,1:2|0:0,0:0:0:0:
262,83,55979,6,0,P|208:85|197:20,1,115.50000352478
196,24,56313,2,0,P|214:5|276:18,1,77.0000023498536,0|0,1:0|0:0,0:0:0:0:
356,43,56646,1,0,0:0:0:0:
356,43,56813,1,0,0:0:0:0:
411,126,56979,2,0,P|451:159|479:197,1,77.0000023498536,0|0,1:0|0:0,0:0:0:0:
481,278,57313,6,0,L|398:290,1,77.0000023498536,2|0,0:0|0:0,0:0:0:0:
368,376,57646,2,0,L|285:364,1,77.0000023498536,2|0,1:2|0:0,0:0:0:0:
229,288,57979,2,0,L|312:276,1,77.0000023498536,2|0,0:0|0:0,0:0:0:0:
368,188,58313,2,0,L|229:169,1,115.50000352478,2|0,1:2|0:0,0:0:0:0:
248,162,58646,6,0,L|165:174,1,77.0000023498536,4|0,3:2|0:0,0:0:0:0:
86,121,58979,2,0,P|71:156|84:211,1,77.0000023498536,2|0,1:2|0:0,0:0:0:0:
135,274,59313,2,0,P|99:288|70:336,1,77.0000023498536,2|0,0:0|0:0,0:0:0:0:
164,364,59646,2,0,P|199:379|254:366,1,77.0000023498536,2|0,1:2|0:0,0:0:0:0:
329,335,59979,2,0,P|391:320|501:341,2,154.000004699707,2|2|2,0:0|1:2|0:0,0:0:0:0:
247,276,60813,1,0,0:0:0:0:
274,180,60979,2,0,L|255:41,1,115.50000352478,2|0,1:2|0:0,0:0:0:0:
256,54,61313,6,0,P|204:40|179:102,1,115.50000352478,4|0,3:2|0:0,0:0:0:0:
179,97,61646,2,0,P|193:118|256:119,1,77.0000023498536,0|0,1:0|0:0,0:0:0:0:
339,110,61979,1,0,0:0:0:0:
339,110,62146,1,0,0:0:0:0:
433,74,62313,2,0,P|421:37|432:-18,1,77.0000023498536,0|0,1:0|0:0,0:0:0:0:
485,142,62646,6,0,P|496:178|486:234,1,77.0000023498536,2|0,0:0|0:0,0:0:0:0:
396,244,62979,2,0,P|378:277|331:309,1,77.0000023498536,2|0,1:2|0:0,0:0:0:0:
256,260,63313,2,0,P|219:271|164:260,1,77.0000023498536,2|0,0:0|0:0,0:0:0:0:
81,276,63646,1,0,1:0:0:0:
73,263,63729,1,0,1:0:0:0:
65,250,63813,1,0,1:0:0:0:
57,237,63896,1,0,1:0:0:0:
49,224,63979,1,0,3:0:0:0:
36,200,64313,6,0,L|48:117,1,77.0000023498536,6|0,1:2|0:0,0:0:0:0:
124,60,64646,2,0,L|136:143,1,77.0000023498536,2|0,0:0|0:0,0:0:0:0:
212,200,64979,2,0,L|224:117,1,77.0000023498536,2|0,1:2|0:0,0:0:0:0:
301,60,65313,6,0,P|364:55|469:95,2,154.000004699707,2|2|2,0:0|1:2|0:0,0:0:0:0:
207,25,66146,1,0,0:0:0:0:
223,123,66313,2,0,L|212:200,1,77.0000023498536,2|0,1:2|0:0,0:0:0:0:
256,290,66646,6,0,P|292:301|348:291,1,77.0000023498536,2|0,0:0|0:0,0:0:0:0:
423,259,66979,1,2,1:2:0:0:
343,198,67146,1,0,1:0:0:0:
331,298,67313,2,0,L|319:374,1,77.0000023498536,2|8,0:0|0:3,0:0:0:0:
412,335,67646,2,0,L|423:258,1,77.0000023498536,2|4,1:2|0:3,0:0:0:0:
343,198,67979,1,0,0:0:0:0:
316,202,68313,6,0,P|277:199|229:170,1,77.0000023498536,2|0,1:2|0:0,0:0:0:0:
174,256,68646,2,0,P|148:227|135:172,1,77.0000023498536,2|0,0:0|0:0,0:0:0:0:
183,103,68979,2,0,L|44:84,1,115.50000352478,2|0,1:2|0:0,0:0:0:0:
57,89,69313,6,0,P|38:150|53:261,2,154.000004699707,6|2|2,0:0|1:2|0:0,0:0:0:0:
129,18,70146,1,0,0:0:0:0:
183,103,70313,2,0,L|266:91,1,77.0000023498536,2|0,1:2|0:0,0:0:0:0:
358,107,70646,6,0,P|378:156|442:139,1,115.50000352478,4|0,0:0|0:0,0:0:0:0:
441,143,70979,2,0,P|449:118|412:67,1,77.0000023498536,0|0,1:0|0:0,0:0:0:0:
337,28,71313,1,2,0:0:0:0:
337,28,71479,1,0,0:0:0:0:
259,91,71646,2,0,L|271:174,1,77.0000023498536,2|2,1:2|0:0,0:0:0:0:
348,230,71979,6,0,L|329:369,1,115.50000352478,4|0,0:0|0:0,0:0:0:0:
327,355,72313,2,0,P|288:356|237:330,1,77.0000023498536,0|0,1:0|0:0,0:0:0:0:
176,279,72646,1,0,0:0:0:0:
176,279,72813,1,0,0:0:0:0:
269,244,72979,1,0,1:0:0:0:
253,343,73146,1,0,0:0:0:0:
230,364,73479,5,0,0:0:0:0:
176,279,73646,2,0,L|164:196,1,77.0000023498536,8|4,0:3|0:3,0:0:0:0:
233,129,73979,2,0,L|316:141,1,77.0000023498536,0|4,0:0|0:3,0:0:0:0:
354,50,74313,1,4,0:3:0:0:
256,63,74479,22,0,B|233:130|233:130|263:205,1,140,4|0,0:0|3:0,0:0:0:0:
196,250,74979,2,0,L|184:333,2,70,0|0|0,1:0|0:0|0:0,0:0:0:0:
276,277,75479,1,0,1:0:0:0:
256,63,75813,6,0,B|323:86|323:86|398:56,1,140,4|0,0:0|3:0,0:0:0:0:
443,123,76313,2,0,L|526:135,2,70,0|0|0,1:0|0:0|0:0,0:0:0:0:
470,43,76813,1,0,1:0:0:0:
256,63,77146,22,0,B|189:86|189:86|114:56,1,140,4|0,0:0|3:0,0:0:0:0:
69,123,77646,2,0,L|-14:135,2,70,0|0|0,1:0|0:0|0:0,0:0:0:0:
42,43,78146,1,0,1:0:0:0:
256,63,78479,6,0,B|279:130|279:130|249:205,1,140,4|0,0:0|0:0,0:0:0:0:
316,250,78979,2,0,L|328:333,1,70,0|0,1:0|0:0,0:0:0:0:
256,367,79313,1,0,0:0:0:0:
190,284,79479,2,0,L|196:250,2,35,0|0|0,1:0|1:0|1:0,0:0:0:0:
191,165,79813,22,0,B|257:140|257:140|333:169,1,140,4|0,0:0|3:0,0:0:0:0:
377,102,80313,2,0,L|459:88,2,70,0|0|0,1:0|0:0|0:0,0:0:0:0:
406,181,80813,1,0,1:0:0:0:
256,63,81146,5,4,0:0:0:0:
256,220,82313,21,2,0:3:0:0:
256,192,82646,5,0,0:0:0:0:
324,62,92979,37,0,1:0:0:0:
329,90,93313,21,0,3:0:0:0:
256,241,93646,1,0,3:0:0:0:
183,90,93979,1,2,3:2:0:0:
256,132,94146,1,2,0:0:0:0:
329,90,94313,5,2,3:2:0:0:
329,90,94479,2,0,L|352:249,1,140,2|0,0:0|0:0,0:0:0:0:
256,241,94979,1,2,3:2:0:0:
256,241,95146,2,0,L|233:400,1,140,2|0,0:0|0:0,0:0:0:0:
151,379,95646,1,2,3:2:0:0:
151,379,95813,2,0,L|128:220,1,140,2|0,0:0|0:0,0:0:0:0:
194,184,96313,1,2,3:2:0:0:
194,184,96479,2,0,L|194:45,1,140,2|0,0:0|0:0,0:0:0:0:
278,44,96979,22,0,L|350:44,1,70,0|0,3:0|0:0,0:0:0:0:
433,44,97313,2,0,L|433:116,1,70,0|0,3:0|0:0,0:0:0:0:
433,198,97646,2,0,L|361:198,1,70,0|0,3:0|0:0,0:0:0:0:
279,198,97979,6,0,L|279:270,1,70,2|0,3:2|0:0,0:0:0:0:
279,353,98313,1,2,3:2:0:0:
207,310,98479,1,2,0:0:0:0:
155,376,98646,2,0,P|124:309|169:233,2,140,0|0|0,3:0|3:0|3:0,0:0:0:0:
207,310,99479,1,0,0:0:0:0:
279,268,99646,22,0,P|335:280|423:268,2,140,2|2|2,3:2|3:2|3:2,0:0:0:0:
220,208,100479,1,0,0:0:0:0:
147,251,100646,2,0,P|135:195|147:107,1,140,2|2,3:2|3:2,0:0:0:0:
178,36,101146,1,2,0:3:0:0:
228,104,101313,6,0,L|387:127,1,140,0|0,3:0|3:0,0:0:0:0:
432,178,101813,1,2,0:3:0:0:
496,124,101979,2,0,P|482:72|485:38,1,70,0|0,3:0|0:0,0:0:0:0:
511,207,102313,2,0,P|509:263|496:295,1,70,0|0,1:0|0:0,0:0:0:0:
433,319,102646,22,0,L|350:307,1,70,0|0,3:0|3:0,0:0:0:0:
293,263,102979,1,0,1:0:0:0:
353,204,103146,2,0,L|360:156,2,35,0|0|0,1:0|1:0|1:0,0:0:0:0:
233,204,103479,2,0,L|221:121,2,70,8|0|4,0:3|3:0|0:3,0:0:0:0:
293,263,103979,1,0,0:0:0:0:
293,263,104146,1,0,0:0:0:0:
353,204,104313,2,0,L|436:216,1,70,0|0,1:0|0:0,0:0:0:0:
497,252,104646,6,0,P|506:213|489:166,1,70,2|2,0:0|0:0,0:0:0:0:
447,119,104979,1,2,1:2:0:0:
447,119,105146,2,0,P|402:132|321:88,1,140
253,46,105646,2,0,P|238:85|252:132,1,70,2|2,1:2|0:0,0:0:0:0:
248,125,105896,1,0,0:0:0:0:
253,138,105979,2,0,P|259:172|249:205,1,70,0|0,3:0|0:0,0:0:0:0:
174,244,106313,21,2,1:2:0:0:
174,244,106479,2,0,L|15:221,1,140,2|0,0:0|0:0,0:0:0:0:
0,148,106979,1,2,1:2:0:0:
0,148,107146,2,0,L|159:125,1,140,2|0,0:0|0:0,0:0:0:0:
174,52,107646,1,2,1:2:0:0:
174,52,107813,2,0,L|333:75,1,140,2|0,0:0|0:0,0:0:0:0:
375,128,108313,2,0,L|387:211,1,70,0|0,1:0|0:0,0:0:0:0:
388,211,108563,1,0,3:0:0:0:
391,225,108646,6,0,L|379:308,1,70,2|0,3:2|0:0,0:0:0:0:
315,346,108979,1,2,1:2:0:0:
315,346,109146,2,0,L|156:369,1,140,2|0,0:0|0:0,0:0:0:0:
136,293,109646,2,0,L|53:281,1,70,0|0,1:0|0:0,0:0:0:0:
19,214,109979,1,0,0:0:0:0:
19,214,110146,1,0,0:0:0:0:
96,180,110313,22,0,P|84:124|96:36,1,140,2|2,1:2|0:0,0:0:0:0:
172,12,110813,1,0,0:0:0:0:
250,43,110979,2,0,P|266:95|264:130,1,70,2|0,1:2|0:0,0:0:0:0:
265,124,111229,1,0,0:0:0:0:
261,137,111313,2,0,P|245:189|247:224,1,70,2|0,3:2|0:0,0:0:0:0:
204,278,111646,2,0,P|151:293|117:291,1,70,0|0,1:2|0:0,0:0:0:0:
61,256,111979,5,2,0:0:0:0:
61,256,112146,1,0,0:0:0:0:
14,185,112313,2,0,L|26:102,1,70,0|0,1:0|0:0,0:0:0:0:
107,128,112646,1,2,0:0:0:0:
107,128,112813,1,0,0:0:0:0:
178,81,112979,2,0,L|261:69,1,70
256,192,114646,21,4,1:0:0:0:
256,192,114813,12,2,116646,0:0:0:0:
256,192,117313,5,4,1:0:0:0:
256,192,117479,12,0,118646,0:0:0:0:
184,276,119146,21,0,3:0:0:0:
195,267,119229,1,0,3:0:0:0:
206,258,119313,1,4,0:3:0:0:
289,239,119479,2,0,P|263:203|244:106,1,140,0|0,3:0|0:3,3:0:0:0:
209,34,119979,6,0,P|260:26|305:51,2,105,0|0|0,3:0|3:0|3:0,0:0:0:0:
244,111,120646,1,0,1:0:0:0:
394,36,120979,2,0,L|382:119,1,70,2|0,0:0|0:0,0:0:0:0:
435,173,121313,2,0,L|458:332,1,140,2|0,0:0|0:0,0:0:0:0:
385,359,121813,1,0,3:0:0:0:
371,360,121896,1,0,0:0:0:0:
357,359,121979,2,0,P|325:342|304:308,1,70,2|0,1:2|0:0,0:0:0:0:
300,230,122313,2,0,P|316:198|350:178,1,70,2|0,0:0|0:0,0:0:0:0:
384,105,122646,22,0,P|441:97|517:114,2,105,0|0|0,3:0|3:0|3:0,0:0:0:0:
344,180,123313,2,0,P|299:183|267:176,1,70,2|0,1:2|0:0,0:0:0:0:
261,174,123563,1,0,0:0:0:0:
248,168,123646,2,0,P|208:148|184:126,1,70,2|0,0:0|0:0,0:0:0:0:
170,49,123979,1,0,0:0:0:0:
170,49,124146,1,8,0:3:0:0:
103,101,124313,6,0,L|115:184,1,70,8|0,0:3|3:0,0:0:0:0:
122,181,124563,1,0,3:0:0:0:
131,192,124646,2,0,L|119:275,1,70,8|8,0:3|0:3,0:0:0:0:
180,119,124979,2,0,L|168:36,1,70,4|4,0:3|0:3,0:0:0:0:
215,198,125313,22,0,P|290:204|374:221,1,140,2|2,0:0|1:2,0:0:0:0:
425,261,125813,1,0,0:0:0:0:
425,261,125979,2,0,P|437:225|427:167,1,70,2|0,0:0|0:0,0:0:0:0:
407,114,126313,2,0,P|395:78|405:20,1,70,2|0,1:2|0:0,0:0:0:0:
316,18,126646,6,0,P|247:30|201:5,1,105
205,10,126979,2,0,P|196:84|176:168,1,140,2|2,1:2|0:0,0:0:0:0:
131,215,127479,1,8,0:3:0:0:
71,156,127646,1,2,1:2:0:0:
121,225,127813,1,4,0:3:0:0:
61,166,127979,1,0,0:0:0:0:
223,121,128313,22,0,L|175:128,2,35,0|0|0,1:0|1:0|1:0,0:0:0:0:
286,64,128646,2,0,L|293:16,2,35,0|0|0,1:0|1:0|1:0,0:0:0:0:
304,146,128979,1,0,1:0:0:0:
312,156,129063,1,0,1:0:0:0:
321,167,129146,1,0,1:0:0:0:
330,178,129229,1,0,1:0:0:0:
339,188,129313,5,2,1:2:0:0:
345,24,130646,6,0,P|407:9|517:30,2,154.000004699707,4|0|2,0:1|1:0|0:0,0:0:0:0:
405,104,131479,1,0,0:0:0:0:
315,148,131646,2,0,L|303:231,1,77.0000023498536,2|0,1:2|0:0,0:0:0:0:
378,291,131979,6,0,P|425:315|402:377,1,115.50000352478
404,374,132313,2,0,P|378:380|331:338,1,77.0000023498536,0|0,1:0|0:0,0:0:0:0:
248,307,132646,1,2,0:0:0:0:
248,307,132813,1,0,0:0:0:0:
303,224,132979,2,0,L|315:148,1,77.0000023498536,2|0,1:2|0:0,0:0:0:0:
227,97,133313,6,0,P|174:88|177:22,1,115.50000352478
175,27,133646,2,0,P|197:12|254:37,1,77.0000023498536,0|0,1:0|0:0,0:0:0:0:
345,24,133979,1,0,0:0:0:0:
345,24,134146,1,0,0:0:0:0:
405,104,134313,2,0,P|456:108|503:101,1,77.0000023498536,0|0,1:0|0:0,0:0:0:0:
315,148,134646,6,0,L|303:231,1,77.0000023498536,2|0,0:0|0:0,0:0:0:0:
217,261,134979,2,0,L|229:344,1,77.0000023498536,2|0,1:2|0:0,0:0:0:0:
324,308,135313,2,0,L|336:225,1,77.0000023498536,2|0,0:0|0:0,0:0:0:0:
318,132,135646,2,0,L|179:151,1,115.50000352478,2|0,1:2|0:0,0:0:0:0:
192,149,135979,6,0,L|109:137,1,77.0000023498536,4|0,3:2|0:0,0:0:0:0:
32,83,136313,2,0,P|28:45|43:10,1,77.0000023498536,2|0,1:2|0:0,0:0:0:0:
128,65,136646,2,0,P|131:102|116:137,1,77.0000023498536,2|0,0:0|0:0,0:0:0:0:
19,165,136979,2,0,P|33:200|81:230,1,77.0000023498536,2|0,1:2|0:0,0:0:0:0:
164,225,137313,2,0,P|149:287|170:397,2,154.000004699707,2|2|2,0:0|1:2|0:0,0:0:0:0:
250,277,138146,1,0,0:0:0:0:
277,180,138313,2,0,L|258:41,1,115.50000352478,2|0,1:2|0:0,0:0:0:0:
260,54,138646,6,0,P|208:38|181:99,1,115.50000352478,4|0,3:2|0:0,0:0:0:0:
182,95,138979,2,0,P|195:117|258:120,1,77.0000023498536,0|0,1:0|0:0,0:0:0:0:
342,110,139313,1,0,0:0:0:0:
342,110,139479,1,0,0:0:0:0:
436,74,139646,2,0,P|424:37|435:-18,1,77.0000023498536,0|0,1:0|0:0,0:0:0:0:
488,142,139979,6,0,P|499:178|489:234,1,77.0000023498536,2|0,0:0|0:0,0:0:0:0:
399,244,140313,2,0,P|381:277|334:309,1,77.0000023498536,2|0,1:2|0:0,0:0:0:0:
259,260,140646,2,0,P|222:271|167:260,1,77.0000023498536,2|0,1:2|0:0,0:0:0:0:
84,276,140979,1,2,1:2:0:0:
76,263,141063,1,0,1:0:0:0:
68,250,141146,1,0,1:0:0:0:
60,237,141229,1,0,1:0:0:0:
52,224,141313,1,0,0:0:0:0:
39,200,141646,6,0,L|51:117,1,77.0000023498536,6|0,1:2|0:0,0:0:0:0:
127,60,141979,2,0,L|139:143,1,77.0000023498536,2|0,0:0|0:0,0:0:0:0:
215,200,142313,2,0,L|227:117,1,77.0000023498536,2|0,1:2|0:0,0:0:0:0:
304,60,142646,6,0,P|367:55|472:95,2,154.000004699707,2|2|2,0:0|1:2|0:0,0:0:0:0:
210,25,143479,1,0,0:0:0:0:
226,123,143646,2,0,L|215:200,1,77.0000023498536,2|0,1:2|0:0,0:0:0:0:
170,289,143979,6,0,P|134:300|78:290,1,77.0000023498536,2|0,0:0|0:0,0:0:0:0:
3,258,144313,1,2,1:2:0:0:
83,197,144479,1,0,1:0:0:0:
95,297,144646,2,0,L|107:373,1,77.0000023498536,2|8,0:0|0:3,0:0:0:0:
14,334,144979,2,0,L|3:257,1,77.0000023498536,2|4,1:2|0:3,0:0:0:0:
83,197,145313,1,0,0:0:0:0:
110,203,145646,6,0,P|149:200|197:171,1,77.0000023498536,2|0,1:2|0:0,0:0:0:0:
125,102,145979,2,0,P|151:73|164:18,1,77.0000023498536,2|0,0:0|0:0,0:0:0:0:
243,99,146313,2,0,L|382:80,1,115.50000352478,2|0,1:2|0:0,0:0:0:0:
369,85,146646,6,0,P|388:146|373:257,2,154.000004699707,6|2|2,0:0|1:2|0:0,0:0:0:0:
297,14,147479,1,0,0:0:0:0:
243,99,147646,2,0,L|160:87,1,77.0000023498536,2|0,1:2|0:0,0:0:0:0:
91,152,147979,6,0,P|53:189|1:148,1,115.50000352478,4|0,0:0|0:0,0:0:0:0:
2,153,148313,2,0,P|2:126|57:92,1,77.0000023498536,0|0,1:0|0:0,0:0:0:0:
99,14,148646,1,2,0:0:0:0:
99,14,148813,1,0,0:0:0:0:
166,87,148979,2,0,L|243:99,1,77.0000023498536,2|2,1:2|0:0,0:0:0:0:
323,160,149313,6,0,L|342:299,1,115.50000352478,4|0,3:2|0:0,0:0:0:0:
344,285,149646,2,0,P|383:286|434:260,1,77.0000023498536,0|0,1:0|0:0,0:0:0:0:
495,209,149979,1,0,0:0:0:0:
495,209,150146,1,0,0:0:0:0:
402,174,150313,1,0,1:0:0:0:
418,273,150479,1,0,3:0:0:0:
441,294,150813,5,0,0:0:0:0:
495,209,150979,2,0,L|507:126,1,77.0000023498536,8|4,0:3|0:3,0:0:0:0:
420,80,151313,2,0,L|408:-3,1,77.0000023498536,0|4,0:0|0:3,0:0:0:0:
328,64,151646,1,2,1:2:0:0:
415,91,151813,21,6,0:0:0:0:
256,144,152146,1,0,0:0:0:0:
256,144,152313,2,0,L|173:132,2,70,0|0|0,1:0|0:0|0:0,0:0:0:0:
304,236,152813,1,0,1:0:0:0:
97,91,153146,5,4,0:0:0:0:
256,144,153479,1,0,0:0:0:0:
256,144,153646,2,0,L|339:132,2,70,0|0|0,1:0|0:0|0:0,0:0:0:0:
208,236,154146,1,0,1:0:0:0:
415,381,154479,21,4,0:0:0:0:
256,328,154813,1,0,0:0:0:0:
256,328,154979,2,0,L|173:340,2,70,0|0|0,1:0|0:0|0:0,0:0:0:0:
304,236,155479,1,0,1:0:0:0:
97,381,155813,5,4,0:0:0:0:
256,328,156146,1,0,0:0:0:0:
256,328,156313,2,0,L|339:340,1,70,0|0,1:0|0:0,0:0:0:0:
380,273,156646,1,0,0:0:0:0:
304,236,156813,2,0,L|297:188,2,35,0|2|2,1:0|3:0|3:0,0:0:0:0:
379,196,157146,22,0,L|398:57,1,140,4|0,0:0|0:0,0:0:0:0:
328,0,157646,1,0,1:0:0:0:
328,0,157813,1,0,0:0:0:0:
318,83,157979,1,0,0:0:0:0:
399,45,158146,1,0,1:0:0:0:
133,196,158479,6,0,L|114:57,1,140,4|0,0:0|0:0,0:0:0:0:
184,0,158979,1,0,1:0:0:0:
184,0,159146,1,0,0:0:0:0:
194,83,159313,1,0,0:0:0:0:
113,45,159479,1,0,1:0:0:0:
379,188,159813,22,0,L|398:327,1,140,4|0,0:0|0:0,0:0:0:0:
328,384,160313,1,0,1:0:0:0:
328,384,160479,1,0,0:0:0:0:
318,301,160646,1,0,0:0:0:0:
399,339,160813,1,0,1:0:0:0:
133,188,161146,6,0,L|114:327,1,140,4|0,0:0|3:0,0:0:0:0:
112,341,161563,1,0,3:0:0:0:
109,355,161646,1,0,1:0:0:0:
202,349,161813,2,0,L|196:314,1,35,0|0,3:0|0:0,0:0:0:0:
196,301,161979,2,0,L|208:218,1,70,8|0,0:3|0:0,0:0:0:0:
256,130,162313,1,4,0:3:0:0:
280,116,162646,22,0,P|336:104|424:116,2,140,6|2|2,0:0|1:2|0:0,0:0:0:0:
268,199,163479,1,2,0:0:0:0:
280,282,163646,2,0,P|318:291|365:274,1,70,2|2,1:2|0:0,0:0:0:0:
377,363,163979,6,0,P|407:345|427:316,1,70,2|2,0:0|0:0,0:0:0:0:
416,232,164313,1,0,1:0:0:0:
338,201,164479,2,0,L|249:198,1,70,2|0,0:0|0:0,0:0:0:0:
183,196,164813,1,2,0:0:0:0:
183,196,164979,1,2,1:2:0:0:
112,242,165146,2,0,P|126:305|97:392,1,140,2|2,0:0|0:0,0:0:0:0:
23,373,165646,2,0,P|9:310|38:223,1,140,2|2,1:2|0:0,0:0:0:0:
73,167,166146,1,0,0:0:0:0:
20,102,166313,2,0,L|32:19,1,70,2|0,1:2|0:0,0:0:0:0:
113,45,166646,22,0,L|196:57,1,70,2|2,0:0|0:0,0:0:0:0:
256,96,166979,2,0,L|244:179,1,70,2|2,1:2|0:0,0:0:0:0:
292,236,167313,2,0,P|327:246|365:237,1,70,8|0,0:3|3:0,0:0:0:0:
397,164,167646,2,0,P|362:154|324:163,1,70,4|0,1:3|0:0,0:0:0:0:
439,231,167979,5,6,0:0:0:0:
246,165,168313,1,0,1:0:0:0:
163,177,168479,1,0,0:0:0:0:
80,190,168646,22,0,L|-3:202,1,70,2|2,0:0|0:0,0:0:0:0:
23,283,168979,1,2,0:0:0:0:
35,366,169146,1,0,1:0:0:0:
118,354,169313,2,0,L|267:332,1,140,0|8,0:0|0:3,0:0:0:0:
386,271,169813,2,0,L|303:259,1,70,8|4,0:3|0:3,0:0:0:0:
234,248,170146,1,4,0:3:0:0:
246,165,170313,1,4,0:3:0:0:
329,177,170479,1,6,0:0:0:0:
256,192,170646,12,2,171979,0:0:0:0:
182,182,172646,6,0,P|257:119|329:188,1,210,2|0,0:0|0:0,0:0:0:0:
256,192,173313,1,6,0:0:0:0:
256,192,177313,12,8,180979,0:3:0:0:
38,352,181313,6,0,P|63:287|52:130,1,210,4|0,1:0|3:0,0:0:0:0:
52,136,181896,1,0,3:0:0:0:
43,125,181979,1,0,1:0:0:0:
102,55,182146,2,0,L|277:81,1,175,0|0,3:0|0:0,0:0:0:0:
289,82,182646,6,0,L|448:59,2,140,2|0|2,0:0|0:2|1:2,0:0:0:0:
282,173,183479,1,0,0:0:0:0:
356,226,183646,2,0,P|367:271|352:337,1,105,2|0,1:2|0:0,0:0:0:0:
345,336,183979,6,0,L|186:313,2,140,6|0|2,0:0|0:0|1:2,0:0:0:0:
434,315,184813,1,0,0:0:0:0:
473,233,184979,2,0,P|448:193|391:157,1,105
387,157,185313,6,0,L|515:60,2,140,2|0|2,1:2|0:0|1:2,0:0:0:0:
296,157,186146,1,0,0:0:0:0:
205,157,186313,2,0,P|164:132|128:75,1,105,2|0,0:0|0:0,0:0:0:0:
127,72,186646,6,0,P|116:162|91:233,1,140,6|0,0:0|0:0,0:0:0:0:
124,297,187146,1,0,0:0:0:0:
171,219,187313,2,0,L|88:207,1,70,0|0,1:0|0:0,0:0:0:0:
134,307,187646,2,0,L|217:319,1,70,0|0,1:0|0:0,0:0:0:0:
259,244,187979,6,0,L|418:221,2,140,2|2|2,0:0|1:2|1:2,0:0:0:0:
171,219,188813,1,0,0:0:0:0:
236,156,188979,1,0,1:0:0:0:
238,142,189063,1,0,1:0:0:0:
240,128,189146,1,0,1:0:0:0:
242,114,189229,1,0,1:0:0:0:
244,100,189313,1,0,0:0:0:0:
248,73,189646,6,0,L|331:85,1,77.0000023498536,6|0,1:2|0:0,0:0:0:0:
388,161,189979,2,0,L|305:173,1,77.0000023498536,2|0,0:0|0:0,0:0:0:0:
248,249,190313,2,0,L|331:261,1,77.0000023498536,2|0,1:2|0:0,0:0:0:0:
388,338,190646,6,0,L|229:361,2,154.000004699707,2|2|2,0:0|1:2|0:0,0:0:0:0:
436,250,191479,1,0,0:0:0:0:
388,161,191646,2,0,L|311:150,1,77.0000023498536,2|0,1:2|0:0,0:0:0:0:
213,136,191979,6,0,P|179:153|147:200,1,77.0000023498536,2|0,0:0|0:0,0:0:0:0:
116,276,192313,1,2,1:2:0:0:
216,262,192479,1,0,1:0:0:0:
154,183,192646,2,0,L|108:120,1,77.0000023498536,2|8,0:0|0:3,0:0:0:0:
47,231,192979,2,0,L|93:293,1,77.0000023498536,2|4,1:2|0:3,0:0:0:0:
239,279,193313,6,0,L|335:150,1,154.000004699707,2|2,0:0|1:2,0:0:0:0:
260,50,193813,1,0,0:0:0:0:
183,113,193979,2,0,P|147:124|91:114,1,77.0000023498536,2|0,0:0|0:0,0:0:0:0:
20,74,194313,2,0,P|31:110|21:166,1,77.0000023498536,2|0,1:2|0:0,0:0:0:0:
92,46,194646,6,0,P|108:117|101:173,1,115.50000352478,6|0,0:0|0:0,0:0:0:0:
101,174,194979,2,0,P|90:210|100:266,1,77.0000023498536,0|0,1:0|0:0,0:0:0:0:
190,219,195313,1,0,0:0:0:0:
190,219,195479,1,0,0:0:0:0:
279,266,195646,2,0,P|290:230|280:174,1,77.0000023498536,0|0,1:0|0:0,0:0:0:0:
351,294,195979,6,0,P|367:223|360:167,1,115.50000352478,4|0,0:0|0:0,0:0:0:0:
360,166,196313,2,0,P|349:130|359:74,1,77.0000023498536,0|0,1:0|0:0,0:0:0:0:
406,6,196646,1,2,0:0:0:0:
406,6,196813,1,0,0:0:0:0:
306,2,196979,2,0,L|229:13,1,77.0000023498536,0|2,1:0|0:0,0:0:0:0:
352,91,197313,6,0,B|348:117|327:159|397:166|356:210|369:236|364:278,2,154.000004699707,6|0|0,3:2|1:0|0:0,0:0:0:0:
406,6,198146,1,0,0:0:0:0:
306,2,198313,2,0,L|229:13,1,77.0000023498536,0|0,1:0|0:0,0:0:0:0:
155,80,198646,6,0,L|144:157,1,77.0000023498536
44,156,198979,2,0,L|55:233,1,77.0000023498536,8|4,0:3|0:3,0:0:0:0:
144,232,199313,2,0,L|133:309,1,77.0000023498536,2|0,0:0|1:0,0:0:0:0:
174,374,199646,2,0,L|251:385,1,77.0000023498536,2|0,0:0|1:0,0:0:0:0:
261,310,199979,5,2,0:0:0:0:
144,232,200313,1,2,0:0:0:0:
261,155,200646,1,2,0:0:0:0:
144,78,200979,1,2,0:0:0:0:
261,1,201313,1,2,0:0:0:0:
378,78,201646,2,0,L|358:220,1,125.999996154785,2|0,0:0|0:0,0:0:0:0:
261,155,202313,1,2,0:0:0:0:
176,203,202646,22,0,L|191:313,1,97.9999970092774,2|2,0:0|0:0,0:0:0:0:
274,252,203313,2,0,L|259:142,2,97.9999970092774,2|2|2,0:0|0:0|0:0,0:0:0:0:
334,330,204313,2,0,L|444:345,2,97.9999970092774,2|2|2,0:0|0:0|0:0,0:0:0:0:
266,366,205313,6,0,L|184:377,1,70,2|2,0:0|0:0,0:0:0:0:
132,334,205979,2,0,L|50:323,1,70,2|2,0:0|0:0,0:0:0:0:
18,262,206646,2,0,L|-1:114,1,140,2|2,0:0|0:0,0:0:0:0:
42,58,207646,2,0,L|86:52,1,35,2|2,0:0|0:0,0:0:0:0:
108,76,207979,21,2,0:0:0:0:
256,192,208146,12,2,209313,0:0:0:0:
255,192,210646,6,0,P|309:174|367:192,1,115.49999647522,2|2,0:0|0:0,0:0:0:0:
389,212,212646,2,0,L|389:243,1,31.4999990386963,2|2,0:0|0:0,0:0:0:0:
389,277,213313,22,0,P|335:295|277:277,1,115.49999647522,2|0,0:0|0:0,0:0:0:0:
255,256,215313,2,0,L|255:225,1,31.4999990386963,2|2,0:0|0:0,0:0:0:0:
255,191,215979,6,0,P|201:209|143:191,1,115.49999647522,2|0,0:0|0:0,0:0:0:0:
120,173,217979,2,0,L|120:142,1,31.4999990386963,2|0,0:0|0:0,0:0:0:0:
144,118,218646,22,0,P|198:100|256:118,1,115.49999647522,2|0,0:0|0:0,0:0:0:0:
253,0,221313,6,0,L|253:116,1,115.49999647522,2|2,0:0|0:0,0:0:0:0:
287,115,223313,2,0,L|322:115,1,31.4999990386963,2|2,0:0|0:0,0:0:0:0:
352,115,223979,22,0,L|352:231,1,115.49999647522,2|2,0:0|0:0,0:0:0:0:
352,264,225979,2,0,L|317:264,1,31.4999990386963,2|2,0:0|0:0,0:0:0:0:
287,264,226646,6,0,L|287:380,1,115.49999647522,2|2,0:0|0:0,0:0:0:0:
253,379,228646,2,0,L|218:379,1,31.4999990386963,2|2,0:0|0:0,0:0:0:0:
188,379,229313,5,2,0:0:0:0:
