osu file format v14

[General]
AudioFilename: audio.mp3
AudioLeadIn: 0
PreviewTime: 72529
Countdown: 0
SampleSet: Normal
StackLeniency: 0.7
Mode: 1
LetterboxInBreaks: 0
WidescreenStoryboard: 1

[Editor]
DistanceSpacing: 0.5
BeatDivisor: 4
GridSize: 4
TimelineZoom: 1.9

[Metadata]
Title:Melty Land Nightmare
TitleUnicode:メルティランドナイトメア
Artist:Harumaki Gohan feat. Hatsune Miku
ArtistUnicode:はるまきごはん feat. 初音ミク
Creator:Yin_HK
Version:Time Over
Source:
Tags:japanese j-pop jpop pop vocaloid ft. Melty-chan Don Two Music 2 featured artist fa
BeatmapID:3149078
BeatmapSetID:1536400

[Difficulty]
HPDrainRate:5.5
CircleSize:2
OverallDifficulty:5.5
ApproachRate:0
SliderMultiplier:1.4
SliderTickRate:1

[Events]
//Background and Video events
Video,-790,"video.avi"
0,0,"picture.png",0,0
//Break Periods
//Storyboard Layer 0 (Background)
//Storyboard Layer 1 (Fail)
//Storyboard Layer 2 (Pass)
//Storyboard Layer 3 (Foreground)
//Storyboard Layer 4 (Overlay)
//Storyboard Sound Samples

[TimingPoints]
529,428.571428571429,4,1,0,60,1,0
7171,-95.2380952380952,4,1,0,60,0,0
7386,-86.9565217391304,4,1,0,70,0,1
13386,-89.2857142857143,4,1,0,70,0,1
13493,-91.743119266055,4,1,0,69,0,1
13600,-93.4579439252336,4,1,0,67,0,1
13707,-96.1538461538461,4,1,0,66,0,1
13814,-98.0392156862745,4,1,0,64,0,1
13921,-101.010101010101,4,1,0,63,0,1
14029,-103.092783505155,4,1,0,62,0,1
14136,-106.382978723404,4,1,0,60,0,1
14243,-108.695652173913,4,1,0,59,0,0
14457,-112.359550561798,4,1,0,56,0,0
14564,-116.279069767442,4,1,0,55,0,0
14671,-120.481927710843,4,1,0,53,0,0
14779,-123.456790123457,4,1,0,52,0,0
14886,-126.582278481013,4,1,0,51,0,0
14993,-128.205128205128,4,1,0,49,0,0
15100,-131.578947368421,4,1,0,48,0,0
15314,-135.135135135135,4,1,0,48,0,0
15421,-138.888888888889,4,1,0,48,0,0
15957,-100,4,1,0,70,0,1
29243,-100,4,1,0,60,0,0
71886,-98.0392156862745,4,1,0,60,0,0
71993,-96.1538461538461,4,1,0,60,0,0
72100,-94.3396226415094,4,1,0,60,0,0
72207,-92.5925925925926,4,1,0,60,0,0
72314,-90.9090909090909,4,1,0,60,0,0
72421,-89.2857142857143,4,1,0,60,0,0
72529,-86.9565217391304,4,1,0,70,0,1
99314,-90.9090909090909,4,1,0,70,0,1
99529,-94.3396226415094,4,1,0,70,0,1
99743,-97.0873786407767,4,1,0,70,0,1
99957,-100,4,1,0,70,0,1
113243,-100,4,1,0,60,0,0
155886,-98.0392156862745,4,1,0,60,0,0
155993,-96.1538461538461,4,1,0,60,0,0
156100,-94.3396226415094,4,1,0,60,0,0
156207,-92.5925925925926,4,1,0,60,0,0
156314,-90.9090909090909,4,1,0,60,0,0
156421,-89.2857142857143,4,1,0,60,0,0
156475,-86.9565217391304,4,1,0,60,0,0
156529,-86.9565217391304,4,1,0,70,0,1
183314,-83.3333333333333,4,1,0,70,0,1
183529,-81.3008130081301,4,1,0,70,0,1
183743,-80,4,1,0,70,0,1
183957,-78.125,4,1,0,70,0,1
197671,-78.125,4,1,0,70,0,0
199386,-100,4,1,0,60,0,0
202814,-111.111111111111,4,1,0,60,0,0
206243,-125,4,1,0,60,0,0
207957,-121.75329616611,4,1,0,60,0,0
208171,-118.670839133371,4,1,0,60,0,0
208386,-115.740740740741,4,1,0,60,0,0
208600,-112.951849755968,4,1,0,60,0,0
208814,-110.294077097766,4,1,0,60,0,0
209029,-107.758620689655,4,1,0,60,0,0
209243,-105.337115638032,4,1,0,60,0,0
209457,-103.021942643564,4,1,0,60,0,0
209671,-100.806451612903,4,1,0,60,0,0
209779,-99.7340093969384,4,1,0,60,0,0
209886,-98.6842429882378,4,1,0,60,0,0
209993,-97.65625,4,1,0,60,0,0
210100,-96.6494533990163,4,1,0,60,0,0
210207,-95.6632958109999,4,1,0,60,0,0
210314,-94.6969696969697,4,1,0,60,0,0
210421,-93.7499707031342,4,1,0,60,0,0
210529,-92.8218108978375,4,1,0,60,0,0
210636,-91.9117647058823,4,1,0,60,0,0
210743,-91.019389860622,4,1,0,60,0,0
210850,-90.1442578558467,4,1,0,60,0,0
210957,-89.2857142857143,4,1,0,60,0,0
211386,-86.9565217391304,4,1,0,70,0,1
238171,-83.3333333333333,4,1,0,70,0,1
238386,-81.3008130081301,4,1,0,70,0,1
238600,-80,4,1,0,70,0,1
238814,-78.125,4,1,0,70,0,1
252100,-100,4,1,0,70,0,1
252529,-100,4,1,0,60,0,0
255957,-121.951219512195,4,1,0,50,0,0
259386,-133.333333333333,4,1,0,40,0,0

[HitObjects]
256,192,314,5,2,0:0:0:0:
256,192,421,1,2,0:0:0:0:
256,192,529,1,2,0:0:0:0:
256,192,743,1,2,0:0:0:0:
256,192,957,1,0,0:0:0:0:
256,192,1171,1,2,0:0:0:0:
256,192,1279,1,2,0:0:0:0:
256,192,1386,1,0,0:0:0:0:
256,192,1600,1,0,0:0:0:0:
256,192,1707,1,0,0:0:0:0:
256,192,1921,1,0,0:0:0:0:
256,192,2029,1,2,0:0:0:0:
256,192,2457,1,0,0:0:0:0:
256,192,2671,1,2,0:0:0:0:
256,192,2886,1,0,0:0:0:0:
256,192,2993,1,0,0:0:0:0:
256,192,3100,1,2,0:0:0:0:
256,192,3314,1,0,0:0:0:0:
256,192,3421,1,2,0:0:0:0:
256,192,3743,1,2,0:0:0:0:
256,192,3850,1,2,0:0:0:0:
256,192,3957,1,0,0:0:0:0:
256,192,4171,1,2,0:0:0:0:
256,192,4386,1,0,0:0:0:0:
256,192,4600,1,2,0:0:0:0:
256,192,4707,1,0,0:0:0:0:
256,192,4814,1,0,0:0:0:0:
256,192,5029,1,0,0:0:0:0:
256,192,5136,1,0,0:0:0:0:
256,192,5350,1,0,0:0:0:0:
256,192,5457,1,2,0:0:0:0:
256,192,5886,1,0,0:0:0:0:
256,192,6100,1,2,0:0:0:0:
256,192,6314,1,0,0:0:0:0:
256,192,6529,1,0,0:0:0:0:
256,192,6636,1,2,0:0:0:0:
256,192,6743,1,0,0:0:0:0:
256,192,6850,1,0,0:0:0:0:
256,192,6957,1,2,0:0:0:0:
256,192,7171,1,2,0:0:0:0:
256,192,7386,1,4,0:0:0:0:
256,192,7600,1,0,0:0:0:0:
256,192,7814,1,2,0:0:0:0:
256,192,8029,1,2,0:0:0:0:
256,192,8136,1,2,0:0:0:0:
256,192,8243,1,0,0:0:0:0:
256,192,8457,1,0,0:0:0:0:
256,192,8671,1,2,0:0:0:0:
256,192,8886,1,0,0:0:0:0:
256,192,8993,1,0,0:0:0:0:
256,192,9100,1,0,0:0:0:0:
256,192,9314,1,2,0:0:0:0:
256,196,9529,1,2,0:0:0:0:
256,192,9636,1,2,0:0:0:0:
256,192,9743,1,0,0:0:0:0:
256,192,9850,1,0,0:0:0:0:
256,192,9957,1,2,0:0:0:0:
256,192,10171,1,0,0:0:0:0:
256,192,10279,1,0,0:0:0:0:
256,196,10386,1,2,0:0:0:0:
256,192,10600,1,0,0:0:0:0:
256,192,10814,1,6,0:0:0:0:
256,192,11243,1,2,0:0:0:0:
256,192,11457,1,2,0:0:0:0:
256,192,11564,1,2,0:0:0:0:
256,192,11671,1,0,0:0:0:0:
256,192,11886,1,2,0:0:0:0:
256,192,11993,1,2,0:0:0:0:
256,192,12100,1,2,0:0:0:0:
256,192,12314,1,4,0:0:0:0:
256,192,12743,1,0,0:0:0:0:
256,192,12957,1,2,0:0:0:0:
256,192,13171,1,0,0:0:0:0:
256,192,13386,1,0,0:0:0:0:
256,192,13493,1,0,0:0:0:0:
256,192,13600,1,0,0:0:0:0:
256,192,13707,1,2,0:0:0:0:
256,192,14029,1,2,0:0:0:0:
256,192,14136,1,2,0:0:0:0:
256,192,14243,1,0,0:0:0:0:
256,192,14457,1,0,0:0:0:0:
256,192,14564,1,0,0:0:0:0:
256,192,14671,1,2,0:0:0:0:
256,192,14779,1,0,0:0:0:0:
256,192,14886,1,2,0:0:0:0:
256,192,14993,1,0,0:0:0:0:
256,192,15100,1,2,0:0:0:0:
256,192,15314,1,0,0:0:0:0:
256,192,15421,1,2,0:0:0:0:
256,192,15957,1,4,0:0:0:0:
256,192,16386,1,2,0:0:0:0:
256,192,16814,1,0,0:0:0:0:
256,192,17029,1,0,0:0:0:0:
256,192,17243,1,2,0:0:0:0:
256,192,17457,1,0,0:0:0:0:
256,192,17886,1,0,0:0:0:0:
256,192,18100,1,2,0:0:0:0:
256,192,18314,1,0,0:0:0:0:
256,192,18421,1,0,0:0:0:0:
256,192,18529,1,2,0:0:0:0:
256,192,18743,1,0,0:0:0:0:
256,192,18850,1,2,0:0:0:0:
256,192,18957,1,0,0:0:0:0:
256,192,19171,1,2,0:0:0:0:
256,192,19386,1,0,0:0:0:0:
256,192,19814,1,2,0:0:0:0:
256,192,20243,1,0,0:0:0:0:
256,192,20457,1,2,0:0:0:0:
256,192,20671,1,2,0:0:0:0:
256,192,20886,1,0,0:0:0:0:
256,192,21314,1,0,0:0:0:0:
256,192,21529,1,2,0:0:0:0:
256,192,21743,1,0,0:0:0:0:
256,192,21850,1,0,0:0:0:0:
256,192,21957,1,2,0:0:0:0:
256,192,22171,1,0,0:0:0:0:
256,192,22279,1,2,0:0:0:0:
256,192,22600,1,2,0:0:0:0:
256,192,22814,1,0,0:0:0:0:
256,192,23243,1,2,0:0:0:0:
256,192,23671,1,0,0:0:0:0:
256,192,23886,1,0,0:0:0:0:
256,192,24100,1,2,0:0:0:0:
256,192,24314,1,0,0:0:0:0:
256,192,24421,1,0,0:0:0:0:
256,192,24529,1,0,0:0:0:0:
256,192,24743,1,2,0:0:0:0:
256,192,24957,1,2,0:0:0:0:
256,192,25064,1,2,0:0:0:0:
256,192,25171,1,0,0:0:0:0:
256,192,25279,1,0,0:0:0:0:
256,192,25386,1,2,0:0:0:0:
256,192,25600,1,0,0:0:0:0:
256,192,25707,1,0,0:0:0:0:
256,192,25814,1,2,0:0:0:0:
256,192,26029,1,0,0:0:0:0:
256,192,26243,1,0,0:0:0:0:
256,192,26457,1,0,0:0:0:0:
256,192,26564,1,2,0:0:0:0:
256,192,26671,1,2,0:0:0:0:
256,192,26886,1,0,0:0:0:0:
256,192,27314,1,2,0:0:0:0:
256,192,27421,1,2,0:0:0:0:
256,192,27529,1,2,0:0:0:0:
256,192,27743,1,0,0:0:0:0:
256,192,28171,1,0,0:0:0:0:
256,192,28386,1,2,0:0:0:0:
256,192,28600,1,0,0:0:0:0:
256,192,28707,1,0,0:0:0:0:
256,192,28814,1,2,0:0:0:0:
256,192,29029,1,0,0:0:0:0:
256,192,29136,1,2,0:0:0:0:
256,192,29671,1,0,0:0:0:0:
256,192,30100,1,2,0:0:0:0:
256,192,30314,1,2,0:0:0:0:
256,192,30529,1,0,0:0:0:0:
256,192,30957,1,2,0:0:0:0:
256,192,31386,1,0,0:0:0:0:
256,192,31600,1,2,0:0:0:0:
256,192,31814,1,0,0:0:0:0:
256,192,31921,1,0,0:0:0:0:
256,192,32029,1,0,0:0:0:0:
256,192,32243,1,2,0:0:0:0:
256,192,32457,1,0,0:0:0:0:
256,192,32564,1,0,0:0:0:0:
256,192,32671,1,2,0:0:0:0:
256,192,32993,1,0,0:0:0:0:
256,192,33100,1,2,0:0:0:0:
256,192,33314,1,0,0:0:0:0:
256,192,33421,1,0,0:0:0:0:
256,192,33529,1,2,0:0:0:0:
256,192,33743,1,2,0:0:0:0:
256,192,33957,1,0,0:0:0:0:
256,192,34064,1,0,0:0:0:0:
256,192,34171,1,2,0:0:0:0:
256,192,34279,1,2,0:0:0:0:
256,192,34386,1,0,0:0:0:0:
256,192,34600,1,2,0:0:0:0:
256,192,34814,1,0,0:0:0:0:
256,192,35243,1,2,0:0:0:0:
256,192,35457,1,0,0:0:0:0:
256,192,35671,1,0,0:0:0:0:
256,192,35779,1,0,0:0:0:0:
256,192,35886,1,0,0:0:0:0:
256,192,36100,1,2,0:0:0:0:
256,192,36529,1,0,0:0:0:0:
256,192,36743,1,0,0:0:0:0:
256,192,36957,1,2,0:0:0:0:
256,192,37171,1,2,0:0:0:0:
256,192,37279,1,2,0:0:0:0:
256,192,37386,1,0,0:0:0:0:
256,192,37600,1,2,0:0:0:0:
256,192,37814,1,0,0:0:0:0:
256,192,37921,1,0,0:0:0:0:
256,192,38029,1,0,0:0:0:0:
256,192,38136,1,0,0:0:0:0:
256,192,38243,1,2,0:0:0:0:
256,192,38671,1,2,0:0:0:0:
256,192,38779,1,2,0:0:0:0:
256,192,38886,1,2,0:0:0:0:
256,192,39100,1,0,0:0:0:0:
256,192,39421,1,0,0:0:0:0:
256,192,39529,1,2,0:0:0:0:
256,192,39743,1,2,0:0:0:0:
256,192,39957,1,0,0:0:0:0:
256,192,40064,1,0,0:0:0:0:
256,192,40171,1,0,0:0:0:0:
256,192,40386,1,0,0:0:0:0:
256,192,40493,1,0,0:0:0:0:
256,192,40600,1,2,0:0:0:0:
256,192,40814,1,2,0:0:0:0:
256,192,41243,1,0,0:0:0:0:
256,192,41564,1,0,0:0:0:0:
256,192,41671,1,0,0:0:0:0:
256,192,41886,1,2,0:0:0:0:
256,192,42100,1,0,0:0:0:0:
256,192,42314,1,2,0:0:0:0:
256,192,42421,1,2,0:0:0:0:
257,196,42529,1,0,0:0:0:0:
256,192,42743,1,0,0:0:0:0:
256,192,42850,1,2,0:0:0:0:
256,192,42957,1,0,0:0:0:0:
256,192,43064,1,0,0:0:0:0:
256,192,43171,1,2,0:0:0:0:
256,192,43279,1,0,0:0:0:0:
257,196,43386,1,2,0:0:0:0:
256,192,43814,1,4,0:0:0:0:
256,192,44243,1,2,0:0:0:0:
256,192,44457,1,2,0:0:0:0:
256,192,44671,1,0,0:0:0:0:
256,192,44886,1,0,0:0:0:0:
256,192,45314,1,0,0:0:0:0:
256,192,45421,1,0,0:0:0:0:
256,192,45529,1,2,0:0:0:0:
256,192,45743,1,2,0:0:0:0:
256,192,46171,1,0,0:0:0:0:
256,192,46386,1,0,0:0:0:0:
256,192,46600,1,2,0:0:0:0:
256,192,46814,1,0,0:0:0:0:
256,192,47029,1,2,0:0:0:0:
256,187,47136,1,2,0:0:0:0:
256,192,47243,1,0,0:0:0:0:
256,192,47457,1,2,0:0:0:0:
257,185,47671,1,0,0:0:0:0:
256,192,47779,1,0,0:0:0:0:
256,192,47886,1,2,0:0:0:0:
256,192,47993,1,0,0:0:0:0:
256,187,48100,1,2,0:0:0:0:
256,192,48314,1,0,0:0:0:0:
256,192,48529,1,2,0:0:0:0:
256,192,48743,1,2,0:0:0:0:
256,192,48957,1,0,0:0:0:0:
256,192,49171,1,0,0:0:0:0:
256,192,49600,1,0,0:0:0:0:
256,192,49814,1,2,0:0:0:0:
256,192,50029,1,2,0:0:0:0:
256,192,50243,1,4,0:0:0:0:
256,192,50671,1,2,0:0:0:0:
256,192,51100,1,0,0:0:0:0:
256,192,51314,1,2,0:0:0:0:
256,192,51529,1,0,0:0:0:0:
256,192,51743,1,0,0:0:0:0:
256,192,52171,1,0,0:0:0:0:
256,192,52279,1,0,0:0:0:0:
256,192,52386,1,2,0:0:0:0:
256,192,52600,1,2,0:0:0:0:
256,192,53029,1,0,0:0:0:0:
256,192,53243,1,2,0:0:0:0:
256,192,53457,1,0,0:0:0:0:
256,192,53671,1,2,0:0:0:0:
256,192,53886,1,0,0:0:0:0:
256,192,53993,1,2,0:0:0:0:
256,192,54100,1,2,0:0:0:0:
256,192,54314,1,0,0:0:0:0:
256,192,54529,1,2,0:0:0:0:
256,192,54636,1,0,0:0:0:0:
256,192,54743,1,2,0:0:0:0:
256,192,54850,1,0,0:0:0:0:
256,192,54957,1,2,0:0:0:0:
256,192,55171,1,0,0:0:0:0:
256,192,55386,1,2,0:0:0:0:
256,192,55600,1,2,0:0:0:0:
256,192,55814,1,0,0:0:0:0:
256,192,56029,1,2,0:0:0:0:
256,192,56457,1,0,0:0:0:0:
256,192,56671,1,2,0:0:0:0:
256,192,56886,1,2,0:0:0:0:
256,192,57100,1,0,0:0:0:0:
256,192,57314,1,0,0:0:0:0:
256,192,57421,1,0,0:0:0:0:
256,192,57529,1,2,0:0:0:0:
256,192,57743,1,2,0:0:0:0:
256,192,57957,1,0,0:0:0:0:
256,192,58064,1,0,0:0:0:0:
256,192,58171,1,2,0:0:0:0:
256,192,58279,1,0,0:0:0:0:
256,192,58386,1,2,0:0:0:0:
256,192,58600,1,2,0:0:0:0:
256,192,59029,1,0,0:0:0:0:
256,192,59243,1,2,0:0:0:0:
256,192,59457,1,0,0:0:0:0:
256,192,59671,1,0,0:0:0:0:
256,192,59886,1,0,0:0:0:0:
256,192,59993,1,0,0:0:0:0:
256,192,60100,1,2,0:0:0:0:
256,192,60314,1,2,0:0:0:0:
256,192,60529,1,0,0:0:0:0:
256,192,60743,1,2,0:0:0:0:
256,192,60850,1,2,0:0:0:0:
254,196,60957,1,2,0:0:0:0:
256,192,61171,1,0,0:0:0:0:
256,192,61386,1,0,0:0:0:0:
257,197,61493,1,2,0:0:0:0:
256,192,61600,1,2,0:0:0:0:
256,192,61707,1,2,0:0:0:0:
256,192,61814,1,0,0:0:0:0:
256,192,62029,1,2,0:0:0:0:
256,192,62243,1,0,0:0:0:0:
257,190,62457,1,0,0:0:0:0:
256,192,62564,1,0,0:0:0:0:
256,192,62671,1,2,0:0:0:0:
256,192,62886,1,0,0:0:0:0:
257,190,63314,1,0,0:0:0:0:
256,192,63529,1,2,0:0:0:0:
256,192,63743,1,0,0:0:0:0:
257,190,63957,1,2,0:0:0:0:
257,190,64064,1,2,0:0:0:0:
257,190,64279,1,0,0:0:0:0:
256,192,64386,1,0,0:0:0:0:
256,192,64600,1,2,0:0:0:0:
257,190,65029,1,0,0:0:0:0:
253,194,65243,1,2,0:0:0:0:
256,192,65457,1,0,0:0:0:0:
257,190,65671,1,2,0:0:0:0:
257,190,65779,1,0,0:0:0:0:
257,190,65886,1,0,0:0:0:0:
257,190,65993,1,0,0:0:0:0:
256,190,66100,1,2,0:0:0:0:
257,189,66207,1,2,0:0:0:0:
256,192,66314,1,0,0:0:0:0:
257,190,66743,1,2,0:0:0:0:
257,190,66957,1,0,0:0:0:0:
256,193,67171,1,2,0:0:0:0:
259,197,67386,1,4,0:0:0:0:
256,193,67814,1,6,0:0:0:0:
256,191,68243,1,4,0:0:0:0:
256,193,68671,1,4,0:0:0:0:
256,191,68886,1,4,0:0:0:0:
256,193,69314,1,4,0:0:0:0:
256,191,69743,1,6,0:0:0:0:
256,193,69957,1,0,0:0:0:0:
261,190,70064,1,2,0:0:0:0:
256,193,70171,1,0,0:0:0:0:
256,193,70279,1,0,0:0:0:0:
256,191,70386,1,2,0:0:0:0:
256,191,70493,1,2,0:0:0:0:
256,191,70600,1,2,0:0:0:0:
256,191,70707,1,2,0:0:0:0:
256,193,70814,1,0,0:0:0:0:
261,190,71029,1,0,0:0:0:0:
256,193,71136,1,0,0:0:0:0:
256,193,71243,1,2,0:0:0:0:
256,191,71350,1,0,0:0:0:0:
256,191,71457,1,2,0:0:0:0:
256,191,71564,1,0,0:0:0:0:
256,191,71671,1,2,0:0:0:0:
256,193,71886,1,0,0:0:0:0:
256,193,71993,1,0,0:0:0:0:
256,193,72100,1,2,0:0:0:0:
256,193,72207,1,2,0:0:0:0:
256,191,72314,1,2,0:0:0:0:
256,191,72421,1,2,0:0:0:0:
256,191,72529,1,4,0:0:0:0:
256,193,72743,1,0,0:0:0:0:
256,193,72850,1,0,0:0:0:0:
256,193,72957,1,2,0:0:0:0:
256,193,73171,1,2,0:0:0:0:
256,191,73279,1,0,0:0:0:0:
256,191,73386,1,2,0:0:0:0:
256,193,73600,1,0,0:0:0:0:
256,193,73707,1,0,0:0:0:0:
256,193,73921,1,0,0:0:0:0:
256,193,74029,1,2,0:0:0:0:
256,191,74243,1,0,0:0:0:0:
256,193,74457,1,0,0:0:0:0:
256,193,74564,1,0,0:0:0:0:
256,193,74671,1,2,0:0:0:0:
256,193,74886,1,0,0:0:0:0:
256,193,75100,1,2,0:0:0:0:
256,193,75207,1,0,0:0:0:0:
256,193,75314,1,0,0:0:0:0:
256,193,75421,1,2,0:0:0:0:
256,193,75529,1,0,0:0:0:0:
256,193,75743,1,2,0:0:0:0:
256,193,76171,1,0,0:0:0:0:
256,193,76386,1,2,0:0:0:0:
256,193,76493,1,2,0:0:0:0:
256,193,76600,1,0,0:0:0:0:
256,193,76707,1,2,0:0:0:0:
256,193,76814,1,0,0:0:0:0:
256,193,77029,1,0,0:0:0:0:
256,193,77136,1,0,0:0:0:0:
256,193,77350,1,0,0:0:0:0:
256,193,77457,1,2,0:0:0:0:
256,193,77671,1,0,0:0:0:0:
256,193,77886,1,0,0:0:0:0:
256,193,77993,1,0,0:0:0:0:
256,193,78100,1,2,0:0:0:0:
256,193,78207,1,0,0:0:0:0:
256,193,78314,1,2,0:0:0:0:
256,193,78421,1,2,0:0:0:0:
256,193,78529,1,0,0:0:0:0:
256,193,78743,1,2,0:0:0:0:
256,193,78957,1,0,0:0:0:0:
256,193,79171,1,0,0:0:0:0:
256,193,79600,1,0,0:0:0:0:
256,193,79707,1,0,0:0:0:0:
256,193,79814,1,2,0:0:0:0:
256,193,79921,1,0,0:0:0:0:
256,193,80029,1,2,0:0:0:0:
256,193,80243,1,0,0:0:0:0:
256,193,80457,1,2,0:0:0:0:
256,193,80564,1,2,0:0:0:0:
256,193,80671,1,0,0:0:0:0:
256,193,80779,1,2,0:0:0:0:
256,193,80886,1,2,0:0:0:0:
256,193,81100,1,0,0:0:0:0:
256,193,81314,1,2,0:0:0:0:
256,193,81421,1,0,0:0:0:0:
256,193,81529,1,2,0:0:0:0:
256,193,81743,1,0,0:0:0:0:
256,193,81850,1,0,0:0:0:0:
256,193,81957,1,2,0:0:0:0:
256,193,82171,1,2,0:0:0:0:
256,193,82279,1,0,0:0:0:0:
256,193,82386,1,0,0:0:0:0:
256,193,82600,1,2,0:0:0:0:
256,193,82814,1,0,0:0:0:0:
256,193,83029,1,0,0:0:0:0:
256,193,83136,1,0,0:0:0:0:
256,193,83243,1,2,0:0:0:0:
256,193,83457,1,0,0:0:0:0:
256,193,83886,1,2,0:0:0:0:
256,193,83993,1,2,0:0:0:0:
256,192,84100,1,0,0:0:0:0:
256,192,84314,12,0,85814,0:0:0:0:
255,192,86243,5,0,0:0:0:0:
255,192,86457,1,2,0:0:0:0:
255,192,86564,1,0,0:0:0:0:
255,192,86671,1,2,0:0:0:0:
255,192,86886,1,0,0:0:0:0:
255,192,87100,1,2,0:0:0:0:
255,192,87314,1,0,0:0:0:0:
255,192,87421,1,0,0:0:0:0:
255,192,87529,1,0,0:0:0:0:
255,192,87743,1,2,0:0:0:0:
255,192,87957,1,0,0:0:0:0:
255,192,88171,1,0,0:0:0:0:
255,192,88279,1,0,0:0:0:0:
255,192,88386,1,2,0:0:0:0:
255,192,88600,1,0,0:0:0:0:
255,192,88814,1,2,0:0:0:0:
255,192,89029,1,0,0:0:0:0:
255,192,89136,1,2,0:0:0:0:
255,192,89243,1,0,0:0:0:0:
255,192,89457,1,2,0:0:0:0:
255,192,89886,1,0,0:0:0:0:
255,192,89993,1,0,0:0:0:0:
255,192,90100,1,0,0:0:0:0:
255,192,90314,1,2,0:0:0:0:
255,192,90421,1,2,0:0:0:0:
255,192,90529,1,0,0:0:0:0:
255,192,90636,1,2,0:0:0:0:
255,192,90850,1,2,0:0:0:0:
255,192,90957,1,0,0:0:0:0:
255,192,91064,1,0,0:0:0:0:
255,192,91171,1,2,0:0:0:0:
255,192,91600,1,0,0:0:0:0:
255,192,91814,1,0,0:0:0:0:
255,192,91921,1,0,0:0:0:0:
255,192,92029,1,2,0:0:0:0:
255,192,92243,1,0,0:0:0:0:
255,192,92457,1,2,0:0:0:0:
255,192,92564,1,2,0:0:0:0:
255,192,92671,1,2,0:0:0:0:
255,192,92886,1,0,0:0:0:0:
255,192,93100,1,0,0:0:0:0:
255,192,93314,1,0,0:0:0:0:
255,192,93421,1,0,0:0:0:0:
255,192,93529,1,2,0:0:0:0:
255,192,93743,1,2,0:0:0:0:
255,192,93850,1,2,0:0:0:0:
255,192,93957,1,0,0:0:0:0:
255,192,94171,1,2,0:0:0:0:
255,192,94279,1,0,0:0:0:0:
255,192,94493,1,0,0:0:0:0:
255,192,94600,1,2,0:0:0:0:
255,192,94814,1,0,0:0:0:0:
255,192,95029,1,0,0:0:0:0:
255,192,95136,1,0,0:0:0:0:
255,192,95243,1,2,0:0:0:0:
255,192,95457,1,0,0:0:0:0:
255,192,95671,1,2,0:0:0:0:
255,192,95779,1,2,0:0:0:0:
255,192,95886,1,0,0:0:0:0:
255,192,95993,1,2,0:0:0:0:
255,192,96100,1,2,0:0:0:0:
255,192,96314,1,2,0:0:0:0:
255,192,96743,1,0,0:0:0:0:
255,192,96957,1,0,0:0:0:0:
255,192,97171,1,2,0:0:0:0:
255,192,97279,1,0,0:0:0:0:
255,192,97386,1,2,0:0:0:0:
255,192,97493,1,2,0:0:0:0:
255,192,97600,1,0,0:0:0:0:
255,192,97814,1,2,0:0:0:0:
255,192,98029,1,2,0:0:0:0:
255,192,98243,1,0,0:0:0:0:
255,192,98457,1,2,0:0:0:0:
255,192,98564,1,2,0:0:0:0:
255,192,98671,1,2,0:0:0:0:
259,184,98886,1,0,0:0:0:0:
255,192,99314,1,2,0:0:0:0:
255,192,99529,1,0,0:0:0:0:
255,192,99743,1,2,0:0:0:0:
256,192,99957,1,4,0:0:0:0:
256,192,100386,1,2,0:0:0:0:
256,192,100814,1,0,0:0:0:0:
256,192,101029,1,0,0:0:0:0:
256,192,101243,1,2,0:0:0:0:
256,192,101457,1,0,0:0:0:0:
256,192,101886,1,0,0:0:0:0:
256,192,102100,1,2,0:0:0:0:
256,192,102314,1,0,0:0:0:0:
256,192,102421,1,0,0:0:0:0:
256,192,102529,1,2,0:0:0:0:
256,192,102743,1,0,0:0:0:0:
256,192,102850,1,2,0:0:0:0:
256,192,102957,1,0,0:0:0:0:
256,192,103171,1,2,0:0:0:0:
256,192,103386,1,0,0:0:0:0:
256,192,103814,1,2,0:0:0:0:
256,192,104243,1,0,0:0:0:0:
256,192,104457,1,2,0:0:0:0:
256,192,104671,1,2,0:0:0:0:
256,192,104886,1,0,0:0:0:0:
256,192,105314,1,0,0:0:0:0:
256,192,105529,1,2,0:0:0:0:
256,192,105743,1,0,0:0:0:0:
256,192,105850,1,0,0:0:0:0:
256,192,105957,1,2,0:0:0:0:
256,192,106171,1,0,0:0:0:0:
256,192,106279,1,2,0:0:0:0:
256,192,106600,1,2,0:0:0:0:
256,191,106814,1,0,0:0:0:0:
256,191,107243,1,0,0:0:0:0:
256,191,107671,1,2,0:0:0:0:
256,191,107886,1,0,0:0:0:0:
256,191,107993,1,0,0:0:0:0:
256,191,108100,1,2,0:0:0:0:
256,191,108314,1,2,0:0:0:0:
256,191,108529,1,0,0:0:0:0:
256,192,108743,1,0,0:0:0:0:
256,192,108957,1,2,0:0:0:0:
256,192,109064,1,2,0:0:0:0:
256,192,109171,1,0,0:0:0:0:
256,192,109279,1,0,0:0:0:0:
256,192,109386,1,2,0:0:0:0:
256,192,109600,1,0,0:0:0:0:
256,192,109707,1,0,0:0:0:0:
256,192,109814,1,2,0:0:0:0:
256,192,110029,1,0,0:0:0:0:
256,192,110243,1,0,0:0:0:0:
256,192,110457,1,0,0:0:0:0:
256,192,110564,1,2,0:0:0:0:
256,192,110671,1,2,0:0:0:0:
256,192,110886,1,0,0:0:0:0:
256,192,111314,1,2,0:0:0:0:
256,192,111421,1,2,0:0:0:0:
256,192,111529,1,2,0:0:0:0:
256,192,111743,1,0,0:0:0:0:
256,192,112171,1,0,0:0:0:0:
256,192,112386,1,2,0:0:0:0:
256,192,112600,1,0,0:0:0:0:
256,192,112707,1,0,0:0:0:0:
256,192,112814,1,2,0:0:0:0:
256,192,113029,1,0,0:0:0:0:
256,192,113136,1,2,0:0:0:0:
256,192,113671,1,0,0:0:0:0:
256,192,113886,1,0,0:0:0:0:
256,192,113993,1,0,0:0:0:0:
256,192,114100,1,2,0:0:0:0:
256,192,114314,1,2,0:0:0:0:
256,192,114529,1,0,0:0:0:0:
256,192,114743,1,0,0:0:0:0:
256,192,114957,1,2,0:0:0:0:
256,192,115064,1,2,0:0:0:0:
256,192,115171,1,2,0:0:0:0:
256,192,115386,1,0,0:0:0:0:
256,192,115707,1,0,0:0:0:0:
256,192,115814,1,2,0:0:0:0:
256,192,116029,1,0,0:0:0:0:
256,192,116243,1,2,0:0:0:0:
256,192,116671,1,6,0:0:0:0:
256,192,117100,1,0,0:0:0:0:
256,192,117314,1,2,0:0:0:0:
256,192,117529,1,0,0:0:0:0:
256,192,117743,1,2,0:0:0:0:
256,192,118171,1,2,0:0:0:0:
256,192,118386,1,0,0:0:0:0:
256,192,118600,1,0,0:0:0:0:
256,192,118814,1,2,0:0:0:0:
256,192,118921,1,2,0:0:0:0:
256,192,119029,1,0,0:0:0:0:
260,194,119136,1,0,0:0:0:0:
256,192,119243,1,2,0:0:0:0:
256,192,119457,1,0,0:0:0:0:
256,192,119671,1,2,0:0:0:0:
256,192,119886,1,0,0:0:0:0:
260,194,120100,1,2,0:0:0:0:
256,192,120529,1,0,0:0:0:0:
256,192,120743,1,0,0:0:0:0:
256,192,120850,1,0,0:0:0:0:
255,192,120957,1,2,0:0:0:0:
256,192,121171,1,2,0:0:0:0:
256,192,121386,1,0,0:0:0:0:
255,192,121600,1,2,0:0:0:0:
255,192,121707,1,2,0:0:0:0:
255,192,121814,1,0,0:0:0:0:
256,192,122029,1,2,0:0:0:0:
256,192,122243,1,0,0:0:0:0:
255,192,122457,1,0,0:0:0:0:
255,192,122671,1,2,0:0:0:0:
255,192,122779,1,2,0:0:0:0:
255,192,122886,1,2,0:0:0:0:
256,192,123100,1,2,0:0:0:0:
255,192,123529,1,6,0:0:0:0:
256,192,123957,1,0,0:0:0:0:
255,192,124171,1,0,0:0:0:0:
255,192,124279,1,0,0:0:0:0:
255,192,124386,1,0,0:0:0:0:
256,192,124600,1,0,0:0:0:0:
256,192,124814,1,2,0:0:0:0:
255,192,125029,1,2,0:0:0:0:
255,192,125243,1,0,0:0:0:0:
255,192,125350,1,0,0:0:0:0:
256,192,125457,1,0,0:0:0:0:
256,192,125564,1,0,0:0:0:0:
256,192,125671,1,2,0:0:0:0:
255,192,125886,1,0,0:0:0:0:
255,192,126100,1,2,0:0:0:0:
255,192,126314,1,2,0:0:0:0:
255,192,126421,1,0,0:0:0:0:
256,192,126529,1,2,0:0:0:0:
255,192,126743,1,2,0:0:0:0:
255,192,126850,1,2,0:0:0:0:
255,192,126957,1,0,0:0:0:0:
255,192,127064,1,0,0:0:0:0:
255,192,127171,1,2,0:0:0:0:
256,192,127386,1,0,0:0:0:0:
256,192,127600,1,2,0:0:0:0:
255,192,127814,1,2,0:0:0:0:
255,192,128029,1,0,0:0:0:0:
256,192,128243,1,2,0:0:0:0:
256,192,128457,1,0,0:0:0:0:
256,192,128564,1,0,0:0:0:0:
256,192,128671,1,2,0:0:0:0:
255,192,128886,1,0,0:0:0:0:
256,192,129100,1,2,0:0:0:0:
256,192,129314,1,0,0:0:0:0:
256,192,129421,1,0,0:0:0:0:
256,192,129529,1,0,0:0:0:0:
255,192,129743,1,2,0:0:0:0:
256,192,130171,1,2,0:0:0:0:
256,192,130386,1,0,0:0:0:0:
256,192,130493,1,0,0:0:0:0:
255,192,130600,1,2,0:0:0:0:
256,192,130814,1,0,0:0:0:0:
256,192,130921,1,0,0:0:0:0:
256,192,131136,1,2,0:0:0:0:
256,192,131243,1,2,0:0:0:0:
256,192,131457,1,2,0:0:0:0:
256,192,131671,1,0,0:0:0:0:
256,192,131779,1,0,0:0:0:0:
256,192,131993,1,2,0:0:0:0:
256,192,132100,1,2,0:0:0:0:
256,192,132314,1,2,0:0:0:0:
256,192,132529,1,0,0:0:0:0:
256,192,132743,1,0,0:0:0:0:
256,192,132957,1,2,0:0:0:0:
256,192,133171,1,2,0:0:0:0:
256,192,133600,1,0,0:0:0:0:
256,192,133814,1,2,0:0:0:0:
256,192,134029,1,2,0:0:0:0:
256,192,134243,1,0,0:0:0:0:
256,192,134457,1,2,0:0:0:0:
256,192,134564,1,2,0:0:0:0:
256,192,134671,1,2,0:0:0:0:
256,192,134886,1,0,0:0:0:0:
256,192,135100,1,2,0:0:0:0:
256,192,135314,1,2,0:0:0:0:
256,192,135421,1,0,0:0:0:0:
256,192,135529,1,0,0:0:0:0:
256,192,135743,1,0,0:0:0:0:
256,192,135957,1,2,0:0:0:0:
256,192,136171,1,0,0:0:0:0:
256,192,136386,1,2,0:0:0:0:
256,192,136493,1,2,0:0:0:0:
256,192,136600,1,0,0:0:0:0:
256,192,136707,1,0,0:0:0:0:
256,192,136814,1,2,0:0:0:0:
256,192,137029,1,2,0:0:0:0:
256,192,137243,1,0,0:0:0:0:
256,192,137457,1,0,0:0:0:0:
256,191,137671,1,2,0:0:0:0:
256,191,137779,1,2,0:0:0:0:
256,191,137886,1,2,0:0:0:0:
256,191,138100,1,0,0:0:0:0:
256,191,138421,1,0,0:0:0:0:
256,191,138529,1,2,0:0:0:0:
256,191,138743,1,2,0:0:0:0:
256,191,138957,1,0,0:0:0:0:
256,191,139386,1,2,0:0:0:0:
256,191,139600,1,0,0:0:0:0:
256,191,139814,1,2,0:0:0:0:
256,191,140029,1,2,0:0:0:0:
256,191,140243,1,0,0:0:0:0:
256,191,140457,1,2,0:0:0:0:
256,191,140564,1,2,0:0:0:0:
256,191,140671,1,0,0:0:0:0:
256,191,140886,1,2,0:0:0:0:
256,191,141100,1,0,0:0:0:0:
256,191,141314,1,0,0:0:0:0:
256,191,141421,1,0,0:0:0:0:
259,194,141529,1,2,0:0:0:0:
260,195,141743,1,0,0:0:0:0:
256,191,141957,1,2,0:0:0:0:
256,191,142171,1,2,0:0:0:0:
256,191,142386,1,2,0:0:0:0:
259,194,142493,1,2,0:0:0:0:
260,195,142600,1,0,0:0:0:0:
256,191,142814,1,0,0:0:0:0:
256,191,143029,1,0,0:0:0:0:
259,194,143457,1,2,0:0:0:0:
256,191,143564,1,2,0:0:0:0:
256,191,143671,1,2,0:0:0:0:
256,191,143886,1,0,0:0:0:0:
259,194,144100,1,2,0:0:0:0:
259,194,144314,1,2,0:0:0:0:
256,191,144529,1,0,0:0:0:0:
256,191,144743,1,0,0:0:0:0:
256,191,144850,1,0,0:0:0:0:
255,190,144957,1,0,0:0:0:0:
256,191,145171,1,2,0:0:0:0:
256,191,145386,1,2,0:0:0:0:
256,191,145493,1,0,0:0:0:0:
256,191,145600,1,0,0:0:0:0:
249,183,145707,1,0,0:0:0:0:
256,191,145814,1,2,0:0:0:0:
256,191,146029,1,2,0:0:0:0:
256,191,146243,1,0,0:0:0:0:
256,191,146457,1,0,0:0:0:0:
255,192,146671,1,2,0:0:0:0:
256,191,146886,1,2,0:0:0:0:
256,191,147314,1,0,0:0:0:0:
255,192,147529,1,2,0:0:0:0:
256,191,147743,1,0,0:0:0:0:
257,190,147957,1,2,0:0:0:0:
257,190,148064,1,2,0:0:0:0:
257,190,148279,1,0,0:0:0:0:
256,192,148386,1,0,0:0:0:0:
256,192,148600,1,2,0:0:0:0:
257,190,149029,1,0,0:0:0:0:
253,194,149243,1,2,0:0:0:0:
256,192,149457,1,0,0:0:0:0:
257,190,149671,1,2,0:0:0:0:
257,190,149779,1,0,0:0:0:0:
257,190,149886,1,0,0:0:0:0:
257,190,149993,1,0,0:0:0:0:
256,190,150100,1,2,0:0:0:0:
257,189,150207,1,2,0:0:0:0:
256,192,150314,1,0,0:0:0:0:
257,190,150743,1,2,0:0:0:0:
257,190,150957,1,0,0:0:0:0:
256,193,151171,1,2,0:0:0:0:
259,197,151386,1,4,0:0:0:0:
256,193,151814,1,6,0:0:0:0:
256,191,152243,1,4,0:0:0:0:
256,193,152671,1,4,0:0:0:0:
256,191,152886,1,4,0:0:0:0:
256,193,153314,1,4,0:0:0:0:
256,191,153743,1,6,0:0:0:0:
256,193,153957,1,0,0:0:0:0:
261,190,154064,1,2,0:0:0:0:
256,193,154171,1,2,0:0:0:0:
256,193,154279,1,2,0:0:0:0:
256,191,154386,1,0,0:0:0:0:
256,191,154493,1,0,0:0:0:0:
256,191,154600,1,2,0:0:0:0:
256,191,154707,1,2,0:0:0:0:
256,193,154814,1,0,0:0:0:0:
261,190,155029,1,0,0:0:0:0:
256,193,155136,1,0,0:0:0:0:
256,193,155243,1,2,0:0:0:0:
256,191,155350,1,0,0:0:0:0:
256,191,155457,1,0,0:0:0:0:
256,191,155564,1,0,0:0:0:0:
256,191,155671,1,2,0:0:0:0:
256,193,155886,1,0,0:0:0:0:
256,193,155993,1,0,0:0:0:0:
256,193,156100,1,2,0:0:0:0:
256,193,156207,1,2,0:0:0:0:
256,191,156314,1,2,0:0:0:0:
256,191,156421,1,2,0:0:0:0:
256,191,156529,1,4,0:0:0:0:
256,193,156743,1,0,0:0:0:0:
256,193,156850,1,0,0:0:0:0:
256,193,156957,1,2,0:0:0:0:
256,193,157171,1,2,0:0:0:0:
256,191,157279,1,0,0:0:0:0:
256,191,157386,1,2,0:0:0:0:
256,193,157600,1,0,0:0:0:0:
256,193,157707,1,0,0:0:0:0:
256,193,157921,1,0,0:0:0:0:
256,193,158029,1,2,0:0:0:0:
256,191,158243,1,0,0:0:0:0:
256,193,158457,1,0,0:0:0:0:
256,193,158564,1,2,0:0:0:0:
256,193,158671,1,0,0:0:0:0:
256,193,158886,1,2,0:0:0:0:
256,193,159100,1,2,0:0:0:0:
256,193,159207,1,0,0:0:0:0:
256,193,159314,1,0,0:0:0:0:
256,193,159421,1,2,0:0:0:0:
256,193,159529,1,0,0:0:0:0:
256,193,159743,1,2,0:0:0:0:
256,193,160171,1,0,0:0:0:0:
256,193,160279,1,0,0:0:0:0:
256,193,160386,1,2,0:0:0:0:
256,193,160600,1,0,0:0:0:0:
256,193,160814,1,2,0:0:0:0:
256,193,160921,1,0,0:0:0:0:
256,193,161029,1,2,0:0:0:0:
256,193,161136,1,2,0:0:0:0:
256,193,161243,1,0,0:0:0:0:
256,193,161457,1,2,0:0:0:0:
256,193,161671,1,0,0:0:0:0:
256,193,161886,1,0,0:0:0:0:
256,193,161993,1,0,0:0:0:0:
256,193,162100,1,2,0:0:0:0:
256,193,162207,1,2,0:0:0:0:
256,193,162314,1,0,0:0:0:0:
256,193,162421,1,2,0:0:0:0:
256,193,162529,1,0,0:0:0:0:
256,193,162743,1,2,0:0:0:0:
256,193,162957,1,0,0:0:0:0:
256,193,163171,1,2,0:0:0:0:
256,193,163600,1,0,0:0:0:0:
256,193,163707,1,0,0:0:0:0:
256,193,163814,1,2,0:0:0:0:
256,193,163921,1,0,0:0:0:0:
256,193,164029,1,2,0:0:0:0:
256,193,164243,1,0,0:0:0:0:
256,193,164457,1,0,0:0:0:0:
256,193,164564,1,0,0:0:0:0:
256,193,164671,1,0,0:0:0:0:
256,193,164779,1,2,0:0:0:0:
256,193,164886,1,2,0:0:0:0:
256,193,165100,1,0,0:0:0:0:
256,193,165314,1,0,0:0:0:0:
256,193,165421,1,0,0:0:0:0:
256,193,165529,1,2,0:0:0:0:
256,193,165743,1,2,0:0:0:0:
256,193,165850,1,0,0:0:0:0:
256,193,165957,1,2,0:0:0:0:
256,193,166171,1,2,0:0:0:0:
256,193,166386,1,0,0:0:0:0:
256,193,166600,1,2,0:0:0:0:
256,193,166814,1,0,0:0:0:0:
256,193,167029,1,0,0:0:0:0:
256,193,167136,1,0,0:0:0:0:
256,193,167243,1,2,0:0:0:0:
256,193,167457,1,0,0:0:0:0:
256,193,167886,1,2,0:0:0:0:
256,193,167993,1,2,0:0:0:0:
255,192,168100,1,0,0:0:0:0:
256,192,168314,12,0,169814,0:0:0:0:
255,192,170243,5,0,0:0:0:0:
255,192,170457,1,2,0:0:0:0:
255,192,170564,1,0,0:0:0:0:
255,192,170671,1,2,0:0:0:0:
255,192,170886,1,0,0:0:0:0:
255,192,171100,1,2,0:0:0:0:
255,192,171314,1,0,0:0:0:0:
255,192,171421,1,0,0:0:0:0:
255,192,171529,1,0,0:0:0:0:
255,192,171743,1,2,0:0:0:0:
255,192,171957,1,0,0:0:0:0:
255,192,172171,1,0,0:0:0:0:
255,192,172279,1,0,0:0:0:0:
255,192,172386,1,2,0:0:0:0:
255,192,172600,1,0,0:0:0:0:
255,192,172814,1,2,0:0:0:0:
255,192,173029,1,0,0:0:0:0:
255,192,173136,1,2,0:0:0:0:
255,192,173243,1,0,0:0:0:0:
255,192,173457,1,2,0:0:0:0:
255,192,173886,1,0,0:0:0:0:
255,192,173993,1,0,0:0:0:0:
255,192,174100,1,0,0:0:0:0:
255,192,174314,1,2,0:0:0:0:
255,192,174421,1,2,0:0:0:0:
255,192,174529,1,0,0:0:0:0:
255,192,174636,1,2,0:0:0:0:
255,192,174850,1,2,0:0:0:0:
255,192,174957,1,0,0:0:0:0:
255,192,175064,1,0,0:0:0:0:
255,192,175171,1,2,0:0:0:0:
255,192,175600,1,0,0:0:0:0:
255,192,175814,1,0,0:0:0:0:
255,192,175921,1,0,0:0:0:0:
255,192,176029,1,2,0:0:0:0:
255,192,176243,1,0,0:0:0:0:
255,192,176457,1,2,0:0:0:0:
255,192,176564,1,2,0:0:0:0:
255,192,176671,1,2,0:0:0:0:
255,192,176886,1,0,0:0:0:0:
255,192,177100,1,0,0:0:0:0:
255,192,177314,1,0,0:0:0:0:
255,192,177421,1,0,0:0:0:0:
255,192,177529,1,2,0:0:0:0:
255,192,177743,1,2,0:0:0:0:
255,192,177850,1,2,0:0:0:0:
255,192,177957,1,0,0:0:0:0:
255,192,178171,1,2,0:0:0:0:
255,192,178279,1,0,0:0:0:0:
255,192,178493,1,0,0:0:0:0:
255,192,178600,1,2,0:0:0:0:
255,192,178814,1,0,0:0:0:0:
255,192,179029,1,2,0:0:0:0:
255,192,179136,1,0,0:0:0:0:
255,192,179243,1,2,0:0:0:0:
255,192,179457,1,0,0:0:0:0:
255,192,179671,1,2,0:0:0:0:
255,192,179779,1,0,0:0:0:0:
255,192,179886,1,0,0:0:0:0:
255,192,179993,1,2,0:0:0:0:
255,192,180100,1,0,0:0:0:0:
255,192,180314,1,2,0:0:0:0:
255,192,180743,1,0,0:0:0:0:
255,192,180957,1,0,0:0:0:0:
255,192,181171,1,2,0:0:0:0:
255,192,181279,1,0,0:0:0:0:
255,192,181386,1,2,0:0:0:0:
255,192,181493,1,2,0:0:0:0:
255,192,181600,1,0,0:0:0:0:
255,192,181814,1,2,0:0:0:0:
255,192,182029,1,2,0:0:0:0:
255,192,182243,1,0,0:0:0:0:
255,192,182457,1,2,0:0:0:0:
255,192,182564,1,2,0:0:0:0:
255,192,182671,1,2,0:0:0:0:
255,192,182886,1,0,0:0:0:0:
255,192,183314,1,2,0:0:0:0:
255,192,183529,1,0,0:0:0:0:
255,192,183743,1,2,0:0:0:0:
255,192,183957,1,4,0:0:0:0:
255,192,184171,1,2,0:0:0:0:
255,192,184279,1,0,0:0:0:0:
255,192,184493,1,0,0:0:0:0:
255,192,184600,1,2,0:0:0:0:
255,192,184814,1,0,0:0:0:0:
255,192,185029,1,2,0:0:0:0:
255,192,185136,1,2,0:0:0:0:
255,192,185350,1,2,0:0:0:0:
255,192,185457,1,2,0:0:0:0:
255,192,185564,1,2,0:0:0:0:
255,192,185671,1,0,0:0:0:0:
255,192,185886,1,0,0:0:0:0:
255,192,185993,1,2,0:0:0:0:
255,192,186207,1,2,0:0:0:0:
255,192,186529,1,0,0:0:0:0:
255,192,186743,1,2,0:0:0:0:
255,192,186850,1,0,0:0:0:0:
255,192,187064,1,0,0:0:0:0:
255,192,187171,1,0,0:0:0:0:
255,192,187279,1,2,0:0:0:0:
255,192,187386,1,0,0:0:0:0:
255,192,187600,1,2,0:0:0:0:
255,192,187707,1,0,0:0:0:0:
255,192,187921,1,0,0:0:0:0:
255,192,188029,1,2,0:0:0:0:
255,192,188243,1,0,0:0:0:0:
255,192,188457,1,2,0:0:0:0:
255,192,188564,1,2,0:0:0:0:
255,192,188779,1,2,0:0:0:0:
255,192,188886,1,2,0:0:0:0:
255,192,188993,1,0,0:0:0:0:
255,192,189100,1,0,0:0:0:0:
255,192,189314,1,2,0:0:0:0:
255,192,189421,1,2,0:0:0:0:
255,192,189636,1,0,0:0:0:0:
255,192,189743,1,2,0:0:0:0:
255,192,189957,1,2,0:0:0:0:
255,192,190171,1,0,0:0:0:0:
255,192,190279,1,2,0:0:0:0:
255,192,190493,1,0,0:0:0:0:
255,192,190600,1,0,0:0:0:0:
255,192,190814,1,0,0:0:0:0:
255,192,191136,1,4,0:0:0:0:
255,192,191350,1,2,0:0:0:0:
255,192,191457,1,2,0:0:0:0:
255,192,191671,1,0,0:0:0:0:
255,192,191886,1,0,0:0:0:0:
255,192,191993,1,2,0:0:0:0:
255,192,192207,1,2,0:0:0:0:
255,192,192314,1,0,0:0:0:0:
255,192,192421,1,0,0:0:0:0:
255,192,192529,1,2,0:0:0:0:
255,192,192743,1,0,0:0:0:0:
255,192,192850,1,0,0:0:0:0:
255,192,193064,1,2,0:0:0:0:
255,192,193386,1,0,0:0:0:0:
255,192,193600,1,0,0:0:0:0:
255,192,193707,1,2,0:0:0:0:
255,192,193921,1,2,0:0:0:0:
255,192,194029,1,2,0:0:0:0:
255,192,194136,1,0,0:0:0:0:
251,187,194243,1,2,0:0:0:0:
255,192,194457,1,2,0:0:0:0:
255,192,194564,1,2,0:0:0:0:
255,192,194779,1,0,0:0:0:0:
255,192,194886,1,2,0:0:0:0:
255,192,195100,1,0,0:0:0:0:
255,192,195314,1,0,0:0:0:0:
255,192,195421,1,2,0:0:0:0:
255,192,195636,1,2,0:0:0:0:
255,192,195743,1,2,0:0:0:0:
255,192,195850,1,0,0:0:0:0:
255,192,195957,1,0,0:0:0:0:
255,192,196171,1,0,0:0:0:0:
255,192,196279,1,2,0:0:0:0:
255,192,196493,1,2,0:0:0:0:
255,192,196600,1,0,0:0:0:0:
255,192,196814,1,0,0:0:0:0:
255,192,196921,1,2,0:0:0:0:
255,192,197029,1,0,0:0:0:0:
255,192,197136,1,0,0:0:0:0:
255,192,197243,1,2,0:0:0:0:
255,192,197350,1,2,0:0:0:0:
255,192,197457,1,2,0:0:0:0:
255,192,197564,1,2,0:0:0:0:
255,192,197671,1,4,0:0:0:0:
255,192,200029,1,0,0:0:0:0:
255,192,200243,1,0,0:0:0:0:
255,192,200457,1,2,0:0:0:0:
255,192,200671,1,2,0:0:0:0:
255,187,200886,1,0,0:0:0:0:
255,192,203457,1,0,0:0:0:0:
255,192,203886,1,0,0:0:0:0:
255,198,204314,1,2,0:0:0:0:
256,192,206886,1,0,0:0:0:0:
256,192,207100,1,2,0:0:0:0:
256,192,207314,1,0,0:0:0:0:
256,192,207743,1,0,0:0:0:0:
256,192,207957,1,0,0:0:0:0:
256,192,208171,1,0,0:0:0:0:
256,192,208386,1,2,0:0:0:0:
256,192,208600,1,0,0:0:0:0:
256,192,208814,1,0,0:0:0:0:
256,192,209029,1,2,0:0:0:0:
256,192,209243,1,2,0:0:0:0:
256,192,209457,1,0,0:0:0:0:
256,192,209671,1,0,0:0:0:0:
256,192,209779,1,2,0:0:0:0:
256,192,209886,1,0,0:0:0:0:
256,192,209993,1,0,0:0:0:0:
256,192,210100,1,2,0:0:0:0:
256,192,210207,1,0,0:0:0:0:
256,192,210314,1,2,0:0:0:0:
256,192,210421,1,2,0:0:0:0:
256,192,210529,1,0,0:0:0:0:
256,192,210636,1,2,0:0:0:0:
256,192,210743,1,0,0:0:0:0:
256,192,210850,1,0,0:0:0:0:
256,192,210957,1,2,0:0:0:0:
256,192,211386,1,4,0:0:0:0:
256,192,211600,1,0,0:0:0:0:
256,192,211814,1,2,0:0:0:0:
256,192,212029,1,2,0:0:0:0:
256,192,212136,1,2,0:0:0:0:
256,192,212243,1,0,0:0:0:0:
256,192,212457,1,2,0:0:0:0:
256,192,212564,1,2,0:0:0:0:
256,192,212779,1,0,0:0:0:0:
256,192,212886,1,2,0:0:0:0:
256,192,213100,1,0,0:0:0:0:
251,193,213314,1,0,0:0:0:0:
256,192,213421,1,0,0:0:0:0:
256,192,213529,1,2,0:0:0:0:
256,192,213743,1,2,0:0:0:0:
256,192,213850,1,2,0:0:0:0:
251,193,213957,1,0,0:0:0:0:
251,193,214171,1,2,0:0:0:0:
251,193,214279,1,0,0:0:0:0:
256,192,214493,1,0,0:0:0:0:
256,192,214600,1,2,0:0:0:0:
256,193,215029,1,0,0:0:0:0:
256,193,215136,1,0,0:0:0:0:
256,193,215243,1,2,0:0:0:0:
256,193,215457,1,2,0:0:0:0:
256,191,215564,1,0,0:0:0:0:
256,191,215671,1,0,0:0:0:0:
256,193,215886,1,0,0:0:0:0:
256,193,215993,1,0,0:0:0:0:
256,193,216207,1,0,0:0:0:0:
256,193,216314,1,2,0:0:0:0:
256,191,216529,1,0,0:0:0:0:
256,193,216743,1,0,0:0:0:0:
256,193,216850,1,0,0:0:0:0:
256,193,216957,1,2,0:0:0:0:
256,193,217064,1,0,0:0:0:0:
256,193,217171,1,2,0:0:0:0:
256,193,217279,1,2,0:0:0:0:
256,193,217386,1,0,0:0:0:0:
256,193,217600,1,2,0:0:0:0:
256,193,217814,1,0,0:0:0:0:
256,193,218029,1,2,0:0:0:0:
256,193,218457,1,2,0:0:0:0:
256,193,218564,1,2,0:0:0:0:
256,193,218671,1,0,0:0:0:0:
256,193,218779,1,2,0:0:0:0:
256,193,218886,1,0,0:0:0:0:
256,193,219100,1,0,0:0:0:0:
256,193,219314,1,0,0:0:0:0:
256,193,219421,1,0,0:0:0:0:
256,193,219529,1,2,0:0:0:0:
256,193,219636,1,0,0:0:0:0:
256,193,219743,1,2,0:0:0:0:
256,193,219957,1,0,0:0:0:0:
256,193,220171,1,0,0:0:0:0:
256,193,220279,1,2,0:0:0:0:
256,193,220386,1,0,0:0:0:0:
256,193,220600,1,2,0:0:0:0:
256,193,220707,1,2,0:0:0:0:
256,193,220814,1,0,0:0:0:0:
256,193,221029,1,0,0:0:0:0:
256,193,221243,1,2,0:0:0:0:
256,193,221457,1,2,0:0:0:0:
256,193,221671,1,0,0:0:0:0:
256,193,221886,1,0,0:0:0:0:
256,193,221993,1,0,0:0:0:0:
256,193,222100,1,2,0:0:0:0:
256,193,222314,1,0,0:0:0:0:
256,193,222743,1,0,0:0:0:0:
256,193,222850,1,0,0:0:0:0:
255,192,222957,1,0,0:0:0:0:
256,192,223171,12,0,224671,0:0:0:0:
255,192,225100,5,0,0:0:0:0:
255,192,225314,1,2,0:0:0:0:
255,192,225421,1,2,0:0:0:0:
255,192,225529,1,2,0:0:0:0:
255,192,225743,1,0,0:0:0:0:
255,192,225850,1,2,0:0:0:0:
255,192,225957,1,0,0:0:0:0:
255,192,226171,1,2,0:0:0:0:
255,192,226279,1,0,0:0:0:0:
255,192,226493,1,0,0:0:0:0:
255,192,226600,1,2,0:0:0:0:
255,192,226814,1,0,0:0:0:0:
255,192,227029,1,0,0:0:0:0:
255,192,227136,1,0,0:0:0:0:
255,192,227243,1,2,0:0:0:0:
255,192,227457,1,0,0:0:0:0:
255,192,227671,1,2,0:0:0:0:
255,192,227779,1,0,0:0:0:0:
255,192,227886,1,2,0:0:0:0:
255,192,227993,1,0,0:0:0:0:
255,192,228207,1,0,0:0:0:0:
255,192,228314,1,2,0:0:0:0:
255,192,228743,1,0,0:0:0:0:
255,192,228850,1,0,0:0:0:0:
255,198,228957,1,2,0:0:0:0:
255,197,229171,1,2,0:0:0:0:
255,192,229279,1,0,0:0:0:0:
255,192,229386,1,2,0:0:0:0:
255,192,229600,1,2,0:0:0:0:
255,192,229707,1,2,0:0:0:0:
255,198,229921,1,0,0:0:0:0:
255,197,230029,1,0,0:0:0:0:
255,192,230457,1,0,0:0:0:0:
255,192,230671,1,2,0:0:0:0:
255,198,230779,1,2,0:0:0:0:
256,192,230886,1,0,0:0:0:0:
255,192,231100,1,2,0:0:0:0:
255,192,231314,1,0,0:0:0:0:
255,192,231421,1,0,0:0:0:0:
264,189,231529,1,0,0:0:0:0:
256,192,231743,1,2,0:0:0:0:
255,192,231957,1,0,0:0:0:0:
255,192,232171,1,0,0:0:0:0:
255,192,232279,1,0,0:0:0:0:
256,187,232386,1,2,0:0:0:0:
256,192,232600,1,2,0:0:0:0:
256,192,232707,1,0,0:0:0:0:
255,192,232814,1,0,0:0:0:0:
255,192,233029,1,2,0:0:0:0:
255,192,233136,1,0,0:0:0:0:
256,187,233350,1,0,0:0:0:0:
256,192,233457,1,2,0:0:0:0:
256,192,233671,1,0,0:0:0:0:
255,192,233886,1,0,0:0:0:0:
255,192,233993,1,2,0:0:0:0:
255,192,234100,1,2,0:0:0:0:
254,192,234314,1,2,0:0:0:0:
256,187,234421,1,0,0:0:0:0:
256,192,234529,1,0,0:0:0:0:
255,192,234743,1,2,0:0:0:0:
255,192,234850,1,0,0:0:0:0:
255,192,234957,1,2,0:0:0:0:
254,192,235171,1,2,0:0:0:0:
255,192,235600,1,2,0:0:0:0:
255,192,235707,1,2,0:0:0:0:
255,192,235814,1,0,0:0:0:0:
255,192,235921,1,0,0:0:0:0:
254,192,236029,1,2,0:0:0:0:
254,192,236136,1,0,0:0:0:0:
255,192,236243,1,2,0:0:0:0:
255,192,236457,1,0,0:0:0:0:
255,192,236671,1,0,0:0:0:0:
255,192,236886,1,2,0:0:0:0:
254,192,237100,1,0,0:0:0:0:
255,192,237314,1,2,0:0:0:0:
255,192,237421,1,2,0:0:0:0:
255,192,237529,1,2,0:0:0:0:
255,192,237743,1,0,0:0:0:0:
255,192,238171,1,2,0:0:0:0:
255,192,238386,1,0,0:0:0:0:
255,192,238600,1,2,0:0:0:0:
255,192,238814,1,4,0:0:0:0:
255,192,239029,1,0,0:0:0:0:
255,192,239136,1,0,0:0:0:0:
255,192,239243,1,2,0:0:0:0:
255,192,239457,1,2,0:0:0:0:
255,192,239671,1,0,0:0:0:0:
255,192,239886,1,0,0:0:0:0:
255,192,239993,1,0,0:0:0:0:
255,192,240100,1,0,0:0:0:0:
255,192,240314,1,2,0:0:0:0:
255,192,240743,1,2,0:0:0:0:
255,192,240957,1,2,0:0:0:0:
255,192,241171,1,0,0:0:0:0:
255,192,241386,1,0,0:0:0:0:
255,192,241600,1,2,0:0:0:0:
255,192,241814,1,0,0:0:0:0:
255,192,241921,1,0,0:0:0:0:
255,192,242029,1,2,0:0:0:0:
255,192,242243,1,0,0:0:0:0:
255,192,242457,1,0,0:0:0:0:
255,197,242671,1,2,0:0:0:0:
255,200,242886,1,0,0:0:0:0:
255,192,242993,1,0,0:0:0:0:
255,192,243100,1,0,0:0:0:0:
255,192,243314,1,2,0:0:0:0:
255,197,243529,1,0,0:0:0:0:
255,197,243636,1,0,0:0:0:0:
255,193,243743,1,2,0:0:0:0:
255,192,244171,1,0,0:0:0:0:
255,193,244386,1,2,0:0:0:0:
255,193,244600,1,0,0:0:0:0:
255,193,244707,1,0,0:0:0:0:
255,192,244814,1,0,0:0:0:0:
255,192,245029,1,2,0:0:0:0:
255,193,245457,1,2,0:0:0:0:
255,193,245671,1,0,0:0:0:0:
255,192,245886,1,0,0:0:0:0:
255,192,245993,1,0,0:0:0:0:
255,193,246100,1,2,0:0:0:0:
255,193,246314,1,2,0:0:0:0:
255,193,246529,1,0,0:0:0:0:
255,193,246743,1,0,0:0:0:0:
255,193,246850,1,0,0:0:0:0:
255,193,246957,1,0,0:0:0:0:
255,193,247171,1,2,0:0:0:0:
255,193,247600,1,0,0:0:0:0:
255,193,247814,1,0,0:0:0:0:
255,193,248029,1,2,0:0:0:0:
255,193,248457,1,2,0:0:0:0:
255,193,248671,1,0,0:0:0:0:
255,193,248779,1,0,0:0:0:0:
255,193,248886,1,0,0:0:0:0:
71,191,249100,2,0,L|618:190,1,537.6
256,192,250600,12,0,252100,0:0:0:0:
255,191,252529,5,0,0:0:0:0:
255,191,252743,1,0,0:0:0:0:
255,191,252957,1,2,0:0:0:0:
255,191,253171,1,0,0:0:0:0:
255,191,253600,1,2,0:0:0:0:
255,191,255957,5,0,0:0:0:0:
255,191,256171,1,0,0:0:0:0:
255,191,256386,1,2,0:0:0:0:
255,191,256600,1,0,0:0:0:0:
255,191,257029,1,2,0:0:0:0:
255,191,259386,5,0,0:0:0:0:
255,191,259600,1,0,0:0:0:0:
255,191,259814,1,2,0:0:0:0:
255,191,260029,1,0,0:0:0:0:
255,191,260457,1,2,0:0:0:0:
