osu file format v14

[General]
AudioFilename: audio.mp3
AudioLeadIn: 0
PreviewTime: 52195
Countdown: 0
SampleSet: Soft
StackLeniency: 0.5
Mode: 0
LetterboxInBreaks: 0
WidescreenStoryboard: 0

[Editor]
Bookmarks: 4403,36236,64236,93570,114903,130903,152070,162903,173570,173653,173736,173820,173903,173986,174070,174153,174236,174320,174403,174486,174570,174653,174736,174820,174903,174986,175070,175153,175236,175320,175403,175486,175570,175653,175736,175820,175903,175986,176070,176153,176236,176320,176403,176486,176570,176653,176736,176820,176903,176986,177070,177153,177236,177320,177403,177486,177570,229570
DistanceSpacing: 1.3
BeatDivisor: 4
GridSize: 32
TimelineZoom: 1

[Metadata]
Title:Suisei ni Nareta nara
TitleUnicode:彗星になれたなら
Artist:Harumaki Gohan
ArtistUnicode:はるまきごはん
Creator:xHappy-
Version:Collab Insane
Source:
Tags:if i could become a comet ふたりの futarino nana lili jpop j-pop pop japanese fa featured artist mappers' guild p_kung sarawatlism [_lost_] conner c_o_n_n_e_r sinn
BeatmapID:3376433
BeatmapSetID:1654195

[Difficulty]
HPDrainRate:6
CircleSize:4
OverallDifficulty:8
ApproachRate:9
SliderMultiplier:1.7
SliderTickRate:1

[Events]
//Background and Video events
0,0,"bg.jpg",0,0
Video,257,"video.mp4"
//Break Periods
2,173775,176975
//Storyboard Layer 0 (Background)
//Storyboard Layer 1 (Fail)
//Storyboard Layer 2 (Pass)
//Storyboard Layer 3 (Foreground)
//Storyboard Layer 4 (Overlay)
//Storyboard Sound Samples

[TimingPoints]
4242,333.333333333333,4,2,1,40,1,0
5575,-166.666666666667,4,2,1,50,0,0
16241,-125,4,2,1,60,0,0
16825,-125,4,2,1,5,0,0
16908,-125,4,2,1,60,0,0
24158,-125,4,2,1,5,0,0
24241,-125,4,2,1,60,0,0
26908,-111.111111111111,4,2,1,70,0,0
27491,-111.111111111111,4,2,1,5,0,0
27575,-111.111111111111,4,2,1,70,0,0
36241,-200,4,2,1,70,0,0
36908,-142.857142857143,4,2,1,70,0,0
37575,-250.000000000001,4,2,1,50,0,0
42241,-142.857142857143,4,2,1,50,0,0
42575,-166.666666666667,4,2,1,50,0,0
42825,-166.666666666667,4,2,1,5,0,0
42908,-142.857142857143,4,2,1,60,0,0
47908,-83.3333333333334,4,2,1,60,0,0
48158,-83.3333333333334,4,2,1,5,0,0
48241,-90.9090909090909,4,2,1,70,0,0
49825,-90.9090909090909,4,2,1,5,0,0
49908,-90.9090909090909,4,2,1,70,0,0
50991,-90.9090909090909,4,2,1,45,0,0
51241,-90.9090909090909,4,2,1,70,0,0
51325,-90.9090909090909,4,2,1,45,0,0
51575,-76.9230769230769,4,2,1,70,0,0
51658,-76.9230769230769,4,2,1,45,0,0
51908,-76.9230769230769,4,2,1,70,0,0
52241,-200,4,2,1,40,0,0
53491,-200,4,2,1,5,0,0
53575,-83.3333333333333,4,2,1,80,0,1
54825,-83.3333333333333,4,2,1,5,0,1
54908,-83.3333333333333,4,2,1,80,0,1
56158,-83.3333333333333,4,2,1,5,0,1
56241,-83.3333333333333,4,2,1,80,0,1
58575,-76.9230769230769,4,2,1,80,0,1
58825,-76.9230769230769,4,2,1,5,0,1
58908,-83.3333333333333,4,2,1,80,0,1
61491,-83.3333333333333,4,2,1,5,0,1
61575,-83.3333333333333,4,2,1,80,0,1
63575,-71.4285714285714,4,2,1,80,0,1
64241,-166.666666666667,4,2,1,60,0,0
64491,-166.666666666667,4,2,1,5,0,0
64575,-83.3333333333333,4,2,1,80,0,1
69491,-83.3333333333333,4,2,1,5,0,1
69575,-83.3333333333333,4,2,1,80,0,1
70825,-83.3333333333333,4,2,1,5,0,1
70908,-83.3333333333333,4,2,1,80,0,1
74741,-100,4,2,1,60,0,0
81575,-100,4,2,1,40,0,0
82908,-142.857142857143,4,2,1,50,0,0
93241,-111.111111111111,4,2,1,50,0,0
93491,-111.111111111111,4,2,1,5,0,0
93575,-125,4,2,1,60,0,0
95825,-125,4,2,1,5,0,0
95908,-125,4,2,1,60,0,0
98491,-125,4,2,1,5,0,0
98575,-125,4,2,1,60,0,0
101158,-125,4,2,1,5,0,0
101241,-125,4,2,1,60,0,0
103575,-100,4,2,1,70,0,0
103908,-111.111111111111,4,2,1,70,0,0
104241,-99.9999999999999,4,2,1,70,0,0
105825,-99.9999999999999,4,2,1,5,0,0
105908,-99.9999999999999,4,2,1,70,0,0
108491,-99.9999999999999,4,2,1,5,0,0
108575,-99.9999999999999,4,2,1,70,0,0
113575,-200,4,2,1,70,0,0
114241,-125,4,2,1,70,0,0
114908,-250,4,2,1,50,0,0
119575,-142.857142857143,4,2,1,50,0,0
119908,-166.666666666667,4,2,1,50,0,0
120158,-166.666666666667,4,2,1,5,0,0
120241,-142.857142857143,4,2,1,60,0,0
125575,-90.9090909090909,4,2,1,70,0,0
126825,-90.9090909090909,4,2,1,5,0,0
126908,-90.9090909090909,4,2,1,70,0,0
128325,-90.9090909090909,4,2,1,45,0,0
128575,-90.9090909090909,4,2,1,70,0,0
128658,-90.9090909090909,4,2,1,45,0,0
128908,-90.9090909090909,4,2,1,70,0,0
128991,-90.9090909090909,4,2,1,45,0,0
129241,-90.9090909090909,4,2,1,70,0,0
129575,-200,4,2,1,60,0,0
130825,-200,4,2,1,5,0,0
130908,-83.3333333333333,4,2,1,80,0,1
132158,-83.3333333333333,4,2,1,5,0,1
132241,-83.3333333333333,4,2,1,80,0,1
133491,-83.3333333333333,4,2,1,5,0,1
133575,-83.3333333333333,4,2,1,80,0,1
136158,-83.3333333333333,4,2,1,5,0,1
136241,-83.3333333333333,4,2,1,80,0,1
137491,-83.3333333333333,4,2,1,5,0,1
137575,-83.3333333333333,4,2,1,80,0,1
138825,-83.3333333333333,4,2,1,5,0,1
138908,-83.3333333333333,4,2,1,80,0,1
140908,-66.6666666666667,4,2,1,80,0,1
141575,-250,4,2,1,60,0,0
141825,-250,4,2,1,5,0,0
141908,-83.3333333333333,4,2,1,80,0,1
144908,-90.9090909090909,4,2,1,80,0,1
145241,-100,4,2,1,80,0,1
145575,-83.3333333333333,4,2,1,80,0,1
146825,-83.3333333333333,4,2,1,5,0,1
146908,-83.3333333333333,4,2,1,80,0,1
148158,-83.3333333333333,4,2,1,5,0,1
148241,-83.3333333333333,4,2,1,80,0,1
150991,-83.3333333333333,4,2,1,5,0,1
151075,-83.3333333333333,4,2,1,80,0,1
152075,-100,4,2,1,60,0,0
162908,-83.3333333333333,4,2,1,70,0,0
163158,-83.3333333333333,4,2,1,5,0,0
163241,-83.3333333333333,4,2,1,70,0,0
164991,-83.3333333333333,4,2,1,5,0,0
165075,-83.3333333333333,4,2,1,70,0,0
166491,-83.3333333333333,4,2,1,5,0,0
166575,-83.3333333333333,4,2,1,70,0,0
167575,-90.9090909090909,4,2,1,70,0,0
167908,-100,4,2,1,70,0,0
168241,-83.3333333333333,4,2,1,70,0,0
168491,-83.3333333333333,4,2,1,5,0,0
168575,-83.3333333333333,4,2,1,70,0,0
170741,-166.666666666667,4,2,1,70,0,0
177575,-166.666666666667,4,2,1,20,0,0
178241,-166.666666666667,4,2,1,30,0,0
178908,-166.666666666667,4,2,1,40,0,0
179575,-166.666666666667,4,2,1,50,0,0
180241,-166.666666666667,4,2,1,60,0,0
181575,-166.666666666667,4,2,1,60,0,0
186908,-100,4,2,1,70,0,0
189575,-166.666666666667,4,2,1,60,0,0
189825,-166.666666666667,4,2,1,5,0,0
189908,-83.3333333333333,4,2,1,80,0,1
194825,-83.3333333333333,4,2,1,5,0,1
194908,-83.3333333333333,4,2,1,80,0,1
199241,-100,4,2,1,70,0,1
199575,-125,4,2,1,60,0,1
199908,-166.666666666667,4,2,1,50,0,1
200241,-200,4,2,1,50,0,0

[Colours]
Combo1 : 163,147,210
Combo2 : 73,206,239
Combo3 : 77,172,242
Combo4 : 198,124,252

[HitObjects]
379,123,4408,37,2,0:3:0:0:
379,123,4491,1,2,0:3:0:0:
379,123,4575,1,2,0:3:0:0:
319,183,4741,1,2,0:3:0:0:
234,170,4908,1,2,0:3:0:0:
210,88,5075,1,2,0:3:0:0:
308,24,5241,5,2,1:2:0:0:
508,250,5575,38,0,L|510:200,1,50.9999984436036,2|2,1:2|0:3,0:0:0:0:
403,310,6241,2,0,L|402:361,1,50.9999984436036,2|2,0:3|0:3,0:0:0:0:
317,233,6908,2,0,L|319:183,1,50.9999984436036,2|2,0:3|0:3,0:0:0:0:
216,76,7575,1,2,0:0:0:0:
216,76,7741,2,0,L|108:71,1,101.999996887207,2|0,0:3|0:0,0:0:0:0:
0,128,8241,6,0,L|66:130,1,50.9999984436036,2|2,1:2|0:3,0:0:0:0:
163,233,8908,2,0,L|112:231,1,50.9999984436036,2|2,0:3|0:3,0:0:0:0:
0,336,9575,2,0,L|66:338,1,50.9999984436036,2|2,0:3|0:3,0:0:0:0:
204,371,10241,1,2,0:0:0:0:
204,371,10408,2,0,P|249:349|299:355,1,101.999996887207,2|0,0:3|0:0,0:0:0:0:
408,302,10908,38,0,P|427:318|439:340,1,50.9999984436036,2|2,1:2|0:3,0:0:0:0:
399,192,11575,2,0,P|424:190|448:198,1,50.9999984436036,2|2,0:3|0:3,0:0:0:0:
308,135,12241,2,0,P|324:116|347:103,1,50.9999984436036,2|2,0:3|0:3,0:0:0:0:
194,139,12908,1,2,0:0:0:0:
194,139,13075,2,0,P|145:127|106:96,1,101.999996887207,2|0,0:3|0:0,0:0:0:0:
208,20,13575,6,0,P|229:7|254:1,1,50.9999984436036,2|2,1:2|0:3,0:0:0:0:
407,7,14241,2,0,P|429:19|446:38,1,50.9999984436036,2|2,0:3|0:3,0:0:0:0:
496,182,14908,2,0,P|496:207|487:231,1,50.9999984436036,2|2,0:3|0:3,0:0:0:0:
376,336,15575,2,0,P|354:348|329:354,1,50.9999984436036,2|2,0:3|0:3,0:0:0:0:
258,324,15908,1,8,0:0:0:0:
44,346,16241,38,0,L|36:278,1,68,6|0,1:2|1:0,0:0:0:0:
166,189,16575,2,0,L|155:290,1,102,8|0,0:0|0:0,0:0:0:0:
170,320,16908,1,2,1:2:0:0:
243,369,17075,1,2,1:2:0:0:
322,267,17241,1,10,0:0:0:0:
454,323,17408,6,0,B|423:314|375:326|409:344|359:358|325:348,1,136,2|0,0:2|1:0,0:0:0:0:
191,230,17908,2,0,P|224:224|258:219,1,68,10|0,0:0|0:0,0:0:0:0:
329,180,18158,1,10,0:0:0:0:
329,180,18241,2,0,P|362:185|387:207,1,68,2|0,1:2|1:0,0:0:0:0:
454,323,18575,1,10,0:0:0:0:
322,267,18741,1,0,0:0:0:0:
170,320,18908,38,0,P|105:328|61:279,1,136,2|10,1:2|0:0,0:0:0:0:
118,184,19408,2,0,L|136:273,1,68,2|0,0:2|1:0,0:0:0:0:
19,200,19741,1,0,1:0:0:0:
19,200,19908,2,0,L|37:111,1,68,8|0,0:0|0:0,0:0:0:0:
184,33,20241,5,0,1:0:0:0:
199,140,20408,1,0,1:0:0:0:
47,62,20575,2,0,P|80:64|111:51,1,68,8|0,0:0|0:0,0:0:0:0:
184,33,20825,1,8,0:0:0:0:
184,33,20908,1,2,1:2:0:0:
119,166,21075,1,0,1:0:0:0:
283,119,21241,2,0,P|312:101|345:103,1,68,10|0,0:0|0:0,0:0:0:0:
458,224,21575,38,0,P|394:236|341:196,2,136,2|8|0,1:2|0:0|1:0,0:0:0:0:
452,104,22408,1,0,1:0:0:0:
452,104,22575,2,0,P|427:128|414:159,1,68,8|0,0:0|0:0,0:0:0:0:
354,354,22908,6,0,P|345:321|325:294,1,68,2|0,1:2|1:0,0:0:0:0:
243,233,23241,2,0,P|222:260|214:292,1,68,10|0,0:2|0:0,0:0:0:0:
202,368,23491,1,8,0:0:0:0:
202,368,23575,2,0,L|284:355,1,68,2|0,1:2|1:0,0:0:0:0:
141,290,23908,2,0,P|91:279|46:301,1,102,10|0,0:0|0:0,0:0:0:0:
23,325,24241,38,0,L|13:189,1,136,2|8,1:2|0:0,0:0:0:0:
144,121,24741,2,0,P|117:141|84:142,1,68,2|0,0:0|1:0,0:0:0:0:
29,38,25075,1,0,1:0:0:0:
29,38,25241,2,0,P|62:39|88:59,1,68,8|0,0:0|0:0,0:0:0:0:
170,211,25575,5,0,1:0:0:0:
225,287,25741,1,0,1:0:0:0:
289,215,25908,1,8,0:0:0:0:
151,128,26075,37,8,3:0:0:0:
151,128,26158,1,8,0:0:0:0:
151,128,26241,1,4,3:0:0:0:
250,52,26408,1,4,3:0:0:0:
377,141,26575,1,12,0:0:0:0:
458,72,26741,1,12,3:0:0:0:
505,130,26908,6,0,L|493:216,1,76.4999976654053,2|0,1:2|1:0,0:0:0:0:
379,310,27241,2,0,P|339:270|283:271,1,114.749996498108,8|0,0:0|0:0,0:0:0:0:
260,302,27575,1,2,1:2:0:0:
166,168,27741,1,2,1:2:0:0:
129,331,27908,1,10,0:2:0:0:
0,309,28075,38,0,B|43:314|80:284|48:277|87:248|134:252,1,152.999995330811,2|0,0:2|1:0,0:0:0:0:
268,352,28575,2,0,P|262:314|259:275,1,76.4999976654053,10|2,0:0|0:0,0:0:0:0:
317,229,28825,1,8,0:0:0:0:
317,229,28908,2,0,P|348:191|339:139,1,76.4999976654053,0|0,1:0|1:0,0:0:0:0:
259,80,29241,1,10,0:0:0:0:
166,168,29408,1,0,0:0:0:0:
58,43,29575,6,0,P|125:22|158:84,1,152.999995330811,2|10,1:2|0:0,0:0:0:0:
103,272,30075,2,0,P|77:244|72:206,1,76.4999976654053,2|0,0:0|1:0,0:0:0:0:
240,245,30408,1,0,1:0:0:0:
128,352,30575,2,0,P|91:359|55:346,1,76.4999976654053,10|2,0:0|0:0,0:0:0:0:
230,213,30908,38,0,L|314:221,1,76.4999976654053,0|0,1:2|1:0,0:0:0:0:
413,339,31241,2,0,L|337:348,1,76.4999976654053,8|0,0:0|0:0,0:0:0:0:
266,360,31491,1,8,0:0:0:0:
266,360,31575,2,0,P|246:324|248:283,1,76.4999976654053,2|0,1:2|1:0,0:0:0:0:
339,150,31908,1,10,0:0:0:0:
439,241,32075,1,0,0:0:0:0:
494,119,32241,6,0,P|502:81|491:45,1,76.4999976654053,2|0,1:2|1:0,0:0:0:0:
335,27,32575,2,0,P|298:90|348:153,1,152.999995330811,8|0,0:0|1:0,0:0:0:0:
439,241,33075,1,0,1:0:0:0:
318,296,33241,2,0,P|281:285|243:281,1,76.4999976654053,10|0,0:0|0:0,0:0:0:0:
104,191,33575,38,0,P|141:186|178:176,1,76.4999976654053,2|0,1:2|1:0,0:0:0:0:
281,85,33908,2,0,P|244:80|207:70,1,76.4999976654053,10|0,0:2|1:0,0:0:0:0:
144,29,34158,1,8,0:0:0:0:
144,29,34241,2,0,P|136:68|134:120,1,76.4999976654053,2|0,1:2|1:0,0:0:0:0:
29,25,34575,2,0,P|36:62|39:100,1,76.4999976654053,10|0,0:0|0:0,0:0:0:0:
0,250,34908,6,0,B|44:241|85:259|52:271|96:291|146:280,1,152.999995330811,2|8,1:2|0:0,0:0:0:0:
268,88,35408,2,0,P|243:160|239:236,1,152.999995330811,4|0,1:2|1:0,0:0:0:0:
348,329,35908,1,0,1:0:0:0:
421,278,36075,1,0,0:0:0:0:
348,329,36241,6,0,P|286:319|263:316,1,85,2|2,0:0|0:0,0:0:0:0:
87,264,36908,6,0,P|129:258|219:235,1,118.999996368408,2|2,0:0|0:0,0:0:0:0:
381,50,37575,38,0,B|349:14|288:8|242:46|253:102|259:101|225:168|127:148|127:148|114:94|169:66,1,408,6|6,1:2|1:2,0:0:0:0:
168,272,40241,2,0,L|33:254,2,136,6|2|2,1:2|0:3|0:3,0:0:0:0:
168,272,42075,5,0,1:0:0:0:
168,272,42158,1,0,1:0:0:0:
168,272,42241,2,0,P|171:241|177:203,1,59.4999981842042,8|0,0:0|1:0,0:0:0:0:
213,48,42575,38,0,P|220:85|233:121,1,76.4999976654053,2|0,0:0|0:0,0:0:0:0:
239,137,42908,6,0,P|192:129|135:125,2,89.2499972763062,4|0|0,1:2|1:0|1:0,0:0:0:0:
302,185,43575,2,0,B|343:187|357:161|351:161|374:132|424:138,1,118.999996368408,8|2,0:0|0:0,0:0:0:0:
470,181,44075,1,0,1:0:0:0:
461,257,44241,38,0,B|434:271|425:288|425:288|379:272|332:278,1,118.999996368408,2|0,0:0|0:0,0:0:0:0:
291,320,44741,1,0,1:0:0:0:
222,282,44908,2,0,P|194:239|210:188,1,89.2499972763062,8|0,0:0|0:0,0:0:0:0:
211,188,45241,2,0,P|223:151|217:126,1,59.4999981842042,2|8,0:0|0:0,0:0:0:0:
165,74,45575,6,0,P|136:48|68:95,1,118.999996368408,2|2,1:2|0:0,0:0:0:0:
34,146,46075,1,4,3:0:0:0:
103,236,46241,2,0,L|111:170,1,59.4999981842042,10|0,0:0|0:0,0:0:0:0:
120,170,46491,1,0,1:0:0:0:
120,170,46575,2,0,P|164:177|188:177,1,59.4999981842042,2|4,1:2|3:0,0:0:0:0:
291,103,46908,38,0,P|261:104|232:110,1,59.4999981842042,2|8,0:0|3:0,0:0:0:0:
373,182,47241,2,0,P|343:176|314:174,1,59.4999981842042,8|4,3:0|3:0,0:0:0:0:
302,178,47491,1,0,3:0:0:0:
302,178,47575,2,0,P|311:141|304:108,1,59.4999981842042,10|8,0:0|3:0,0:0:0:0:
195,12,47908,6,0,L|194:164,1,152.999995330811,4|0,3:0|0:0,0:0:0:0:
144,224,48241,38,0,B|188:182|237:198|255:251|246:252|269:286|314:281,1,187.000005706787,6|10,1:2|0:0,0:0:0:0:
393,209,48741,1,0,0:0:0:0:
457,327,48908,2,0,P|414:297|362:301,1,93.5000028533936,2|0,1:2|1:0,0:0:0:0:
233,206,49241,2,0,P|286:198|324:169,1,93.5000028533936,10|0,0:0|0:0,0:0:0:0:
185,309,49575,6,0,B|149:322|110:293|128:291|85:262|49:280,1,140.25000428009,6|0,1:2|0:0,0:0:0:0:
41,280,49908,2,0,P|23:323|48:377,1,93.5000028533936,10|0,0:0|0:0,0:0:0:0:
163,175,50241,1,2,1:2:0:0:
67,99,50408,1,8,3:0:0:0:
163,175,50575,1,10,0:0:0:0:
3,171,50741,1,4,3:0:0:0:
130,25,50908,38,0,P|154:24|177:29,3,46.7500014266968,4|8|8|8,1:2|0:0|0:0|0:0,1:0:0:0:
274,73,51241,5,8,0:0:0:0:
306,92,51325,1,8,0:0:0:0:
342,96,51408,1,8,0:0:0:0:
378,87,51491,1,8,0:0:0:0:
402,58,51575,38,0,P|394:36|386:-3,1,55.2499974708558,8|8,0:0|0:0,0:0:0:0:
511,110,51741,2,0,P|505:137|497:164,1,55.2499974708558,8|8,0:2|0:0,0:0:0:0:
431,304,51908,5,8,0:0:0:0:
402,270,51991,1,8,0:0:0:0:
361,254,52074,1,8,0:0:0:0:
318,258,52158,1,8,0:0:0:0:
275,272,52241,38,0,P|271:315|265:357,2,85,2|2|2,1:2|0:0|0:0,0:0:0:0:
23,251,53241,2,0,P|68:231|88:228,1,63.75,2|0,0:0|0:0,0:0:0:0:
104,245,53575,6,0,P|18:254|31:145,1,203.999993774414,6|8,1:2|0:0,0:0:0:0:
117,77,54075,1,0,0:3:0:0:
218,160,54241,2,0,P|278:164|310:126,1,101.999996887207,2|0,1:2|1:0,0:0:0:0:
385,2,54575,2,0,L|385:178,1,152.999995330811,10|0,0:0|0:0,0:0:0:0:
382,180,54908,38,0,B|423:175|480:147|480:147|526:191|491:240,1,203.999993774414,2|8,1:2|0:0,0:0:0:0:
436,360,55408,1,0,0:0:0:0:
328,300,55575,2,0,P|377:258|431:269,1,101.999996887207,2|0,1:2|1:0,0:0:0:0:
231,355,55908,2,0,P|153:352|69:355,1,152.999995330811,10|0,0:0|0:0,0:0:0:0:
73,359,56241,6,0,P|13:338|48:212,1,203.999993774414,6|8,1:2|0:0,0:0:0:0:
146,142,56741,1,0,0:0:0:0:
230,262,56908,2,0,P|172:233|122:233,1,101.999996887207,0|0,1:0|1:0,0:0:0:0:
41,140,57241,2,0,P|91:134|135:108,1,101.999996887207,8|0,0:0|0:0,0:0:0:0:
230,3,57575,37,2,1:2:0:0:
293,131,57741,1,0,0:0:0:0:
422,60,57908,2,0,P|372:50|324:32,1,101.999996887207,10|0,0:0|1:0,0:0:0:0:
386,181,58241,2,0,P|432:167|487:156,1,101.999996887207,2|0,0:2|1:0,0:0:0:0:
230,3,58575,6,0,L|230:190,1,165.749992412568,10|0,0:0|0:0,0:0:0:0:
219,250,58908,38,0,B|203:234|167:219|167:219|223:161|306:189,1,203.999993774414,6|10,1:2|0:0,0:0:0:0:
253,342,59408,1,0,0:0:0:0:
114,275,59575,2,0,P|89:213|113:174,1,101.999996887207,2|0,1:2|1:0,0:0:0:0:
204,100,59908,1,10,0:0:0:0:
95,23,60075,1,0,0:0:0:0:
204,100,60241,6,0,P|272:82|307:60,1,101.999996887207,2|0,1:2|0:0,0:0:0:0:
398,212,60575,2,0,P|352:188|303:178,1,101.999996887207,10|0,0:0|0:0,0:0:0:0:
398,85,60908,1,2,1:2:0:0:
504,163,61075,1,0,1:0:0:0:
351,0,61241,2,0,L|351:169,1,152.999995330811,10|0,0:0|0:0,0:0:0:0:
398,212,61575,38,0,P|357:166|282:267,1,203.999993774414,6|8,1:2|0:0,0:0:0:0:
222,365,62075,1,0,0:0:0:0:
104,303,62241,2,0,P|79:251|101:200,1,101.999996887207,0|0,1:0|1:0,0:0:0:0:
177,108,62575,2,0,P|202:160|180:211,1,101.999996887207,8|0,0:0|1:0,0:0:0:0:
85,116,62908,5,2,0:2:0:0:
181,24,63075,1,0,1:0:0:0:
85,116,63241,1,10,0:0:0:0:
261,77,63408,1,0,1:0:0:0:
87,18,63575,37,8,0:0:0:0:
62,18,63658,1,8,0:0:0:0:
39,26,63741,2,0,P|11:46|-2:77,1,59.4999981842042,8|8,0:0|0:0,0:0:0:0:
177,212,63908,5,8,0:0:0:0:
202,212,63991,1,8,0:0:0:0:
225,204,64075,2,0,P|253:184|265:160,1,59.4999981842042,8|8,0:0|0:0,0:0:0:0:
261,77,64241,6,0,B|178:83,1,76.4999976654053,0|0,1:0|0:0,0:0:0:0:
158,82,64575,6,0,B|215:63|274:90|230:110|285:137|348:118,1,203.999993774414,14|2,0:2|1:2,0:0:0:0:
468,5,65075,1,0,1:0:0:0:
512,160,65241,2,8,P|493:207|454:237,1,101.999996887207,10|0,0:0|0:0,0:0:0:0:
347,118,65575,38,0,L|330:7,1,101.999996887207,2|0,1:2|0:0,0:0:0:0:
190,166,65908,2,0,L|173:277,1,101.999996887207,10|0,0:0|0:0,0:0:0:0:
34,92,66241,1,2,1:2:0:0:
208,48,66408,1,0,1:0:0:0:
34,92,66575,2,0,L|51:203,1,101.999996887207,10|0,0:0|0:0,0:0:0:0:
151,354,66908,6,0,P|202:356|243:328,1,101.999996887207,6|0,1:2|1:0,0:0:0:0:
306,134,67241,1,8,0:0:0:0:
174,266,67408,1,8,0:0:0:0:
392,204,67575,1,8,0:0:0:0:
192,98,67741,1,8,3:0:0:0:
306,214,67908,1,4,3:0:0:0:
386,125,68075,1,4,3:0:0:0:
466,166,68241,38,0,P|472:218|448:266,1,101.999996887207,2|0,1:2|0:0,0:0:0:0:
285,144,68575,2,0,P|335:136|385:125,1,101.999996887207,8|0,0:0|1:0,0:0:0:0:
160,256,68908,2,0,P|210:263|260:274,1,101.999996887207,2|0,0:0|1:0,0:0:0:0:
161,52,69241,2,0,P|110:106|36:103,1,152.999995330811,10|0,0:0|0:0,0:0:0:0:
1,64,69575,6,0,P|11:166|18:268,1,203.999993774414,6|10,1:2|0:0,0:0:0:0:
111,361,70075,1,0,0:0:0:0:
174,245,70241,2,0,P|224:216|273:226,1,101.999996887207,2|0,1:2|1:0,0:0:0:0:
381,341,70575,2,0,P|335:289|382:236,1,152.999995330811,10|0,0:0|0:0,0:0:0:0:
428,257,70908,38,0,B|461:210|461:210|445:64,1,203.999993774414,2|8,1:2|0:0,0:0:0:0:
327,3,71408,1,0,0:0:0:0:
257,116,71575,2,0,P|306:124|351:101,1,101.999996887207,2|0,1:2|1:0,0:0:0:0:
207,6,71908,1,10,0:0:0:0:
98,117,72075,5,2,0:0:0:0:
98,117,72158,1,2,0:0:0:0:
98,117,72241,2,0,L|112:223,1,101.999996887207,6|0,1:2|0:0,0:0:0:0:
250,306,72575,2,0,L|263:204,1,101.999996887207,8|0,0:0|0:0,0:0:0:0:
296,44,72908,1,0,1:0:0:0:
207,143,73075,1,0,1:0:0:0:
109,13,73241,1,8,0:0:0:0:
0,186,73408,38,0,B|52:167|114:190|70:216|139:241|191:222,1,203.999993774414,2|0,1:2|1:3,0:3:0:0:
296,44,73908,1,8,3:0:0:0:
407,163,74075,2,0,L|396:272,1,101.999996887207,4|0,3:0|0:0,0:0:0:0:
296,352,74408,1,4,3:0:0:0:
190,222,74575,1,8,0:0:0:0:
13,352,74741,6,0,P|79:303|159:324,1,170,6|2,1:2|1:2,0:0:0:0:
296,352,75241,1,10,0:0:0:0:
244,283,75408,1,2,0:0:0:0:
94,384,75575,1,2,1:2:0:0:
164,201,75741,1,10,0:0:0:0:
164,201,76075,38,0,P|230:249|310:228,1,170,6|2,1:2|1:2,0:0:0:0:
401,127,76575,1,10,0:0:0:0:
250,158,76741,1,2,0:0:0:0:
406,227,76908,1,2,1:2:0:0:
309,53,77075,1,10,0:0:0:0:
309,53,77408,6,0,B|259:40|216:62|250:77|201:102|150:89,1,170,6|2,1:2|1:2,0:0:0:0:
116,74,77825,1,2,0:3:0:0:
116,74,77908,1,10,0:0:0:0:
105,167,78075,1,2,0:0:0:0:
174,7,78241,1,2,1:2:0:0:
290,143,78408,1,10,0:0:0:0:
290,143,78741,38,0,P|370:127|401:51,1,170,6|2,1:2|1:3,0:0:0:0:
389,15,79158,1,2,0:3:0:0:
389,15,79241,1,8,0:0:0:0:
309,53,79408,1,2,0:3:0:0:
174,7,79575,1,2,1:2:0:0:
75,142,79741,1,10,0:0:0:0:
75,142,79825,1,8,0:0:0:0:
75,142,79908,1,10,0:0:0:0:
172,259,80075,6,0,L|341:241,1,170,6|2,1:2|1:2,0:0:0:0:
491,282,80575,1,10,0:0:0:0:
446,165,80741,1,2,0:0:0:0:
360,331,80908,1,2,1:2:0:0:
270,170,81075,2,0,L|184:179,1,85,10|0,0:0|1:0,0:0:0:0:
58,307,81408,37,6,1:2:0:0:
333,359,81741,1,2,0:3:0:0:
333,359,81825,1,2,0:3:0:0:
333,359,81908,1,2,0:3:0:0:
376,285,82075,1,2,0:3:0:0:
351,203,82241,1,2,0:3:0:0:
270,170,82408,1,2,0:3:0:0:
242,277,82575,5,2,1:2:0:0:
440,355,82908,37,2,1:2:0:0:
441,343,83241,1,0,1:0:0:0:
442,331,83575,1,0,1:0:0:0:
443,319,83908,1,0,1:0:0:0:
445,307,84241,1,0,1:0:0:0:
446,295,84574,1,0,1:0:0:0:
396,243,84908,5,2,1:2:0:0:
395,231,85241,1,0,1:0:0:0:
332,118,85575,37,2,1:2:0:0:
333,130,85908,1,0,1:0:0:0:
334,142,86242,1,0,1:0:0:0:
335,154,86575,1,0,1:0:0:0:
337,166,86908,1,0,1:0:0:0:
338,178,87241,1,0,1:0:0:0:
289,230,87575,5,2,1:2:0:0:
288,242,87908,1,0,1:0:0:0:
223,325,88241,38,0,L|221:266,1,59.4999981842042,2|2,1:2|0:3,0:0:0:0:
187,329,88575,2,0,L|184:269,1,59.4999981842042,0|2,1:0|0:3,0:0:0:0:
153,334,88908,2,0,L|150:274,1,59.4999981842042,0|2,1:3|0:3,0:3:0:0:
119,339,89241,2,0,L|116:279,1,59.4999981842042,0|2,1:0|0:3,0:0:0:0:
82,343,89575,2,0,L|79:283,1,59.4999981842042,0|2,1:0|0:3,0:0:0:0:
48,348,89908,2,0,L|45:288,1,59.4999981842042,0|2,1:0|0:3,0:0:0:0:
0,208,90241,6,0,L|2:148,1,59.4999981842042,2|2,1:2|0:3,0:0:0:0:
34,213,90574,2,0,L|36:153,1,59.4999981842042,0|2,1:0|0:3,0:0:0:0:
104,95,90908,38,0,L|102:35,2,59.4999981842042,2|2|0,1:2|0:3|1:0,0:0:0:0:
162,153,91408,1,2,0:3:0:0:
162,153,91575,2,0,L|164:213,2,59.4999981842042,0|2|0,1:2|0:3|1:0,0:0:0:0:
224,106,92075,1,2,0:3:0:0:
224,106,92241,2,0,L|222:46,2,59.4999981842042,0|2|0,1:2|0:3|1:0,0:0:0:0:
292,151,92741,1,2,0:3:0:0:
292,151,92908,2,0,L|294:211,1,59.4999981842042,0|2,1:0|0:3,0:0:0:0:
389,141,93241,6,0,P|444:138|479:94,1,114.749996498108,8|0,0:0|0:0,0:0:0:0:
481,75,93575,6,0,P|476:153|476:215,1,136,2|0,1:2|1:0,0:0:0:0:
418,269,94075,1,0,0:0:0:0:
346,230,94241,2,0,P|298:219|264:218,1,68,0|0,1:0|0:0,0:0:0:0:
244,143,94575,2,0,P|277:139|310:130,1,68,0|0,1:0|0:0,0:0:0:0:
183,198,94908,6,0,P|112:218|63:169,1,136,0|0,1:0|1:0,0:0:0:0:
22,114,95408,1,0,0:0:0:0:
72,49,95575,2,0,P|126:22|166:66,1,102,2|0,1:2|0:0,0:0:0:0:
168,59,95908,2,0,P|206:58|237:41,1,68,0|0,1:0|0:0,0:0:0:0:
303,5,96241,38,0,P|303:62|303:147,1,136,2|0,1:2|1:0,0:0:0:0:
349,208,96741,1,0,0:0:0:0:
421,170,96908,2,0,P|431:130|420:100,1,68,0|0,1:0|0:0,0:0:0:0:
468,239,97241,2,0,P|458:279|469:309,1,68,0|0,1:0|0:0,0:0:0:0:
397,348,97575,6,0,P|346:342|254:340,1,136,0|0,1:0|1:0,0:0:0:0:
212,274,98075,1,0,0:0:0:0:
145,320,98241,2,0,P|79:331|50:305,1,102,2|0,1:2|0:0,0:0:0:0:
46,303,98575,2,0,P|50:356|50:382,1,68,8|0,0:0|0:0,0:0:0:0:
0,208,98908,38,0,P|28:169|120:185,1,136,2|0,1:2|1:0,0:0:0:0:
181,135,99408,1,8,0:1:0:0:
253,171,99575,2,0,P|296:173|317:153,1,68,0|0,1:0|0:0,0:0:0:0:
336,79,99908,2,0,P|293:77|272:97,1,68,0|0,1:0|0:0,0:0:0:0:
414,121,100241,6,0,P|420:80|418:51,1,68,0|8,1:0|0:1,0:0:0:0:
467,189,100575,2,0,P|465:222|471:256,1,68,0|0,1:0|0:0,0:0:0:0:
408,308,100908,2,0,B|368:303|368:303|344:310|344:310|295:302,1,102,2|0,1:2|0:0,0:0:0:0:
296,291,101241,2,0,P|341:277|351:250,1,68,0|8,1:2|0:1,0:0:0:0:
309,188,101575,38,0,B|267:185|247:217|256:217|232:250|177:241,1,136,2|0,1:2|1:0,0:0:0:0:
124,194,102075,1,8,0:1:0:0:
158,120,102241,2,0,P|192:98|228:104,1,68,0|0,1:0|0:0,0:0:0:0:
79,119,102575,2,0,P|61:85|73:51,1,68,8|0,0:0|0:0,0:0:0:0:
124,194,102908,5,0,1:0:0:0:
44,211,103075,1,0,1:0:0:0:
124,194,103241,2,0,P|118:227|116:261,1,68,8|8,0:0|3:0,0:0:0:0:
120,282,103491,1,8,0:0:0:0:
120,282,103575,38,0,P|174:268|204:263,1,85,4|4,3:0|3:0,0:0:0:0:
286,192,103908,6,0,P|232:178|204:174,1,76.4999976654053,6|4,1:2|3:0,0:0:0:0:
375,261,104241,38,0,P|443:277|496:185,1,170,2|8,1:2|0:0,0:0:0:0:
448,106,104741,1,0,0:0:0:0:
363,167,104908,2,0,P|374:214|378:257,1,85,2|0,1:2|1:0,0:0:0:0:
448,106,105241,2,0,P|452:63|462:22,1,85,10|2,0:0|0:0,0:0:0:0:
274,11,105575,6,0,L|274:138,1,127.5,0|0,1:2|0:0,0:0:0:0:
280,163,105908,2,0,P|286:204|266:240,1,85,10|0,0:0|0:0,0:0:0:0:
195,259,106158,1,8,0:0:0:0:
195,259,106241,2,0,P|134:240|83:238,1,85,2|0,1:2|1:0,0:0:0:0:
21,174,106575,2,0,P|62:167|102:152,1,85,10|0,0:0|0:0,0:0:0:0:
7,342,106908,38,0,B|67:331|67:331|112:350|112:350|195:341,1,170,2|10,1:2|0:0,0:0:0:0:
265,283,107408,1,2,0:0:0:0:
265,283,107491,1,2,0:0:0:0:
265,283,107575,1,0,1:2:0:0:
357,343,107741,1,0,1:0:0:0:
424,224,107908,2,0,P|367:255|326:259,1,85,10|0,0:0|0:0,0:0:0:0:
218,129,108241,6,0,P|275:105|327:137,1,127.5,2|0,1:2|0:0,0:0:0:0:
329,163,108575,2,0,P|290:180|251:198,1,85,8|0,0:0|0:0,0:0:0:0:
182,213,108825,1,8,0:0:0:0:
182,213,108908,2,0,P|141:182|130:152,1,85,2|0,1:2|1:0,0:0:0:0:
236,42,109241,1,10,0:0:0:0:
54,14,109408,1,2,0:0:0:0:
54,14,109491,1,2,0:0:0:0:
54,14,109575,38,0,L|54:209,1,170,2|8,1:2|0:0,0:0:0:0:
16,280,110075,1,0,0:0:0:0:
166,289,110241,2,0,P|124:256|84:258,1,85,0|0,1:0|1:0,0:0:0:0:
255,353,110575,2,0,P|296:347|326:319,1,85,10|0,0:0|0:0,0:0:0:0:
235,154,110908,5,2,1:2:0:0:
327,215,111075,1,0,1:0:0:0:
235,154,111241,2,0,P|247:218|249:255,1,85,10|0,0:0|0:0,0:0:0:0:
241,251,111491,1,8,0:0:0:0:
241,251,111575,2,0,P|293:239|337:235,1,85,2|0,1:2|1:0,0:0:0:0:
398,107,111908,2,0,P|346:119|302:123,1,85,10|0,0:0|0:0,0:0:0:0:
154,4,112241,38,0,L|154:193,1,170,2|8,1:2|0:0,0:0:0:0:
216,265,112741,1,6,1:2:0:0:
216,265,112825,1,0,1:0:0:0:
216,265,112908,1,2,1:2:0:0:
64,181,113075,1,0,1:0:0:0:
216,265,113241,1,2,0:0:0:0:
101,282,113408,1,0,0:0:0:0:
154,174,113575,6,0,B|183:168|204:180|201:182|212:192|239:189,1,85,2|2,0:0|0:0,0:0:0:0:
424,233,114241,38,0,P|378:230|334:306,1,136,2|2,0:0|0:0,0:0:0:0:
298,71,114908,22,0,B|352:113|417:121|486:103|517:40|517:40|486:2|419:-9|369:7,1,408,6|6,1:2|1:2,0:0:0:0:
62,72,117575,2,0,B|58:117|58:117|74:152|74:152|70:204,2,136,6|2|2,1:2|0:3|0:3,0:0:0:0:
256,32,119408,5,0,1:0:0:0:
256,32,119491,1,0,1:0:0:0:
256,32,119575,2,0,P|252:61|251:91,1,59.4999981842042,8|0,0:0|1:0,0:0:0:0:
160,256,119908,38,0,P|155:218|147:180,1,76.4999976654053,2|0,0:0|0:0,0:0:0:0:
126,159,120241,6,0,P|170:165|214:163,2,89.2499972763062,6|0|0,1:2|1:0|1:2,0:0:0:0:
90,89,120908,2,0,P|53:126|59:198,1,118.999996368408,8|2,0:0|0:0,0:0:0:0:
79,262,121408,1,0,1:0:0:0:
152,287,121575,38,0,L|145:381,2,89.2499972763062,2|0|0,1:2|1:0|1:0,0:0:0:0:
180,273,122158,1,0,1:0:0:0:
180,273,122241,2,0,P|208:264|237:265,1,59.4999981842042,10|0,0:0|0:0,0:0:0:0:
311,291,122575,2,0,P|339:299|368:298,1,59.4999981842042,2|8,0:0|0:0,0:0:0:0:
424,245,122908,6,0,P|447:289|437:331,2,89.2499972763062,2|0|0,1:2|1:0|1:2,0:0:0:0:
351,217,123575,2,0,L|340:143,1,59.4999981842042,10|8,0:0|3:0,0:0:0:0:
288,57,123908,2,0,L|277:131,1,59.4999981842042,2|4,0:0|3:0,0:0:0:0:
150,145,124241,38,0,P|180:146|210:149,1,59.4999981842042,0|8,1:2|3:0,0:0:0:0:
118,230,124575,2,0,P|88:233|58:234,1,59.4999981842042,8|4,3:0|3:0,0:0:0:0:
22,219,124825,1,4,3:0:0:0:
22,219,124908,1,10,0:0:0:0:
55,149,125075,1,8,3:0:0:0:
88,79,125241,2,0,P|59:73|29:77,1,59.4999981842042,4|4,3:0|3:0,0:0:0:0:
156,27,125575,6,0,B|197:65|197:65|327:55,1,187.000005706787,6|10,1:2|0:0,0:0:0:0:
392,169,126075,1,0,0:0:0:0:
501,97,126241,2,0,P|459:77|415:88,1,93.5000028533936,2|0,1:2|1:0,0:0:0:0:
397,289,126575,2,0,P|453:256|430:196,1,140.25000428009,10|0,0:0|0:0,0:0:0:0:
392,169,126908,38,0,B|346:151|289:171|326:192|261:214|215:195,1,187.000005706787,6|10,1:2|0:0,0:0:0:0:
110,100,127408,1,0,0:0:0:0:
0,185,127575,2,0,L|11:280,1,93.5000028533936,2|8,1:2|3:0,0:0:0:0:
235,360,127908,1,10,0:0:0:0:
132,211,128075,1,8,3:0:0:0:
72,384,128241,6,0,L|82:339,3,46.7500014266968,4|8|8|8,1:2|0:0|0:0|0:0,1:0:0:0:
171,307,128574,37,8,0:0:0:0:
203,288,128657,1,8,0:0:0:0:
240,281,128741,1,8,0:0:0:0:
276,289,128825,1,8,0:0:0:0:
307,309,128908,6,0,L|318:361,1,46.7500014266968,8|8,0:0|0:0,0:0:0:0:
422,229,129075,2,0,L|433:177,1,46.7500014266968,8|8,0:0|0:0,0:0:0:0:
372,42,129241,37,8,0:0:0:0:
327,46,129324,1,8,0:0:0:0:
300,80,129407,1,8,0:0:0:0:
302,123,129490,1,8,0:0:0:0:
344,149,129575,6,0,L|260:156,2,85,2|2|2,0:0|0:0|0:0,0:0:0:0:
95,32,130575,2,0,P|124:19|155:26,1,63.75,2|0,0:0|0:0,0:0:0:0:
184,34,130908,22,0,L|184:255,1,203.999993774414,6|8,1:2|0:0,0:0:0:0:
257,336,131408,1,0,0:0:0:0:
346,252,131575,2,0,B|306:213|306:213|259:243,1,101.999996887207,2|0,1:2|1:0,0:0:0:0:
181,354,131908,2,0,B|246:348|246:348|268:359|268:359|343:353,1,152.999995330811,10|0,0:0|0:0,0:0:0:0:
405,372,132241,38,0,P|468:316|406:218,1,203.999993774414,2|8,1:2|0:0,0:0:0:0:
324,146,132741,1,0,0:0:0:0:
412,61,132908,2,0,P|472:77|486:119,1,101.999996887207,2|0,1:2|1:0,0:0:0:0:
290,27,133241,2,0,B|242:20|213:52|230:57|202:87|144:78,1,152.999995330811,10|0,0:0|0:0,0:0:0:0:
79,8,133575,6,0,B|115:28|115:28|115:192,1,203.999993774414,6|8,1:2|0:0,0:0:0:0:
18,266,134075,1,0,0:0:0:0:
188,298,134241,2,0,P|135:268|89:272,1,101.999996887207,0|0,1:0|1:0,0:0:0:0:
278,358,134575,2,0,P|328:357|370:329,1,101.999996887207,8|0,0:0|0:0,0:0:0:0:
396,210,134908,37,2,1:2:0:0:
283,257,135075,1,0,0:0:0:0:
470,274,135241,2,0,P|476:223|488:173,1,101.999996887207,10|0,0:0|1:0,0:0:0:0:
301,81,135575,2,0,P|313:130|319:181,1,101.999996887207,2|0,0:0|1:0,0:0:0:0:
478,56,135908,2,0,P|433:5|356:42,1,152.999995330811,10|0,0:0|0:0,0:0:0:0:
345,53,136241,6,0,B|294:78|249:46|262:42|217:7|150:35,1,203.999993774414,6|10,1:2|0:0,0:0:0:0:
45,97,136741,1,0,0:0:0:0:
118,195,136908,2,0,P|157:147|149:109,1,101.999996887207,2|0,1:2|1:0,0:0:0:0:
0,11,137241,2,0,L|0:172,1,152.999995330811,10|0,0:0|0:0,0:0:0:0:
0,236,137575,38,0,P|30:182|130:256,1,203.999993774414,2|10,1:2|0:0,0:0:0:0:
224,316,138075,1,0,0:0:0:0:
298,183,138241,2,0,P|235:186|210:226,1,101.999996887207,2|0,1:2|1:0,0:0:0:0:
376,250,138575,2,0,P|463:230|493:284,1,152.999995330811,10|0,0:0|0:0,0:0:0:0:
488,346,138908,6,0,P|408:359|373:241,1,203.999993774414,6|8,1:2|0:0,0:0:0:0:
455,180,139408,1,0,0:0:0:0:
301,85,139575,2,0,P|326:155|330:190,1,101.999996887207,0|0,1:0|1:0,0:0:0:0:
435,5,139908,2,0,P|410:75|406:110,1,101.999996887207,8|0,0:0|1:0,0:0:0:0:
281,9,140241,37,2,0:2:0:0:
406,102,140408,1,0,1:0:0:0:
226,90,140575,1,10,0:0:0:0:
435,5,140741,1,0,1:0:0:0:
226,90,140908,5,10,0:0:0:0:
200,87,140991,1,8,0:0:0:0:
178,71,141075,2,0,L|193:4,1,63.7500024318696,8|8,0:0|0:0,0:0:0:0:
106,245,141241,37,10,0:0:0:0:
144,243,141324,1,8,0:0:0:0:
175,220,141408,2,0,L|160:153,1,63.7500024318696,8|8,0:0|0:0,0:0:0:0:
37,85,141575,6,0,P|39:59|42:34,1,51,0|0,1:2|0:0,0:0:0:0:
11,144,141908,38,0,P|51:105|111:117,1,101.999996887207,14|0,0:0|0:0,0:0:0:0:
175,220,142241,1,2,1:2:0:0:
236,114,142408,1,0,1:0:0:0:
175,220,142575,2,0,P|131:189|73:197,1,101.999996887207,10|0,0:0|0:0,0:0:0:0:
27,299,142908,6,0,P|135:297|254:298,1,203.999993774414,2|10,1:2|0:0,0:0:0:0:
344,342,143408,1,0,0:0:0:0:
396,231,143575,2,0,P|339:236|316:279,1,101.999996887207,2|0,1:2|1:0,0:0:0:0:
467,366,143908,2,0,B|492:317|492:317|466:266,1,101.999996887207,10|0,0:0|0:0,0:0:0:0:
332,155,144241,37,6,1:2:0:0:
470,275,144408,1,8,0:0:0:0:
258,209,144575,1,8,0:0:0:0:
486,78,144741,1,8,0:0:0:0:
486,78,144825,1,8,0:0:0:0:
486,78,144908,6,0,P|476:133|472:180,1,93.5000028533936,2|8,1:2|3:0,0:0:0:0:
318,71,145241,38,0,P|325:111|332:161,1,85,4|4,3:0|3:0,0:0:0:0:
402,6,145575,6,0,L|402:234,1,203.999993774414,2|10,1:2|0:0,0:0:0:0:
327,307,146075,1,0,1:0:0:0:
242,219,146241,2,0,P|284:180|330:191,1,101.999996887207,2|0,0:2|1:0,0:0:0:0:
235,339,146575,2,0,B|187:331|138:315|138:315|124:360|91:369,1,152.999995330811,10|0,0:0|0:0,0:0:0:0:
71,365,146908,38,0,P|10:325|54:205,1,203.999993774414,6|10,1:2|0:0,0:0:0:0:
138,142,147408,1,0,0:0:0:0:
38,212,147575,2,0,P|8:159|27:115,1,101.999996887207,2|0,1:2|1:0,0:0:0:0:
106,35,147908,2,0,B|154:13|183:44|174:45|208:77|255:63,1,152.999995330811,10|0,0:0|0:0,0:0:0:0:
275,44,148241,6,0,P|325:5|390:100,1,203.999993774414,2|8,1:2|0:0,0:0:0:0:
299,175,148741,1,0,0:0:0:0:
459,220,148908,2,0,P|464:155|472:112,1,101.999996887207,2|0,1:2|1:0,0:0:0:0:
299,175,149241,2,0,P|307:225|310:276,1,101.999996887207,10|2,0:0|0:0,0:0:0:0:
196,324,149575,38,0,B|267:313|267:313|317:337|317:337|409:326,1,203.999993774414,6|8,1:2|0:0,0:0:0:0:
227,220,150075,1,0,0:0:0:0:
179,332,150241,2,0,P|109:333|86:298,1,101.999996887207,0|0,1:0|1:0,0:0:0:0:
299,175,150575,1,8,0:0:0:0:
140,70,150741,6,0,L|140:245,1,152.999995330811,2|0,1:2|0:0,0:0:0:0:
141,244,151075,1,0,1:0:0:0:
64,135,151241,1,8,3:0:0:0:
227,220,151408,1,8,3:0:0:0:
23,230,151575,1,2,0:0:0:0:
234,109,151741,1,4,3:0:0:0:
23,230,151908,1,10,0:0:0:0:
244,347,152075,6,0,P|321:317|354:241,1,170,6|2,1:2|1:2,0:0:0:0:
248,126,152575,1,10,0:0:0:0:
367,106,152741,1,2,0:0:0:0:
225,230,152908,1,2,1:2:0:0:
136,64,153075,1,10,0:0:0:0:
136,64,153408,6,0,P|217:74|260:144,1,170,6|2,1:2|1:2,0:0:0:0:
286,296,153908,1,10,0:0:0:0:
171,339,154075,1,2,0:0:0:0:
30,273,154241,1,2,1:2:0:0:
171,143,154408,1,10,0:0:0:0:
171,143,154741,38,0,L|159:312,1,170,6|2,1:2|1:2,0:0:0:0:
160,358,155158,1,2,0:3:0:0:
160,358,155241,1,10,0:0:0:0:
67,232,155408,1,2,0:0:0:0:
249,219,155575,1,2,1:2:0:0:
184,41,155741,1,10,0:0:0:0:
184,41,156075,6,0,B|234:28|280:48|243:64|297:91|341:78,1,170,6|0,1:2|1:0,0:0:0:0:
512,52,156575,1,8,0:0:0:0:
400,12,156741,1,2,0:3:0:0:
434,158,156908,1,2,0:0:0:0:
290,157,157075,1,10,0:0:0:0:
290,157,157158,1,8,0:0:0:0:
290,157,157241,1,10,0:0:0:0:
304,336,157408,38,0,L|472:315,1,170,6|2,1:2|1:2,0:0:0:0:
512,198,157908,1,10,0:0:0:0:
384,214,158075,1,2,0:0:0:0:
472,314,158241,1,2,1:2:0:0:
446,121,158407,1,10,0:0:0:0:
446,121,158741,6,0,L|277:100,1,170,6|2,1:2|1:2,0:0:0:0:
212,243,159241,1,10,0:0:0:0:
304,189,159408,1,2,0:0:0:0:
155,170,159574,1,2,1:2:0:0:
119,340,159740,1,10,0:0:0:0:
119,340,160075,38,0,L|287:319,1,170,6|2,1:2|1:2,0:0:0:0:
333,319,160491,1,2,0:3:0:0:
333,319,160575,1,10,0:0:0:0:
397,231,160741,1,2,0:0:0:0:
357,110,160908,1,2,1:2:0:0:
219,183,161075,1,10,0:0:0:0:
219,183,161408,6,0,L|50:162,1,170,6|0,1:2|1:3,0:0:0:0:
11,162,161825,1,0,1:2:0:0:
11,162,161908,1,8,0:0:0:0:
108,29,162075,1,0,1:2:0:0:
108,29,162158,1,0,1:2:0:0:
108,29,162241,2,0,P|157:27|190:54,1,85,8|0,3:0|0:0,0:0:0:0:
295,165,162575,2,0,P|259:187|218:182,1,85,4|0,3:0|0:0,0:0:0:0:
381,1,162908,6,0,L|381:162,1,152.999995330811,6|0,1:2|0:0,0:0:0:0:
375,176,163241,2,0,P|419:142|474:153,1,101.999996887207,10|0,0:0|0:0,0:0:0:0:
374,271,163575,1,2,1:2:0:0:
295,165,163741,1,2,1:2:0:0:
374,271,163908,2,0,P|430:253|481:248,1,101.999996887207,10|2,0:0|1:2,0:0:0:0:
295,165,164241,6,0,P|240:175|219:220,1,101.999996887207,2|2,0:2|1:2,0:0:0:0:
292,324,164575,1,8,0:0:0:0:
57,288,164741,2,0,B|112:281|112:281|152:298|152:298|220:290,1,152.999995330811,2|0,0:0|0:0,0:0:0:0:
220,286,165075,1,2,1:2:0:0:
117,109,165241,2,0,P|135:173|140:214,1,101.999996887207,10|2,0:0|0:0,0:0:0:0:
237,38,165575,38,0,P|187:30|129:9,1,101.999996887207,0|2,1:0|0:0,0:0:0:0:
284,151,165908,2,0,P|332:124|381:109,1,101.999996887207,10|2,0:0|0:0,0:0:0:0:
473,18,166241,2,0,L|473:193,1,152.999995330811,2|0,1:2|0:0,0:0:0:0:
474,200,166575,1,10,0:0:0:0:
376,109,166741,1,2,1:2:0:0:
378,241,166908,6,0,P|423:208|479:208,1,101.999996887207,2|2,0:0|1:2,0:0:0:0:
285,166,167241,1,10,0:0:0:0:
455,286,167408,1,2,0:0:0:0:
276,368,167575,38,0,P|291:304|304:270,1,93.5000028533936,8|0,3:0|0:0,0:0:0:0:
189,141,167908,6,0,P|202:181|214:225,1,85,4|0,3:0|0:0,0:0:0:0:
10,286,168241,38,0,B|61:260|90:295|81:300|118:326|164:308,1,152.999995330811,6|0,1:2|0:0,0:0:0:0:
173,299,168575,1,8,0:0:0:0:
82,202,168741,1,0,1:0:0:0:
173,299,168908,2,0,P|223:257|221:213,1,101.999996887207,2|2,0:0|1:2,0:0:0:0:
147,115,169241,1,2,0:0:0:0:
245,25,169408,1,10,0:0:0:0:
147,115,169575,6,0,P|86:106|41:88,1,101.999996887207,2|8,0:0|3:0,0:0:0:0:
224,224,169908,2,0,P|271:207|322:200,1,101.999996887207,2|4,0:0|3:0,0:0:0:0:
411,97,170241,2,0,P|360:90|312:73,1,101.999996887207,2|8,0:0|3:0,0:0:0:0:
479,196,170575,1,4,3:0:0:0:
265,342,170741,38,0,B|190:368|140:266|189:177|289:164|372:219|372:317|356:318|410:362|470:344,1,458.999985992432,6|2,1:2|0:0,0:0:0:0:
312,73,172908,6,0,P|252:81|145:89,1,152.999995330811,2|0,0:0|0:0,0:0:0:0:
65,61,173575,37,6,0:0:0:0:
256,192,177575,12,10,181241,3:0:0:0:
62,254,181575,22,0,P|124:293|196:275,1,152.999995330811,6|0,1:2|1:0,0:0:0:0:
253,150,182241,1,8,0:0:0:0:
177,164,182408,2,0,P|129:170|75:173,1,101.999996887207,0|0,1:0|0:0,0:0:0:0:
0,32,182908,6,0,P|48:25|84:60,1,101.999996887207,2|0,1:2|0:0,0:0:0:0:
152,21,183408,1,0,1:0:0:0:
177,164,183575,1,8,0:0:0:0:
228,80,183741,1,12,3:0:0:0:
84,60,183908,1,8,0:0:0:0:
241,59,184241,38,0,P|291:50|341:43,1,101.999996887207,6|0,1:2|0:0,0:0:0:0:
485,108,184741,1,0,1:0:0:0:
433,0,184908,1,8,0:0:0:0:
395,106,185075,2,0,P|394:132|406:154,2,50.9999984436036,0|0|0,1:0|0:0|0:0,0:0:0:0:
305,211,185575,6,0,P|274:172|224:171,1,101.999996887207,2|0,1:2|0:0,0:0:0:0:
170,225,186075,1,0,1:0:0:0:
106,182,186241,2,0,L|113:129,1,50.9999984436036,8|0,0:0|1:0,0:0:0:0:
37,217,186575,1,8,0:0:0:0:
157,347,186908,38,0,P|199:347|236:327,1,85,6|0,1:2|0:0,0:0:0:0:
384,230,187241,2,0,P|346:210|304:210,1,85,8|0,0:0|1:0,0:0:0:0:
181,268,187575,1,8,0:0:0:0:
323,291,187741,1,0,1:0:0:0:
288,128,187908,2,0,P|249:145|227:180,1,85,8|0,0:0|1:0,0:0:0:0:
423,380,188241,6,0,P|430:339|439:297,1,85,2|0,0:2|1:0,0:0:0:0:
304,211,188575,2,0,P|296:169|287:127,1,85,10|0,0:0|1:0,0:0:0:0:
470,83,188908,2,0,P|477:41|486:0,1,85,10|0,0:0|1:0,0:0:0:0:
252,52,189241,1,10,0:0:0:0:
252,52,189324,1,8,0:0:0:0:
252,52,189408,2,0,L|201:44,1,42.5,8|8,0:0|0:0,0:0:0:0:
96,64,189575,38,0,P|90:101|105:136,1,76.4999976654053,0|0,1:0|0:0,0:0:0:0:
150,160,189908,6,0,P|80:163|66:283,1,203.999993774414,14|2,0:0|1:2,0:0:0:0:
146,383,190408,1,0,1:0:0:0:
239,282,190575,2,0,P|190:266|142:248,1,101.999996887207,10|0,0:0|0:0,0:0:0:0:
345,360,190908,38,0,P|395:363|431:329,1,101.999996887207,2|0,1:2|0:0,0:0:0:0:
512,159,191241,2,0,P|475:124|426:127,1,101.999996887207,10|0,0:0|0:0,0:0:0:0:
328,272,191575,1,2,1:2:0:0:
249,138,191741,1,0,1:0:0:0:
142,248,191908,2,0,P|90:241|40:235,1,101.999996887207,10|0,0:0|0:0,0:0:0:0:
0,52,192241,6,0,P|44:75|94:70,1,101.999996887207,6|0,1:2|1:0,0:0:0:0:
272,11,192575,1,10,0:0:0:0:
226,140,192741,1,8,0:2:0:0:
323,250,192908,1,2,1:2:0:0:
367,99,193075,1,8,3:0:0:0:
220,241,193241,1,4,3:0:0:0:
138,142,193408,1,4,3:0:0:0:
40,235,193575,38,0,L|52:341,1,101.999996887207,2|0,1:2|0:0,0:0:0:0:
220,241,193908,1,10,0:0:0:0:
138,142,194075,1,0,1:0:0:0:
196,327,194241,2,0,P|246:326|288:298,1,101.999996887207,2|0,0:0|1:0,0:0:0:0:
427,159,194575,2,0,L|270:132,1,152.999995330811,10|0,0:0|0:0,0:0:0:0:
252,106,194908,6,0,B|309:87|368:114|324:134|379:161|442:142,2,203.999993774414,4|8|0,1:2|0:2|1:2,0:0:0:0:
172,212,195741,1,0,1:0:0:0:
57,144,195908,2,0,P|40:96|60:50,1,101.999996887207,8|0,0:0|0:0,0:0:0:0:
267,195,196241,38,0,P|240:289|145:308,1,203.999993774414,6|8,1:2|0:0,0:0:0:0:
53,224,196741,1,0,0:0:0:0:
179,109,196908,2,0,P|176:160|171:211,1,101.999996887207,2|0,1:2|1:0,0:0:0:0:
57,354,197241,1,8,0:0:0:0:
171,211,197408,1,2,0:0:0:0:
330,322,197575,6,0,P|415:365|486:300,1,203.999993774414,6|8,1:2|0:0,0:0:0:0:
420,150,198075,1,0,0:0:0:0:
269,204,198241,2,0,P|220:216|170:210,1,101.999996887207,0|0,1:0|1:0,0:0:0:0:
39,96,198575,1,8,0:0:0:0:
53,224,198741,1,0,1:0:0:0:
165,84,198908,38,0,L|276:77,1,101.999996887207,2|0,0:2|1:0,0:0:0:0:
420,150,199241,2,0,L|331:144,1,85,8|4,3:0|3:0,0:0:0:0:
222,225,199575,2,0,L|303:220,1,68,2|4,0:0|3:0,0:0:0:0:
376,299,199908,2,0,L|307:296,1,50.9999984436036,6|8,0:0|0:0,0:0:0:0:
135,260,200241,6,0,P|127:218|138:177,1,85,2|0,1:2|0:0,0:0:0:0:
216,142,200908,1,2,0:0:0:0:
272,205,201241,1,0,0:0:0:0:
219,271,201575,1,2,0:0:0:0:
135,260,201908,1,0,0:0:0:0:
219,271,202241,2,0,L|317:262,1,85,2|0,0:0|0:0,0:0:0:0:
480,352,202908,37,2,0:0:0:0:
458,269,203241,1,0,0:0:0:0:
385,224,203575,1,2,0:0:0:0:
407,141,203908,1,0,0:0:0:0:
456,72,204241,2,0,P|416:56|375:62,1,85,2|0,0:0|0:0,0:0:0:0:
308,114,204908,2,0,P|266:120|227:104,1,85,2|0,0:0|0:0,0:0:0:0:
64,0,205575,5,2,0:0:0:0:
11,67,205908,1,0,0:0:0:0:
8,151,206241,1,2,0:0:0:0:
75,204,206574,1,0,0:0:0:0:
150,164,206908,2,0,P|223:204|307:201,1,170,2|2,0:0|0:0,0:0:0:0:
480,288,207908,37,0,0:0:0:0:
480,288,208075,1,0,0:0:0:0:
480,288,208241,2,0,B|400:259|279:297|385:341|242:387|164:353,1,340,2|2,0:0|0:0,0:0:0:0:
31,31,210908,6,0,P|206:196|420:89,1,510,2|2,0:0|0:0,0:0:0:0:
258,67,213575,38,0,B|177:27|177:27|222:267|222:267|141:228,1,425,2|0,0:0|0:0,0:0:0:0:
0,336,215575,6,0,L|76:299,1,85,2|0,0:0|0:0,0:0:0:0:
254,359,216241,38,0,P|177:254|434:177,1,510,2|2,0:0|0:0,0:0:0:0:
311,244,218908,6,0,B|218:187|256:18|256:18|179:177|62:171,1,510,2|0,0:0|0:0,0:0:0:0:
14,47,221575,38,0,B|76:-17|204:-15|274:48|264:120|291:167|362:180,1,425,2|0,0:0|0:0,0:0:0:0:
458,76,223575,6,0,P|415:68|380:86,1,85,2|0,0:0|0:0,0:0:0:0:
178,173,224241,38,0,B|188:85|260:67|316:111|336:182|272:220|228:247|202:302|232:361|284:395|329:370|358:327|347:271,1,510,2|2,0:0|0:0,0:0:0:0:
461,132,226908,6,0,B|347:78|164:177|294:230|132:327|11:278,1,510,2|2,0:0|0:0,0:0:0:0:
96,128,229575,37,2,0:0:0:0:
