osu file format v14

[General]
AudioFilename: audio.mp3
AudioLeadIn: 0
PreviewTime: 52236
Countdown: 0
SampleSet: Normal
StackLeniency: 0.7
Mode: 1
LetterboxInBreaks: 0
WidescreenStoryboard: 1

[Editor]
Bookmarks: 16236,37570,53570,74736,82903,93570,114903,130903,152070,162903,173570,181570,189903,200236,210903
DistanceSpacing: 3.4
BeatDivisor: 2
GridSize: 32
TimelineZoom: 2

[Metadata]
Title:Suisei ni Nareta nara
TitleUnicode:彗星になれたなら
Artist:Harumaki Gohan
ArtistUnicode:はるまきごはん
Creator:doulph
Version:Kantan
Source:
Tags:japanese pop j-pop jpop if i could be a comet featured artist fa futarino nana lili ふたりの ナナ リリ ☄
BeatmapID:3041665
BeatmapSetID:1477941

[Difficulty]
HPDrainRate:8
CircleSize:5
OverallDifficulty:3
ApproachRate:5
SliderMultiplier:1.4
SliderTickRate:1

[Events]
//Background and Video events
0,0,"bg1.jpg",0,50
Video,257,"video.mp4"
//Break Periods
2,173770,176370
//Storyboard Layer 0 (Background)
//Storyboard Layer 1 (Fail)
//Storyboard Layer 2 (Pass)
//Storyboard Layer 3 (Foreground)
//Storyboard Layer 4 (Overlay)
//Storyboard Sound Samples

[TimingPoints]
4237,333.333333333333,4,1,0,50,1,0
4237,-133.333333333333,4,1,0,50,0,0
15736,-111.111111111111,4,1,0,60,0,0
26070,-105.263157894737,4,1,0,60,0,0
26403,-102.564102564103,4,1,0,60,0,0
26736,-100,4,1,0,70,0,0
36070,-104.166666666667,4,1,0,70,0,0
36403,-108.695652173913,4,1,0,70,0,0
36736,-113.636363636364,4,1,0,70,0,0
37070,-119.047619047619,4,1,0,70,0,0
37403,-125,4,1,0,80,0,0
42736,-115.384615384615,4,1,0,80,0,0
45403,-107.142857142857,4,1,0,80,0,0
48153,-100,4,1,0,90,0,0
53570,-100,4,1,0,90,0,1
64236,-100,4,1,0,90,0,0
64570,-100,4,1,0,90,0,1
74736,-100,4,1,0,90,0,0
74903,-100,4,1,0,80,0,0
81736,-133.333333333333,4,1,0,50,0,0
93070,-111.111111111111,4,1,0,50,0,0
94070,-111.111111111111,4,1,0,60,0,0
102736,-111.111111111111,4,1,0,70,0,0
103403,-105.263157894737,4,1,0,70,0,0
103736,-102.564102564103,4,1,0,70,0,0
104070,-100,4,1,0,70,0,0
113403,-104.166666666667,4,1,0,70,0,0
113736,-108.695652173913,4,1,0,70,0,0
114070,-113.636363636364,4,1,0,70,0,0
114403,-119.047619047619,4,1,0,70,0,0
114736,-125,4,1,0,80,0,0
120070,-115.384615384615,4,1,0,80,0,0
122736,-107.142857142857,4,1,0,80,0,0
125486,-100,4,1,0,90,0,0
130903,-100,4,1,0,90,0,1
141570,-100,4,1,0,90,0,0
141903,-100,4,1,0,90,0,1
152070,-100,4,1,0,90,0,0
152236,-100,4,1,0,80,0,0
162903,-100,4,1,0,90,0,1
170903,-100,4,1,0,60,0,0
171070,-117.647058823529,4,1,0,60,0,0
173736,-133.333333333333,4,1,0,50,0,0
179403,-125,4,1,0,60,0,0
179736,-117.647058823529,4,1,0,60,0,0
180736,-111.111111111111,4,1,0,70,0,0
181070,-105.263157894737,4,1,0,70,0,0
181403,-100,4,1,0,80,0,0
187403,-100,4,1,0,90,0,0
189903,-100,4,1,0,90,0,1
199236,-105.263157894737,4,1,0,90,0,1
199736,-111.111111111111,4,1,0,80,0,1
200236,-116.279069767442,4,1,0,70,0,0
200403,-117.647058823529,4,1,0,60,0,0
209736,-133.333333333333,4,1,0,50,0,0

[HitObjects]
256,192,5570,5,8,0:0:0:0:
256,192,7570,1,0,0:0:0:0:
256,192,8236,1,8,0:0:0:0:
256,192,10236,1,8,0:0:0:0:
256,192,10903,1,8,0:0:0:0:
256,192,12903,1,0,0:0:0:0:
256,192,13570,1,8,0:0:0:0:
256,192,16236,1,0,0:0:0:0:
256,192,17570,1,0,0:0:0:0:
256,192,18236,1,0,0:0:0:0:
256,192,18903,1,8,0:0:0:0:
256,192,20236,1,0,0:0:0:0:
256,192,20903,1,8,0:0:0:0:
256,192,21570,1,0,0:0:0:0:
256,192,22903,1,0,0:0:0:0:
256,192,23570,1,0,0:0:0:0:
256,192,24236,1,8,0:0:0:0:
256,192,25570,1,0,0:0:0:0:
256,192,26236,1,0,0:0:0:0:
256,192,26570,1,0,0:0:0:0:
256,192,26903,1,8,0:0:0:0:
256,192,27570,1,0,0:0:0:0:
256,192,28236,1,8,0:0:0:0:
256,192,28903,1,0,0:0:0:0:
256,192,29570,1,8,0:0:0:0:
256,192,30903,1,0,0:0:0:0:
256,192,31570,1,8,0:0:0:0:
256,192,32236,1,0,0:0:0:0:
256,192,33570,1,0,0:0:0:0:
256,192,34236,1,0,0:0:0:0:
256,192,34903,1,8,0:0:0:0:
256,192,35570,1,0,0:0:0:0:
256,192,36236,1,8,0:0:0:0:
256,192,36903,1,0,0:0:0:0:
256,192,37570,1,12,0:0:0:0:
256,192,39570,1,4,0:0:0:0:
256,192,40236,1,12,0:0:0:0:
256,192,42236,1,0,0:0:0:0:
256,192,42903,1,12,0:0:0:0:
256,192,44236,1,8,0:0:0:0:
256,192,45570,1,0,0:0:0:0:
256,192,46236,1,0,0:0:0:0:
256,192,46903,1,8,0:0:0:0:
256,192,47570,1,0,0:0:0:0:
256,192,47903,1,0,0:0:0:0:
256,192,48236,1,12,0:0:0:0:
256,192,48903,1,0,0:0:0:0:
256,192,49570,1,8,0:0:0:0:
256,192,50236,1,0,0:0:0:0:
256,192,50570,1,0,0:0:0:0:
256,192,50903,1,8,0:0:0:0:
256,192,51570,1,8,0:0:0:0:
256,192,51903,1,0,0:0:0:0:
256,192,52236,1,8,0:0:0:0:
256,192,53570,1,12,0:0:0:0:
256,192,54236,1,0,0:0:0:0:
256,192,54570,1,0,0:0:0:0:
256,192,54903,1,8,0:0:0:0:
256,192,55570,1,8,0:0:0:0:
256,192,55903,1,0,0:0:0:0:
256,192,56236,1,8,0:0:0:0:
256,192,57236,1,0,0:0:0:0:
256,192,57570,1,8,0:0:0:0:
256,192,58236,1,8,0:0:0:0:
256,192,58903,1,12,0:0:0:0:
256,192,59570,1,0,0:0:0:0:
256,192,59903,1,0,0:0:0:0:
256,192,60236,1,8,0:0:0:0:
256,192,60903,1,0,0:0:0:0:
256,192,61236,1,8,0:0:0:0:
256,192,61570,1,8,0:0:0:0:
256,192,62570,1,0,0:0:0:0:
256,192,62903,1,8,0:0:0:0:
256,192,63570,1,8,0:0:0:0:
256,192,64236,1,0,0:0:0:0:
256,192,64570,1,12,0:0:0:0:
256,192,65236,1,0,0:0:0:0:
256,192,65570,1,8,0:0:0:0:
256,192,65903,1,8,0:0:0:0:
256,192,66570,1,0,0:0:0:0:
256,192,66903,1,8,0:0:0:0:
256,192,67236,1,8,0:0:0:0:
256,192,67570,1,0,0:0:0:0:
256,192,67903,1,8,0:0:0:0:
256,192,68903,1,0,0:0:0:0:
256,192,69236,1,0,0:0:0:0:
256,192,69570,1,12,0:0:0:0:
256,192,70236,1,8,0:0:0:0:
256,192,70570,1,0,0:0:0:0:
256,192,70903,1,8,0:0:0:0:
256,192,71570,1,0,0:0:0:0:
256,192,72236,1,8,0:0:0:0:
256,192,73570,1,8,0:0:0:0:
256,192,74236,1,0,0:0:0:0:
256,192,74736,1,12,0:0:0:0:
256,192,75236,1,8,0:0:0:0:
256,192,75570,1,8,0:0:0:0:
256,192,76070,1,12,0:0:0:0:
256,192,76570,1,0,0:0:0:0:
256,192,76903,1,8,0:0:0:0:
256,192,77403,1,4,0:0:0:0:
256,192,77903,1,8,0:0:0:0:
256,192,78236,1,0,0:0:0:0:
256,192,78736,1,12,0:0:0:0:
256,192,80070,1,12,0:0:0:0:
256,192,80570,1,8,0:0:0:0:
256,192,80903,1,8,0:0:0:0:
256,192,81403,1,4,0:0:0:0:
256,192,82903,1,8,0:0:0:0:
256,192,84903,1,0,0:0:0:0:
256,192,85570,1,8,0:0:0:0:
256,192,87570,1,8,0:0:0:0:
256,192,88236,1,8,0:0:0:0:
256,192,90236,1,0,0:0:0:0:
256,192,90903,1,8,0:0:0:0:
256,192,93570,1,0,0:0:0:0:
256,192,94903,1,0,0:0:0:0:
256,192,95570,1,0,0:0:0:0:
256,192,96236,1,8,0:0:0:0:
256,192,97570,1,0,0:0:0:0:
256,192,98236,1,8,0:0:0:0:
256,192,98903,1,0,0:0:0:0:
256,192,100236,1,0,0:0:0:0:
256,192,100903,1,0,0:0:0:0:
256,192,101570,1,8,0:0:0:0:
256,192,102903,1,0,0:0:0:0:
256,192,103570,1,0,0:0:0:0:
256,192,103903,1,0,0:0:0:0:
256,192,104236,1,8,0:0:0:0:
256,192,104903,1,0,0:0:0:0:
256,192,105570,1,8,0:0:0:0:
256,192,106236,1,0,0:0:0:0:
256,192,106903,1,8,0:0:0:0:
256,192,108236,1,0,0:0:0:0:
256,192,108903,1,8,0:0:0:0:
256,192,109570,1,0,0:0:0:0:
256,192,110903,1,0,0:0:0:0:
256,192,111570,1,0,0:0:0:0:
256,192,112236,1,8,0:0:0:0:
256,192,112903,1,0,0:0:0:0:
256,192,113570,1,0,0:0:0:0:
256,192,114236,1,8,0:0:0:0:
256,192,114903,1,12,0:0:0:0:
256,192,116903,1,4,0:0:0:0:
256,192,117570,1,12,0:0:0:0:
256,192,119570,1,0,0:0:0:0:
256,192,120236,1,12,0:0:0:0:
256,192,121570,1,8,0:0:0:0:
256,192,122903,1,0,0:0:0:0:
256,192,123570,1,8,0:0:0:0:
256,192,124236,1,0,0:0:0:0:
256,192,124903,1,0,0:0:0:0:
256,192,125236,1,0,0:0:0:0:
256,192,125570,1,12,0:0:0:0:
256,192,126236,1,0,0:0:0:0:
256,192,126903,1,8,0:0:0:0:
256,192,127570,1,0,0:0:0:0:
256,192,127903,1,0,0:0:0:0:
256,192,128236,1,8,0:0:0:0:
256,192,128903,1,8,0:0:0:0:
256,192,129236,1,0,0:0:0:0:
256,192,129570,1,8,0:0:0:0:
256,192,130903,1,12,0:0:0:0:
256,192,131570,1,0,0:0:0:0:
256,192,131903,1,8,0:0:0:0:
256,192,132236,1,0,0:0:0:0:
256,192,132903,1,8,0:0:0:0:
256,192,133236,1,0,0:0:0:0:
256,192,133570,1,8,0:0:0:0:
256,192,134570,1,0,0:0:0:0:
256,192,134903,1,8,0:0:0:0:
256,192,135570,1,8,0:0:0:0:
256,192,136236,1,12,0:0:0:0:
256,192,136903,1,0,0:0:0:0:
256,192,137236,1,8,0:0:0:0:
256,192,137570,1,0,0:0:0:0:
256,192,138236,1,0,0:0:0:0:
256,192,138570,1,8,0:0:0:0:
256,192,138903,1,8,0:0:0:0:
256,192,139903,1,0,0:0:0:0:
256,192,140236,1,8,0:0:0:0:
256,192,140903,1,8,0:0:0:0:
256,192,141570,1,0,0:0:0:0:
256,192,141903,1,12,0:0:0:0:
256,192,142570,1,8,0:0:0:0:
256,192,142903,1,0,0:0:0:0:
256,192,143236,1,8,0:0:0:0:
256,192,143903,1,0,0:0:0:0:
256,192,144236,1,8,0:0:0:0:
256,192,144570,1,8,0:0:0:0:
256,192,144903,1,0,0:0:0:0:
256,192,145236,1,8,0:0:0:0:
256,192,146236,1,0,0:0:0:0:
256,192,146570,1,0,0:0:0:0:
256,192,146903,1,12,0:0:0:0:
256,192,147570,1,8,0:0:0:0:
256,192,147903,1,0,0:0:0:0:
256,192,148236,1,8,0:0:0:0:
256,192,148903,1,0,0:0:0:0:
256,192,149570,1,8,0:0:0:0:
256,192,150903,1,8,0:0:0:0:
256,192,151570,1,0,0:0:0:0:
256,192,152070,1,12,0:0:0:0:
256,192,152570,1,8,0:0:0:0:
256,192,152903,1,8,0:0:0:0:
256,192,153403,1,12,0:0:0:0:
256,192,153903,1,0,0:0:0:0:
256,192,154236,1,8,0:0:0:0:
256,192,154736,1,4,0:0:0:0:
256,192,155236,1,8,0:0:0:0:
256,192,155570,1,0,0:0:0:0:
256,192,156070,1,12,0:0:0:0:
256,192,157403,1,12,0:0:0:0:
256,192,157903,1,8,0:0:0:0:
256,192,158236,1,8,0:0:0:0:
256,192,158736,1,12,0:0:0:0:
256,192,159236,1,0,0:0:0:0:
256,192,159570,1,8,0:0:0:0:
256,192,160070,1,4,0:0:0:0:
256,192,160570,1,8,0:0:0:0:
256,192,160903,1,0,0:0:0:0:
256,192,161403,1,12,0:0:0:0:
256,192,162236,1,0,0:0:0:0:
256,192,162570,1,0,0:0:0:0:
256,192,162903,1,12,0:0:0:0:
256,192,163570,1,8,0:0:0:0:
256,192,163903,1,0,0:0:0:0:
256,192,164236,1,8,0:0:0:0:
256,192,164736,1,8,0:0:0:0:
256,192,165570,1,0,0:0:0:0:
256,192,165903,1,0,0:0:0:0:
256,192,166236,1,8,0:0:0:0:
256,192,166903,1,8,0:0:0:0:
256,192,167403,1,8,0:0:0:0:
256,192,167903,1,0,0:0:0:0:
256,192,168236,1,12,0:0:0:0:
256,192,168903,1,8,0:0:0:0:
256,192,169403,1,0,0:0:0:0:
256,192,169903,1,0,0:0:0:0:
256,192,170236,1,0,0:0:0:0:
256,192,170570,1,8,0:0:0:0:
256,192,170903,8,0,172236,0:0:0:0:
256,192,172903,5,8,0:0:0:0:
256,192,173570,1,0,0:0:0:0:
256,192,177570,5,0,0:0:0:0:
256,192,178236,1,0,0:0:0:0:
256,192,178903,1,8,0:0:0:0:
256,192,179903,1,8,0:0:0:0:
256,192,180903,1,0,0:0:0:0:
256,192,181236,1,0,0:0:0:0:
256,192,181570,1,12,0:0:0:0:
256,192,182236,1,8,0:0:0:0:
256,192,182903,1,8,0:0:0:0:
256,192,183236,1,8,0:0:0:0:
256,192,183570,1,0,0:0:0:0:
256,192,184236,1,12,0:0:0:0:
256,192,184903,1,0,0:0:0:0:
256,192,185570,1,8,0:0:0:0:
256,192,186236,1,8,0:0:0:0:
256,192,186570,1,0,0:0:0:0:
256,192,186903,1,4,0:0:0:0:
256,192,187903,1,0,0:0:0:0:
256,192,188236,1,8,0:0:0:0:
256,192,188903,1,8,0:0:0:0:
256,192,189236,1,8,0:0:0:0:
256,192,189570,1,0,0:0:0:0:
256,192,189903,1,12,0:0:0:0:
256,192,190570,1,8,0:0:0:0:
256,192,190903,1,0,0:0:0:0:
256,192,191236,1,8,0:0:0:0:
256,192,191903,1,0,0:0:0:0:
256,192,192236,1,0,0:0:0:0:
256,192,192570,1,8,0:0:0:0:
256,192,192903,1,0,0:0:0:0:
256,192,193236,1,8,0:0:0:0:
256,192,193570,1,8,0:0:0:0:
256,192,194236,1,8,0:0:0:0:
256,192,194570,1,0,0:0:0:0:
256,192,194903,1,12,0:0:0:0:
256,192,195903,1,8,0:0:0:0:
256,192,196236,1,4,0:0:0:0:
256,192,196903,1,0,0:0:0:0:
256,192,197236,1,0,0:0:0:0:
256,192,197570,1,8,0:0:0:0:
256,192,198236,1,8,0:0:0:0:
256,192,198903,1,8,0:0:0:0:
256,192,199236,1,0,0:0:0:0:
256,192,199570,1,8,0:0:0:0:
256,192,199903,1,8,0:0:0:0:
256,192,200236,1,0,0:0:0:0:
256,192,200903,1,0,0:0:0:0:
256,192,201570,1,8,0:0:0:0:
256,192,201903,1,8,0:0:0:0:
256,192,202570,1,0,0:0:0:0:
256,192,202903,1,8,0:0:0:0:
256,192,203570,1,0,0:0:0:0:
256,192,203903,1,0,0:0:0:0:
256,192,204903,1,8,0:0:0:0:
256,192,205570,1,8,0:0:0:0:
256,192,206236,1,0,0:0:0:0:
256,192,206570,1,0,0:0:0:0:
256,192,206903,1,8,0:0:0:0:
256,192,207570,1,0,0:0:0:0:
256,192,208236,1,8,0:0:0:0:
256,192,209570,1,0,0:0:0:0:
256,192,210903,1,8,0:0:0:0:
256,192,212903,1,0,0:0:0:0:
256,192,213570,1,8,0:0:0:0:
256,192,215570,1,8,0:0:0:0:
256,192,216236,1,8,0:0:0:0:
256,192,218236,1,0,0:0:0:0:
256,192,218903,1,8,0:0:0:0:
256,192,221570,1,8,0:0:0:0:
256,192,223570,1,0,0:0:0:0:
256,192,224236,1,8,0:0:0:0:
256,192,226236,1,8,0:0:0:0:
256,192,226903,1,8,0:0:0:0:
256,192,228903,1,8,0:0:0:0:
256,192,229570,1,0,0:0:0:0:
