osu file format v14

[General]
AudioFilename: audio.mp3
AudioLeadIn: 0
PreviewTime: 181918
Countdown: 0
SampleSet: Soft
StackLeniency: 0.4
Mode: 0
LetterboxInBreaks: 0
WidescreenStoryboard: 1

[Editor]
Bookmarks: 136796,217943
DistanceSpacing: 1.2
BeatDivisor: 4
GridSize: 32
TimelineZoom: 1.7

[Metadata]
Title:Nana
TitleUnicode:ナナ
Artist:Harumaki Gohan
ArtistUnicode:はるまきごはん
Creator:Yugu
Version:Hard
Source:
Tags:ふたりの Futarino japanese pop jpop j-pop j pop featured artists fa mappers mappers' guild mpg
BeatmapID:3552817
BeatmapSetID:1711493

[Difficulty]
HPDrainRate:5
CircleSize:4
OverallDifficulty:6
ApproachRate:7.3
SliderMultiplier:1.4
SliderTickRate:1

[Events]
//Background and Video events
0,0,"77.png",0,0
//Break Periods
//Storyboard Layer 0 (Background)
//Storyboard Layer 1 (Fail)
//Storyboard Layer 2 (Pass)
//Storyboard Layer 3 (Foreground)
//Storyboard Layer 4 (Overlay)
//Storyboard Sound Samples

[TimingPoints]
-417,491.803278688525,4,2,1,30,1,0
1058,-111.111111111111,4,2,1,30,0,0
9296,-100,4,2,1,5,0,0
9418,-111.111111111111,4,2,1,45,0,0
17287,-100,4,2,1,60,0,0
33025,-111.111111111111,4,2,1,45,0,0
48763,-100,4,2,1,50,0,0
60566,-100,4,2,1,60,0,0
68435,-100,4,2,1,80,0,0
84172,-100,4,2,1,45,0,0
92042,-111.111111111111,4,2,1,45,0,0
107779,-100,4,2,1,50,0,0
119583,-100,4,2,1,60,0,0
127451,-100,4,2,1,80,0,0
143435,-100,4,2,1,70,0,0
151181,-100,4,2,1,50,0,0
151550,-100,4,2,1,45,0,0
152042,-100,4,2,1,35,0,0
152533,-100,4,2,1,30,0,0
153025,-100,4,2,1,25,0,0
153517,-100,4,2,1,20,0,0
154009,-100,4,2,1,15,0,0
154501,-100,4,2,1,10,0,0
154992,-100,4,2,1,30,0,0
158435,-100,4,2,1,30,0,0
158496,-100,4,2,1,5,0,0
162369,-100,4,2,1,30,0,0
162430,-100,4,2,1,5,0,0
162615,-100,4,2,1,30,0,0
162861,-111.111111111111,4,2,1,40,0,0
173681,-100,4,2,1,50,0,0
174050,-100,4,2,1,5,0,0
174172,-100,4,2,1,50,0,0
174542,-100,4,2,1,5,0,0
174664,-100,4,2,1,60,0,0
182533,-100,4,2,1,80,0,0
198271,-100,4,2,1,50,0,0
202205,-100,4,2,1,60,0,0

[Colours]
Combo1 : 91,79,79
Combo2 : 167,95,152
Combo3 : 239,90,157

[HitObjects]
81,100,1058,5,0,0:0:0:0:
81,100,1304,1,0,0:0:0:0:
81,100,1550,6,0,P|122:97|218:76,1,125.999996154785,2|2,0:0|0:0,0:0:0:0:
280,106,2287,1,0,0:0:0:0:
280,106,2533,2,0,P|262:143|232:236,1,125.999996154785,2|2,0:0|0:0,0:0:0:0:
175,275,3271,1,0,0:0:0:0:
175,275,3517,6,0,P|151:240|86:168,1,125.999996154785,2|2,0:0|0:0,0:0:0:0:
27,145,4255,2,0,P|31:108|33:70,2,62.9999980773926,0|2|2,0:0|0:0|0:0,0:0:0:0:
57,214,4992,2,0,L|147:195,1,62.9999980773926,2|0,0:0|0:0,0:0:0:0:
176,151,5484,6,0,P|238:153|278:199,1,125.999996154785,2|2,0:0|0:0,0:0:0:0:
327,263,6222,1,0,0:0:0:0:
327,263,6468,2,0,P|388:260|428:214,1,125.999996154785,2|2,0:0|0:0,0:0:0:0:
406,63,7451,6,0,P|365:55|276:40,1,125.999996154785,2|2,0:0|0:0,0:0:0:0:
226,93,8189,1,0,0:0:0:0:
226,93,8435,2,0,B|173:178|283:225|240:302,1,220.499993270874,2|0,0:0|0:0,0:0:0:0:
207,328,9419,6,0,L|145:316,1,62.9999980773926,8|0,0:0|0:0,0:0:0:0:
86,363,9910,2,0,P|72:334|72:303,1,62.9999980773926,8|0,0:0|0:0,0:0:0:0:
80,227,10402,2,0,P|96:183|85:137,1,94.499997116089,8|0,0:0|0:0,0:0:0:0:
63,106,10894,2,0,L|131:93,1,62.9999980773926,8|0,0:0|0:0,0:0:0:0:
171,34,11386,5,8,0:0:0:0:
171,34,11632,1,0,0:0:0:0:
241,61,11878,2,0,P|249:91|258:121,1,62.9999980773926,8|0,0:0|0:0,0:0:0:0:
243,195,12369,2,0,P|303:184|335:132,1,125.999996154785,8|8,0:0|0:0,0:0:0:0:
389,79,13107,1,0,0:0:0:0:
444,129,13353,6,0,P|460:127|476:125,2,31.4999990386963,8|2|2,0:0|2:3|2:3,0:0:0:0:
389,180,13845,2,0,P|373:178|357:176,2,31.4999990386963,8|2|2,0:0|2:3|2:3,0:0:0:0:
445,230,14337,2,0,P|460:228|476:226,2,31.4999990386963,8|2|2,0:0|2:3|2:3,0:0:0:0:
389,281,14829,2,0,P|373:279|357:277,2,31.4999990386963,8|2|2,0:0|2:3|2:3,0:0:0:0:
420,349,15320,5,8,0:0:0:0:
349,377,15566,2,0,L|258:365,1,62.9999980773926,2|8,1:3|0:0,0:0:0:0:
248,372,15935,2,0,P|231:345|232:314,1,62.9999980773926,2|0,1:3|0:0,0:0:0:0:
244,278,16304,1,0,1:0:0:0:
235,202,16550,1,2,0:0:0:0:
235,202,16796,1,2,0:0:0:0:
235,202,17042,1,2,0:0:0:0:
336,246,17287,6,0,P|387:247|430:218,1,105,14|0,0:0|0:0,0:0:0:0:
452,181,17779,1,2,1:3:0:0:
452,181,18025,1,2,2:3:0:0:
377,142,18271,2,0,P|326:143|283:114,1,105,10|0,0:0|0:0,0:0:0:0:
263,81,18763,1,2,1:3:0:0:
263,81,19009,1,2,2:3:0:0:
192,34,19255,6,0,P|157:35|124:47,1,70,10|2,0:0|2:3,0:0:0:0:
58,99,19746,2,0,P|41:129|35:164,1,70,2|2,1:3|2:3,0:0:0:0:
47,247,20238,2,0,P|65:276|92:298,1,70,8|2,0:0|2:3,0:0:0:0:
157,360,20730,1,2,1:3:0:0:
157,360,20976,1,2,2:3:0:0:
217,301,21222,6,0,P|267:286|318:275,1,105,10|0,0:0|0:0,0:0:0:0:
363,288,21714,1,2,1:3:0:0:
363,288,21960,1,2,2:3:0:0:
395,210,22205,2,0,P|380:159|369:108,1,105,10|0,0:0|0:0,0:0:0:0:
380,70,22697,1,2,1:3:0:0:
380,70,22943,1,2,2:3:0:0:
451,24,23189,6,0,P|467:54|461:88,1,70,10|2,0:0|2:3,0:0:0:0:
479,170,23681,2,0,P|460:199|428:211,1,70,2|2,1:3|2:3,0:0:0:0:
365,267,24173,2,0,P|330:259|296:254,1,70,8|2,0:0|2:3,0:0:0:0:
215,277,24664,1,2,1:3:0:0:
215,277,24910,1,2,2:3:0:0:
142,353,25156,6,0,P|90:356|54:321,1,105,14|0,0:0|0:0,0:0:0:0:
45,284,25648,1,2,1:3:0:0:
45,284,25894,1,2,2:3:0:0:
25,202,26140,2,0,P|39:164|57:85,1,105,10|0,0:0|0:0,0:0:0:0:
49,63,26632,1,2,1:3:0:0:
49,63,26878,1,2,2:3:0:0:
127,30,27123,5,10,0:0:0:0:
242,152,27615,1,2,1:3:0:0:
400,96,28107,1,10,0:0:0:0:
313,239,28599,2,0,P|310:274|309:309,1,70,2|2,1:3|2:3,0:0:0:0:
378,356,29091,6,0,P|446:355|481:298,1,140,10|2,0:0|1:3,0:0:0:0:
492,214,29828,1,2,2:3:0:0:
415,181,30074,2,0,P|347:182|312:239,1,140,10|2,0:0|1:3,0:0:0:0:
302,324,30812,1,2,2:3:0:0:
224,357,31058,6,0,P|189:349|155:343,1,70,10|2,0:0|2:3,0:0:0:0:
76,312,31550,2,0,L|66:274,2,35,2|2|2,1:3|2:3|2:3,0:0:0:0:
143,239,32042,2,0,P|177:231|211:225,1,70,8|2,0:0|2:3,0:0:0:0:
291,194,32534,2,0,L|301:156,2,35,2|2|2,1:3|2:3|2:3,0:0:0:0:
352,241,33025,6,0,P|374:281|304:302,1,125.999996154785,10|2,0:0|3:2,0:0:0:0:
240,300,33763,2,0,P|185:316|203:370,1,125.999996154785,2|0,0:0|0:0,0:0:0:0:
203,370,34501,1,0,3:0:0:0:
282,380,34746,1,8,0:0:0:0:
345,339,34992,6,0,P|343:276|350:213,1,125.999996154785,10|2,0:0|3:2,0:0:0:0:
410,166,35730,2,0,P|411:103|404:40,1,125.999996154785,0|2,0:0|0:0,0:0:0:0:
256,7,36714,1,0,0:0:0:0:
199,56,36960,6,0,P|192:117|240:154,1,125.999996154785,10|0,0:0|3:0,0:0:0:0:
302,197,37697,2,0,P|308:257|260:294,1,125.999996154785,10|0,0:0|3:0,0:0:0:0:
216,356,38435,1,8,2:1:0:0:
216,356,38681,2,0,P|162:346|83:339,2,125.999996154785,0|0|2,0:0|0:0|1:2,0:0:0:0:
389,237,40648,5,0,0:0:0:0:
350,172,40894,2,0,P|288:183|225:188,1,125.999996154785,10|2,0:0|3:2,0:0:0:0:
162,230,41632,1,2,0:0:0:0:
162,230,41878,2,0,P|100:218|37:213,1,125.999996154785,0|2,0:0|3:2,0:0:0:0:
15,140,42615,1,8,0:0:0:0:
57,77,42861,6,0,P|110:65|183:102,1,125.999996154785,10|0,0:0|3:0,0:0:0:0:
231,149,43599,1,10,0:0:0:0:
231,149,43845,2,0,P|284:161|357:124,1,125.999996154785,0|8,0:0|2:1,0:0:0:0:
391,71,44583,1,0,0:0:0:0:
460,42,44828,6,0,P|467:72|471:103,1,62.9999980773926,10|0,0:0|0:0,0:0:0:0:
490,177,45320,2,0,P|481:207|468:236,1,62.9999980773926,0|10,3:0|0:0,0:0:0:0:
442,307,45812,2,0,P|402:299|360:293,2,62.9999980773926,0|0|8,0:0|3:0|2:1,0:0:0:0:
307,377,46796,6,0,P|265:332|275:272,1,125.999996154785,10|8,0:0|0:0,0:0:0:0:
285,197,47533,2,0,P|326:152|316:92,1,125.999996154785,2|8,1:2|2:3,0:0:0:0:
259,43,48271,1,8,2:3:0:0:
185,62,48517,1,8,2:3:0:0:
146,157,48763,6,0,P|111:157|83:138,1,70,12|0,0:0|0:0,0:0:0:0:
0,120,49255,2,0,P|3:154|7:189,1,70,0|8,1:0|0:0,0:0:0:0:
19,272,49746,2,0,P|70:278|163:299,1,140,8|0,3:2|1:0,0:0:0:0:
226,343,50484,1,0,0:0:0:0:
293,292,50730,6,0,P|299:241|320:148,1,140,8|0,3:2|1:0,0:0:0:0:
382,99,51468,1,8,0:0:0:0:
460,139,51714,1,0,3:0:0:0:
460,139,51960,1,8,0:0:0:0:
479,220,52205,2,0,P|444:223|409:228,1,70,0|0,1:0|0:0,0:0:0:0:
338,273,52697,6,0,P|270:276|227:224,1,140,8|0,3:2|1:0,0:0:0:0:
185,151,53435,1,8,0:0:0:0:
104,174,53681,2,0,P|68:116|91:53,1,140,8|0,3:2|1:0,0:0:0:0:
160,4,54419,1,0,0:0:0:0:
231,45,54664,6,0,P|266:48|301:50,1,70,8|0,3:2|0:0,0:0:0:0:
384,32,55156,2,0,P|380:66|378:101,1,70,0|8,1:0|0:0,0:0:0:0:
421,174,55648,2,0,P|455:177|490:179,1,70,0|8,3:0|0:0,0:0:0:0:
511,261,56140,1,0,1:0:0:0:
480,339,56386,1,0,0:0:0:0:
405,300,56632,6,0,P|370:296|335:294,1,70,8|0,3:2|0:0,0:0:0:0:
251,294,57123,2,0,P|216:296|181:299,1,70,0|8,1:0|0:0,0:0:0:0:
133,369,57615,2,0,P|93:314|113:243,1,140,8|0,3:2|1:0,0:0:0:0:
176,197,58353,1,0,0:0:0:0:
206,118,58599,6,0,P|136:107|67:94,1,140,8|0,3:2|1:0,0:0:0:0:
2,146,59337,1,8,0:0:0:0:
81,188,59583,1,0,3:0:0:0:
81,188,59828,1,8,0:0:0:0:
35,257,60074,2,0,P|24:291|31:325,1,70,0|0,1:0|0:0,0:0:0:0:
104,367,60566,6,0,L|180:355,1,70,10|2,3:2|0:0,0:0:0:0:
254,377,61058,2,0,P|256:329|295:231,1,140,2|8,1:2|3:2,0:0:0:0:
360,201,61796,1,10,0:0:0:0:
439,228,62042,1,0,1:0:0:0:
498,169,62287,1,2,3:2:0:0:
453,97,62533,6,0,L|383:107,1,70,10|2,3:2|0:0,0:0:0:0:
309,66,63025,2,0,L|239:56,1,70,2|0,1:2|3:0,0:0:0:0:
165,97,63517,2,0,L|95:107,2,70,10|10|0,3:2|0:0|1:0,0:0:0:0:
228,152,64255,1,2,3:2:0:0:
168,211,64501,5,2,1:2:0:0:
168,211,64746,1,10,3:2:0:0:
227,271,64992,1,2,1:2:0:0:
227,271,65238,1,10,3:2:0:0:
287,212,65484,1,2,1:2:0:0:
287,212,65730,1,8,3:3:0:0:
228,152,65976,6,0,P|225:117|224:82,2,70,8|8|8,3:3|3:3|0:0,0:0:0:0:
224,82,67943,5,0,0:0:0:0:
224,82,68189,1,0,0:0:0:0:
302,50,68435,6,0,P|351:64|380:107,1,105,14|0,0:0|0:0,0:0:0:0:
371,148,68927,1,0,1:0:0:0:
411,221,69173,1,2,2:3:0:0:
481,175,69419,2,0,P|490:141|500:107,1,70,10|2,0:0|2:3,0:0:0:0:
441,48,69910,2,0,P|407:56|373:64,1,70,2|2,1:2|2:3,0:0:0:0:
337,87,70279,1,0,0:0:0:0:
337,87,70402,6,0,P|294:88|218:16,1,140,10|0,0:0|1:0,0:0:0:0:
141,54,71140,1,2,2:3:0:0:
69,97,71386,1,10,0:0:0:0:
122,161,71632,1,2,2:3:0:0:
194,118,71878,2,0,P|207:168|215:195,1,70,0|2,1:0|2:3,0:0:0:0:
264,251,72369,6,0,P|233:310|166:314,1,140,10|0,0:0|1:0,0:0:0:0:
101,368,73107,1,2,2:3:0:0:
32,319,73353,1,10,0:0:0:0:
97,265,73599,1,2,2:3:0:0:
166,314,73845,2,0,P|200:319|234:326,1,70,0|2,1:0|2:3,0:0:0:0:
312,359,74337,6,0,P|357:365|401:288,1,140,10|0,0:0|1:0,0:0:0:0:
414,210,75074,1,2,2:3:0:0:
444,131,75320,2,0,P|391:126|340:116,1,105,10|0,0:0|0:0,0:0:0:0:
303,95,75812,1,0,1:0:0:0:
223,67,76058,1,2,2:3:0:0:
165,160,76304,6,0,P|170:211|174:292,1,105,14|0,0:0|0:0,0:0:0:0:
176,306,76796,1,0,1:0:0:0:
97,276,77042,1,2,2:3:0:0:
20,310,77287,2,0,P|12:276|20:242,1,70,10|2,0:0|2:3,0:0:0:0:
60,168,77779,2,0,P|67:134|59:100,1,70,2|2,1:2|2:3,0:0:0:0:
123,46,78271,6,0,L|201:35,1,70,10|2,0:0|2:3,0:0:0:0:
276,43,78763,2,0,L|354:32,1,70,2|2,1:2|2:3,0:0:0:0:
416,78,79255,2,0,B|409:151|368:130|353:200,1,140,10|0,0:0|1:0,0:0:0:0:
391,274,79992,1,2,2:3:0:0:
334,336,80238,5,10,0:0:0:0:
334,336,80484,2,0,P|300:331|265:326,2,70,2|0|2,2:3|1:0|2:3,0:0:0:0:
406,375,81222,2,0,P|473:368|497:306,1,140,10|0,0:0|1:0,0:0:0:0:
453,234,81960,6,0,L|411:223,2,35,2|0|10,2:3|0:0|0:0,0:0:0:0:
482,155,82451,2,0,P|489:116|500:75,2,70,2|0|2,2:3|1:0|2:3,0:0:0:0:
403,123,83189,2,0,P|355:122|275:195,1,140,10|0,0:0|1:0,0:0:0:0:
229,239,83927,1,2,2:3:0:0:
281,303,84173,6,0,P|287:338|291:373,3,70,10|2|2|2,0:0|0:0|3:2|0:0,0:0:0:0:
123,112,86140,2,0,P|129:77|133:42,2,70,10|2|2,0:0|0:0|3:2,0:0:0:0:
5,232,87123,2,0,P|11:267|15:302,2,70,10|2|2,0:0|0:0|3:2,0:0:0:0:
167,275,88107,6,0,L|236:266,3,70,10|2|2|10,0:0|0:0|3:2|0:0,0:0:0:0:
386,342,89337,1,2,3:2:0:0:
469,334,89583,1,8,2:1:0:0:
437,169,90074,2,0,L|506:160,3,70,10|2|10|2,0:0|0:0|0:0|1:2,0:0:0:0:
352,241,92042,6,0,P|382:232|412:225,2,62.9999980773926,10|0|2,0:0|0:0|3:2,0:0:0:0:
293,290,92779,2,0,P|234:277|211:221,1,125.999996154785,2|0,0:0|0:0,0:0:0:0:
211,221,93517,1,0,3:0:0:0:
242,152,93763,1,8,0:0:0:0:
197,90,94009,6,0,P|135:77|74:62,1,125.999996154785,10|2,0:0|3:2,0:0:0:0:
16,111,94746,2,0,P|36:170|53:231,1,125.999996154785,0|2,0:0|0:0,0:0:0:0:
149,348,95731,1,0,0:0:0:0:
222,365,95976,6,0,P|258:315|235:259,1,125.999996154785,10|0,0:0|3:0,0:0:0:0:
203,192,96714,2,0,P|227:137|287:128,1,125.999996154785,10|0,0:0|3:0,0:0:0:0:
355,173,97451,1,8,2:1:0:0:
355,173,97697,6,0,P|409:163|488:156,1,125.999996154785
491,81,98435,1,10,0:0:0:0:
477,6,98681,1,2,1:3:0:0:
244,102,99664,5,0,0:0:0:0:
205,37,99910,2,0,B|209:37|200:38|148:31|87:88,1,125.999996154785,10|2,0:0|3:2,0:0:0:0:
42,141,100648,1,2,0:0:0:0:
42,141,100894,2,0,P|50:203|57:266,1,125.999996154785,0|2,0:0|3:2,0:0:0:0:
112,318,101632,1,8,0:0:0:0:
162,263,101878,6,0,P|224:256|272:293,1,125.999996154785,10|0,0:0|3:0,0:0:0:0:
329,351,102615,1,10,0:0:0:0:
329,351,102861,2,0,P|390:357|438:320,1,125.999996154785,0|8,0:0|2:1,0:0:0:0:
487,261,103599,1,0,0:0:0:0:
430,211,103845,6,0,P|399:204|368:198,1,62.9999980773926,10|0,0:0|0:0,0:0:0:0:
338,129,104337,2,0,P|343:97|350:67,1,62.9999980773926,0|10,3:0|0:0,0:0:0:0:
284,29,104828,2,0,P|253:35|222:41,1,62.9999980773926,0|0,0:0|3:0,0:0:0:0:
180,104,105320,2,0,P|186:134|192:165,1,62.9999980773926,8|0,2:1|0:0,0:0:0:0:
147,227,105812,6,0,P|206:241|257:207,1,125.999996154785,10|8,0:0|0:0,0:0:0:0:
323,170,106550,2,0,P|382:155|433:189,1,125.999996154785,2|8,1:2|2:3,0:0:0:0:
463,258,107287,1,8,2:3:0:0:
458,333,107533,1,8,2:3:0:0:
362,382,107779,6,0,P|327:380|300:359,1,70,12|0,0:0|0:0,0:0:0:0:
270,280,108271,2,0,P|235:273|200:269,1,70,0|8,1:0|0:0,0:0:0:0:
131,318,108763,2,0,P|90:263|103:196,1,140,8|0,3:2|1:0,0:0:0:0:
58,125,109501,1,0,0:0:0:0:
120,70,109746,6,0,P|190:61|259:48,1,140,8|0,3:2|1:0,0:0:0:0:
336,82,110484,1,8,0:0:0:0:
292,155,110730,1,0,3:0:0:0:
292,155,110976,1,8,0:0:0:0:
342,220,111222,2,0,P|347:255|353:290,1,70,0|0,1:0|0:0,0:0:0:0:
291,348,111714,6,0,P|224:342|184:288,1,140,8|0,3:2|1:0,0:0:0:0:
120,233,112451,1,8,0:0:0:0:
170,166,112697,2,0,P|239:157|308:144,1,140,8|0,3:2|1:0,0:0:0:0:
389,168,113435,1,0,0:0:0:0:
449,110,113681,6,0,P|446:75|449:40,1,70,8|0,3:2|0:0,0:0:0:0:
364,38,114173,2,0,P|323:33|283:25,1,70,0|8,1:0|0:0,0:0:0:0:
213,47,114664,2,0,P|202:80|212:113,1,70,0|8,3:0|0:0,0:0:0:0:
288,151,115156,1,0,1:0:0:0:
240,220,115402,1,0,0:0:0:0:
292,285,115648,6,0,P|302:317|292:350,1,70,8|0,3:2|0:0,0:0:0:0:
209,365,116140,2,0,P|198:332|208:299,1,70,0|8,1:0|0:0,0:0:0:0:
240,219,116632,2,0,P|170:214|101:200,1,140,8|0,3:2|1:0,0:0:0:0:
33,249,117369,1,0,0:0:0:0:
83,316,117615,6,0,P|151:329|221:335,1,140,8|0,3:2|1:0,0:0:0:0:
302,360,118353,1,8,0:0:0:0:
359,298,118599,1,0,3:0:0:0:
359,298,118845,1,8,0:0:0:0:
436,327,119091,2,0,P|452:295|452:260,1,70,0|0,1:0|0:0,0:0:0:0:
400,194,119583,6,0,P|384:162|384:127,1,70,10|2,3:2|0:0,0:0:0:0:
444,68,120074,2,0,P|377:81|324:38,1,140,2|8,1:2|3:2,0:0:0:0:
242,20,120812,1,10,0:0:0:0:
198,91,121058,1,0,1:0:0:0:
259,147,121303,1,2,3:2:0:0:
219,220,121550,6,0,P|184:227|151:239,1,70,10|2,3:2|0:0,0:0:0:0:
122,318,122042,2,0,P|145:344|171:367,1,70,2|0,1:2|3:0,0:0:0:0:
254,353,122533,2,0,P|265:319|271:285,2,70,10|10|0,3:2|0:0|1:0,0:0:0:0:
345,331,123271,1,2,3:2:0:0:
398,266,123517,5,2,1:2:0:0:
398,266,123763,1,10,3:2:0:0:
463,319,124009,1,2,1:2:0:0:
463,319,124255,1,10,3:2:0:0:
409,384,124501,1,2,1:2:0:0:
409,384,124746,1,8,3:3:0:0:
345,331,124992,6,0,P|309:331|274:333,2,70,8|8|8,3:3|3:3|0:0,0:0:0:0:
425,165,126960,5,0,0:0:0:0:
425,165,127205,1,0,0:0:0:0:
345,191,127451,6,0,P|296:177|267:134,1,105,14|0,0:0|0:0,0:0:0:0:
256,92,127943,1,0,1:0:0:0:
174,71,128189,1,2,2:3:0:0:
92,49,128435,2,0,P|95:84|97:119,1,70,10|2,0:0|2:3,0:0:0:0:
55,192,128927,2,0,P|51:226|49:261,1,70,2|2,1:2|2:3,0:0:0:0:
67,299,129296,1,0,0:0:0:0:
67,299,129419,6,0,P|135:290|185:336,1,140,10|0,0:0|1:0,0:0:0:0:
254,382,130156,1,2,2:3:0:0:
324,336,130402,1,10,0:0:0:0:
254,290,130648,1,2,2:3:0:0:
184,336,130894,2,0,P|169:304|170:270,1,70,0|2,1:0|2:3,0:0:0:0:
147,188,131386,6,0,P|215:170|282:150,1,140,10|0,0:0|1:0,0:0:0:0:
339,88,132123,1,2,2:3:0:0:
412,129,132369,1,10,0:0:0:0:
412,46,132615,1,2,2:3:0:0:
484,86,132861,2,0,P|495:119|491:154,1,70,0|2,1:0|2:3,0:0:0:0:
465,234,133353,6,0,P|396:221|326:211,1,140,10|0,0:0|1:0,0:0:0:0:
245,235,134091,1,2,2:3:0:0:
168,270,134337,6,0,P|116:260|64:252,1,105,10|0,0:0|0:0,0:0:0:0:
22,254,134828,1,0,1:0:0:0:
51,175,135074,1,2,2:3:0:0:
1,72,135320,6,0,P|52:62|104:54,1,105,14|0,0:0|0:0,0:0:0:0:
147,56,135812,1,0,1:0:0:0:
218,11,136059,1,2,2:3:0:0:
284,59,136304,2,0,P|297:92|295:127,1,70,10|2,0:0|2:3,0:0:0:0:
252,198,136796,2,0,P|239:230|241:265,1,70,2|2,1:2|2:3,0:0:0:0:
303,321,137287,6,0,P|337:317|387:311,1,70,10|2,0:0|2:3,0:0:0:0:
439,260,137779,2,0,P|435:226|429:176,1,70,2|2,1:2|2:3,0:0:0:0:
479,121,138271,2,0,B|457:62|400:99|378:31,1,140,10|0,0:0|1:0,0:0:0:0:
299,61,139009,1,2,2:3:0:0:
222,26,139255,5,10,0:0:0:0:
222,26,139501,2,0,P|188:20|153:18,2,70,2|0|2,2:3|1:0|2:3,0:0:0:0:
299,61,140238,2,0,P|304:130|306:200,1,140,10|0,0:0|1:0,0:0:0:0:
282,281,140976,6,0,L|230:274,2,35,2|0|10,2:3|0:0|0:0,0:0:0:0:
347,336,141468,2,0,P|382:338|413:323,2,70,2|0|2,2:3|1:0|2:3,0:0:0:0:
276,381,142205,1,8,2:3:0:0:
241,376,142328,1,10,2:3:0:0:
206,371,142451,1,10,2:3:0:0:
122,375,142697,1,8,1:3:0:0:
78,303,142943,1,10,2:3:0:0:
124,141,143435,5,2,0:0:0:0:
124,141,143558,1,2,0:0:0:0:
124,141,143681,1,6,1:2:0:0:
97,61,143927,1,2,0:0:0:0:
36,118,144173,2,0,P|34:153|47:185,1,70,10|2,3:2|3:2,0:0:0:0:
76,274,144664,1,2,1:2:0:0:
76,274,144787,1,2,2:3:0:0:
76,274,144910,1,2,0:0:0:0:
246,322,145402,5,2,0:0:0:0:
246,322,145525,1,2,0:0:0:0:
246,322,145648,1,2,1:2:0:0:
328,305,145894,1,2,0:0:0:0:
409,288,146140,2,0,P|421:255|419:220,1,70,10|2,3:2|3:2,0:0:0:0:
385,154,146632,1,2,1:2:0:0:
385,154,146755,1,2,0:0:0:0:
385,154,146878,1,2,0:0:0:0:
491,24,147369,5,2,0:0:0:0:
491,24,147492,1,2,0:0:0:0:
491,24,147615,2,0,L|498:63,2,35,2|2|2,1:2|0:0|0:0,0:0:0:0:
409,47,148107,2,0,P|374:42|339:39,1,70,10|2,0:0|0:0,0:0:0:0:
258,61,148599,1,2,1:2:0:0:
179,31,148845,1,2,0:0:0:0:
126,96,149091,5,10,0:0:0:0:
171,166,149337,1,2,0:0:0:0:
251,144,149583,1,2,1:2:0:0:
258,61,149828,2,0,P|223:53|191:41,1,70,2|8,0:0|0:0,0:0:0:0:
111,14,150320,1,2,0:0:0:0:
40,60,150566,1,2,1:2:0:0:
55,142,150812,1,2,0:0:0:0:
126,96,151058,5,14,0:0:0:0:
256,192,151181,12,2,154992,0:0:0:0:
256,192,158435,5,4,0:3:0:0:
256,192,162369,5,4,2:3:0:0:
256,192,162615,1,2,2:1:0:0:
256,192,162861,6,0,P|260:255|258:318,1,125.999996154785,10|2,0:0|2:1,0:0:0:0:
182,318,163599,2,0,P|178:255|180:192,1,125.999996154785,2|0,1:2|0:0,0:0:0:0:
180,192,164337,1,10,0:0:0:0:
74,83,164828,6,0,P|111:35|172:37,1,125.999996154785,10|2,0:0|2:1,0:0:0:0:
201,107,165566,2,0,P|163:154|102:152,1,125.999996154785,0|0,1:0|0:0,0:0:0:0:
102,152,166304,1,4,0:3:0:0:
102,152,166550,1,2,2:1:0:0:
56,212,166796,6,0,P|41:272|53:333,1,125.999996154785,10|2,0:0|2:1,0:0:0:0:
123,362,167533,2,0,P|137:301|125:240,1,125.999996154785,2|0,1:2|0:0,0:0:0:0:
125,240,168271,1,10,0:0:0:0:
234,135,168763,6,0,P|296:126|358:116,1,125.999996154785,10|2,0:0|2:1,0:0:0:0:
369,198,169501,2,0,P|306:207|244:216,1,125.999996154785,0|0,1:0|0:0,0:0:0:0:
244,216,170238,1,4,0:3:0:0:
244,216,170484,1,2,2:1:0:0:
215,290,170730,6,0,P|229:350|284:375,1,125.999996154785,10|2,0:0|2:1,0:0:0:0:
359,364,171468,2,0,P|403:322|397:261,1,125.999996154785,2|0,1:2|0:0,0:0:0:0:
397,261,172205,1,10,0:0:0:0:
365,113,172697,6,0,B|371:55|443:41|481:102|457:164|394:182,1,220.499993270874,10|0,0:0|0:0,0:0:0:0:
360,185,173681,2,0,P|311:196|284:240,1,105,12|0,0:0|0:0,0:0:0:0:
303,278,174173,2,0,P|312:314|287:380,1,105,12|0,0:3|0:0,0:0:0:0:
248,370,174664,6,0,L|158:355,1,70,10|2,3:2|0:0,0:0:0:0:
94,362,175156,2,0,P|32:340|39:275,1,140,2|10,1:2|3:2,0:0:0:0:
105,223,175894,1,10,0:0:0:0:
99,139,176140,1,0,1:0:0:0:
93,55,176386,1,2,3:2:0:0:
156,1,176632,6,0,P|191:7|218:28,1,70,10|2,3:2|3:2,0:0:0:0:
286,77,177123,2,0,P|320:70|347:49,1,70,2|0,1:2|3:0,0:0:0:0:
427,27,177615,2,0,P|462:23|497:22,2,70,10|10|0,3:2|0:0|1:0,0:0:0:0:
347,49,178353,1,2,3:2:0:0:
286,107,178599,5,2,1:2:0:0:
286,107,178845,1,10,3:2:0:0:
345,167,179091,1,2,1:2:0:0:
345,167,179337,1,10,3:2:0:0:
405,108,179583,1,2,1:2:0:0:
405,108,179828,1,8,3:3:0:0:
347,49,180074,6,0,P|306:43|263:36,2,70,8|8|8,3:3|3:3|0:0,0:0:0:0:
178,269,182042,5,0,0:0:0:0:
178,269,182287,1,0,0:0:0:0:
99,300,182533,6,0,P|61:267|60:216,1,105,14|0,0:0|0:0,0:0:0:0:
80,178,183025,1,0,1:0:0:0:
45,101,183271,1,2,2:3:0:0:
108,47,183517,2,0,P|143:42|178:35,1,70,10|2,0:0|2:3,0:0:0:0:
246,85,184009,2,0,P|280:80|315:73,1,70,2|2,1:2|2:3,0:0:0:0:
356,63,184378,1,0,0:0:0:0:
356,63,184501,6,0,B|330:116|369:148|341:199,1,140,10|0,0:0|1:0,0:0:0:0:
311,277,185238,1,2,2:3:0:0:
391,301,185484,1,10,0:0:0:0:
330,359,185730,1,2,2:3:0:0:
250,335,185976,2,0,P|215:328|181:321,1,70,0|2,1:0|2:3,0:0:0:0:
101,347,186468,6,0,P|95:277|86:207,1,140,10|0,0:0|1:0,0:0:0:0:
66,126,187205,1,2,2:3:0:0:
125,66,187451,1,10,0:0:0:0:
59,13,187697,1,2,2:3:0:0:
11,81,187943,2,0,P|16:115|21:150,1,70,0|2,1:0|2:3,0:0:0:0:
10,233,188435,6,0,P|76:211|145:206,1,140,10|0,0:0|1:0,0:0:0:0:
228,222,189173,1,2,2:3:0:0:
301,181,189419,2,0,P|350:198|401:207,1,105,10|0,0:0|0:0,0:0:0:0:
444,205,189911,1,0,1:0:0:0:
499,142,190156,1,2,2:3:0:0:
450,42,190402,6,0,P|400:24|349:15,1,105,14|0,0:0|0:0,0:0:0:0:
307,18,190894,1,0,1:0:0:0:
260,88,191140,1,2,2:3:0:0:
179,65,191386,2,0,P|174:99|185:132,1,70,10|2,0:0|2:3,0:0:0:0:
234,201,191878,2,0,P|238:235|227:268,1,70,2|2,1:2|2:3,0:0:0:0:
161,321,192369,6,0,L|84:315,1,70,10|2,0:0|2:3,0:0:0:0:
13,282,192861,2,0,L|19:205,1,70,2|2,1:2|2:3,0:0:0:0:
72,148,193353,2,0,P|139:158|183:211,1,140,10|0,0:0|1:0,0:0:0:0:
264,233,194091,1,2,2:3:0:0:
296,310,194337,5,10,0:0:0:0:
296,310,194583,2,0,P|302:344|306:379,2,70,2|0|2,2:3|1:0|2:3,0:0:0:0:
264,233,195320,2,0,P|274:182|303:88,1,140,10|0,0:0|1:0,0:0:0:0:
362,41,196058,1,2,2:3:0:0:
362,41,196181,1,0,0:0:0:0:
362,41,196304,5,10,0:0:0:0:
432,84,196550,2,0,P|467:82|498:66,2,70,2|0|2,2:3|1:0|2:3,0:0:0:0:
375,146,197287,1,10,0:0:0:0:
431,208,197533,1,10,2:3:0:0:
439,241,197656,1,8,0:3:0:0:
429,274,197779,1,8,1:3:0:0:
363,326,198025,1,8,2:3:0:0:
264,282,198271,6,0,P|194:277|124:266,1,140,4|4,0:0|0:3,0:0:0:0:
182,103,199255,2,0,P|112:98|42:87,1,140,2|4,0:3|0:3,0:0:0:0:
1,160,199992,1,2,0:3:0:0:
75,201,200238,6,0,P|86:223|89:346,2,140,8|4|2,0:0|0:3|0:3,0:0:0:0:
9,167,201468,1,2,0:0:0:0:
9,167,201714,1,6,0:0:0:0:
9,167,201960,1,2,0:0:0:0:
97,102,202205,6,0,P|148:103|191:74,1,105,14|0,0:0|0:0,0:0:0:0:
213,37,202697,1,2,1:3:0:0:
213,37,202943,1,2,2:3:0:0:
293,60,203189,2,0,P|344:59|387:88,1,105,10|0,0:0|0:0,0:0:0:0:
409,125,203681,1,2,1:3:0:0:
409,125,203927,1,2,2:3:0:0:
429,206,204173,6,0,P|464:201|499:196,1,70,10|2,0:0|2:3,0:0:0:0:
486,112,204664,2,0,P|481:77|476:42,1,70,2|2,1:3|2:3,0:0:0:0:
391,47,205156,2,0,P|356:51|321:56,1,70,8|2,0:0|2:3,0:0:0:0:
243,33,205648,1,2,1:3:0:0:
243,33,205894,1,2,2:3:0:0:
199,105,206140,6,0,P|215:155|226:206,1,105,10|0,0:0|0:0,0:0:0:0:
238,251,206632,1,2,1:3:0:0:
238,251,206878,1,2,2:3:0:0:
301,304,207123,2,0,P|278:349|228:362,1,105,10|0,0:0|0:0,0:0:0:0:
193,350,207615,1,2,1:3:0:0:
193,350,207861,1,2,2:3:0:0:
134,290,208107,6,0,P|100:279|66:272,1,70,10|2,0:0|2:3,0:0:0:0:
27,197,208599,2,0,P|52:172|76:147,1,70,2|2,1:3|2:3,0:0:0:0:
161,150,209091,2,0,P|169:184|179:217,1,70,8|2,0:0|2:3,0:0:0:0:
257,259,209583,1,2,1:3:0:0:
257,259,209828,1,2,2:3:0:0:
328,339,210074,6,0,P|380:342|416:307,1,105,14|0,0:0|0:0,0:0:0:0:
426,268,210566,1,2,1:3:0:0:
426,268,210812,1,2,2:3:0:0:
464,194,211058,2,0,P|452:144|448:91,1,105,10|0,0:0|0:0,0:0:0:0:
449,53,211550,1,2,1:3:0:0:
449,53,211796,1,2,2:3:0:0:
372,17,212042,5,10,0:0:0:0:
313,174,212533,1,2,1:3:0:0:
206,44,213025,1,10,0:0:0:0:
313,174,213517,2,0,P|320:209|313:243,1,70,2|2,1:3|2:3,0:0:0:0:
237,282,214009,6,0,P|168:270|99:261,1,140,10|2,0:0|1:3,0:0:0:0:
17,277,214746,1,2,2:3:0:0:
10,193,214992,2,0,P|40:133|107:125,1,140,10|2,0:0|1:3,0:0:0:0:
178,170,215730,1,2,2:3:0:0:
239,113,215976,6,0,P|245:78|246:43,1,70,10|2,0:0|2:3,0:0:0:0:
327,20,216468,2,0,L|368:15,2,35,2|2|2,1:3|2:3|2:3,0:0:0:0:
343,102,216960,2,0,P|348:136|349:171,1,70,8|2,0:0|2:3,0:0:0:0:
430,195,217451,2,0,L|471:200,2,35,2|2|2,1:3|2:3|2:3,0:0:0:0:
386,267,217943,5,2,0:0:0:0:
