osu file format v14

[General]
AudioFilename: audio.mp3
AudioLeadIn: 0
PreviewTime: 112498
Countdown: 0
SampleSet: Soft
StackLeniency: 0.7
Mode: 0
LetterboxInBreaks: 0
WidescreenStoryboard: 1

[Editor]
Bookmarks: 10617,27608,28006,28272,28537,28803,29068,29467,29732,30130,30396,30661,30927,31325,31458,31591,31856,32254,32520,32785,33051,33316,33714,33980,34378,34644,34909,35175,35573,35706,35838,36104,61591,62652,63714,64776,65838,66900,67962,69024,70086,78582,78980,79245,79511,79776,80042,80440,80706,81104,81369,81635,81900,82298,82431,82564,82829,83228,83493,83759,84024,84290,84688,84953,85352,85617,85883,86148,86546,86679,86812,87077,112564,129754,136989,155042,172033,172431,172564,172697,172962,173228,173493,173891,174157,174555,174821,175086,175352,175750,175883,176015,176148,176679,176812,176945,177077,177210,177475,177608,178006,178139,178272,178537,178670,178803,179068,179201,179334,179599,179732,179865,179998,180130,180263,180396,180529,189024,193006,193272,193670,193936,194201,194467,194732,195130,195396,195794,196060,196325,197520
DistanceSpacing: 1.1
BeatDivisor: 4
GridSize: 8
TimelineZoom: 1.699999

[Metadata]
Title:Daisan no Shinzou
TitleUnicode:第三の心臓
Artist:Harumaki Gohan
ArtistUnicode:はるまきごはん
Creator:Chills
Version:Normal
Source:
Tags:japanese electronic pop jpop j-pop vocaloid cover self-cover The Third Heart
BeatmapID:3067208
BeatmapSetID:1495201

[Difficulty]
HPDrainRate:3
CircleSize:3.5
OverallDifficulty:4
ApproachRate:6
SliderMultiplier:1.2
SliderTickRate:1

[Events]
//Background and Video events
0,0,"bg.jpeg",0,0
Video,1495,"harumaki.mp4"
//Break Periods
2,129755,137001
//Storyboard Layer 0 (Background)
//Storyboard Layer 1 (Fail)
//Storyboard Layer 2 (Pass)
//Storyboard Layer 3 (Foreground)
//Storyboard Layer 4 (Overlay)
//Storyboard Sound Samples

[TimingPoints]
2122,530.973451327434,4,2,1,45,1,0
2122,-83.3333333333333,4,2,1,45,0,0
10617,-83.3333333333333,4,2,1,50,0,0
27608,-81.9672131147541,4,1,1,60,0,0
27807,-81.9672131147541,4,2,1,5,0,0
28006,-81.9672131147541,4,1,2,60,0,0
28073,-81.9672131147541,4,2,1,60,0,0
28272,-81.9672131147541,4,1,2,60,0,0
28338,-81.9672131147541,4,2,1,60,0,0
28537,-81.9672131147541,4,1,1,60,0,0
28604,-81.9672131147541,4,2,1,5,0,0
28803,-81.9672131147541,4,1,1,60,0,0
28869,-81.9672131147541,4,2,1,5,0,0
29067,-81.9672131147541,4,2,1,60,0,0
29467,-81.9672131147541,4,1,2,60,0,0
29533,-81.9672131147541,4,2,1,60,0,0
29732,-81.9672131147541,4,1,1,60,0,0
29998,-81.9672131147541,4,2,1,5,0,0
30130,-81.9672131147541,4,1,2,60,0,0
30197,-81.9672131147541,4,2,1,60,0,0
30396,-81.9672131147541,4,1,2,60,0,0
30462,-81.9672131147541,4,2,1,60,0,0
30661,-81.9672131147541,4,2,2,60,0,0
31856,-81.9672131147541,4,1,1,60,0,0
32055,-81.9672131147541,4,2,1,5,0,0
32254,-81.9672131147541,4,1,2,60,0,0
32321,-81.9672131147541,4,2,1,60,0,0
32520,-81.9672131147541,4,1,2,60,0,0
32586,-81.9672131147541,4,2,1,60,0,0
32785,-81.9672131147541,4,1,1,60,0,0
32852,-81.9672131147541,4,2,1,5,0,0
33051,-81.9672131147541,4,1,1,60,0,0
33117,-81.9672131147541,4,2,1,5,0,0
33315,-81.9672131147541,4,2,1,60,0,0
33714,-81.9672131147541,4,1,2,60,0,0
33781,-81.9672131147541,4,2,1,60,0,0
33980,-81.9672131147541,4,1,1,60,0,0
34245,-81.9672131147541,4,2,1,5,0,0
34378,-81.9672131147541,4,1,2,60,0,0
34445,-81.9672131147541,4,2,1,60,0,0
34644,-81.9672131147541,4,1,2,60,0,0
34710,-81.9672131147541,4,2,1,60,0,0
34909,-81.9672131147541,4,2,2,60,0,0
35706,-81.9672131147541,4,2,1,60,0,0
37697,-83.3333333333333,4,2,1,50,0,0
50971,-81.9672131147541,4,2,1,55,0,0
53095,-83.3333333333333,4,2,1,50,0,0
59732,-66.6666666666667,4,2,1,5,0,0
61325,-81.9672131147541,4,2,1,50,0,0
61591,-81.9672131147541,4,2,1,65,0,0
61989,-81.9672131147541,4,2,2,65,0,0
65440,-81.9672131147541,4,2,2,65,0,0
65506,-81.9672131147541,4,2,2,65,0,0
65838,-81.9672131147541,4,2,1,65,0,0
70086,-80.6451612903226,4,2,2,70,0,1
74334,-80.6451612903226,4,2,1,70,0,1
78582,-81.9672131147541,4,1,2,60,0,0
78781,-81.9672131147541,4,2,1,5,0,0
78980,-81.9672131147541,4,1,2,60,0,0
79046,-81.9672131147541,4,2,1,60,0,0
79245,-81.9672131147541,4,1,2,60,0,0
79312,-81.9672131147541,4,2,1,60,0,0
79511,-81.9672131147541,4,1,1,60,0,0
79577,-81.9672131147541,4,2,1,5,0,0
79776,-81.9672131147541,4,1,1,60,0,0
79843,-81.9672131147541,4,2,1,5,0,0
80042,-81.9672131147541,4,2,1,60,0,0
80440,-81.9672131147541,4,1,2,60,0,0
80506,-81.9672131147541,4,2,1,60,0,0
80706,-81.9672131147541,4,1,1,60,0,0
80971,-81.9672131147541,4,2,1,5,0,0
81104,-81.9672131147541,4,1,2,60,0,0
81170,-81.9672131147541,4,2,1,60,0,0
81369,-81.9672131147541,4,1,2,60,0,0
81436,-81.9672131147541,4,2,1,60,0,0
81635,-81.9672131147541,4,2,2,60,0,0
82829,-81.9672131147541,4,1,1,60,0,0
83029,-81.9672131147541,4,2,1,5,0,0
83228,-81.9672131147541,4,1,2,60,0,0
83294,-81.9672131147541,4,2,1,60,0,0
83493,-81.9672131147541,4,1,2,60,0,0
83560,-81.9672131147541,4,2,1,60,0,0
83759,-81.9672131147541,4,1,1,60,0,0
83825,-81.9672131147541,4,2,1,5,0,0
84024,-81.9672131147541,4,1,1,60,0,0
84091,-81.9672131147541,4,2,1,5,0,0
84290,-81.9672131147541,4,2,1,60,0,0
84688,-81.9672131147541,4,1,2,60,0,0
84754,-81.9672131147541,4,2,1,60,0,0
84953,-81.9672131147541,4,1,1,60,0,0
85219,-81.9672131147541,4,2,1,60,0,0
85352,-81.9672131147541,4,1,2,60,0,0
85418,-81.9672131147541,4,2,1,60,0,0
85617,-81.9672131147541,4,1,2,60,0,0
85683,-81.9672131147541,4,2,1,60,0,0
85883,-81.9672131147541,4,2,2,60,0,0
86679,-81.9672131147541,4,2,1,60,0,0
87077,-83.3333333333333,4,2,1,50,0,0
101945,-81.9672131147541,4,2,1,55,0,0
104068,-83.3333333333333,4,2,1,50,0,0
110971,-80.6451612903226,4,2,1,5,0,0
112298,-80.6451612903226,4,2,1,50,0,0
112564,-80.6451612903226,4,2,2,70,0,1
116812,-80.6451612903226,4,2,1,70,0,1
120130,-80.6451612903226,4,2,2,70,0,1
125307,-80.6451612903226,4,2,1,70,0,1
129555,-80.6451612903226,4,2,1,50,0,0
131281,-64.9350649350649,4,2,2,50,0,0
131414,-64.9350649350649,4,2,1,50,0,0
132874,-64.9350649350649,4,2,2,50,0,0
133006,-64.9350649350649,4,2,1,50,0,0
133405,-64.9350649350649,4,2,2,50,0,0
133537,-64.9350649350649,4,2,1,50,0,0
137122,-64.9350649350649,4,2,2,50,0,0
137254,-64.9350649350649,4,2,1,50,0,0
138051,-83.3333333333333,4,2,1,50,0,0
138714,-83.3333333333333,4,2,2,50,0,0
140042,-83.3333333333333,4,2,1,50,0,0
141369,-83.3333333333333,4,2,2,50,0,0
142298,-83.3333333333333,4,2,1,50,0,0
142962,-83.3333333333333,4,2,2,50,0,0
143095,-83.3333333333333,4,2,1,50,0,0
143228,-83.3333333333333,4,2,2,50,0,0
143360,-83.3333333333333,4,2,1,50,0,0
144024,-83.3333333333333,4,2,2,50,0,0
144157,-83.3333333333333,4,2,1,50,0,0
145086,-83.3333333333333,4,2,2,50,0,0
145219,-83.3333333333333,4,2,1,50,0,0
145750,-83.3333333333333,4,2,1,50,0,0
147210,-83.3333333333333,4,2,2,50,0,0
147608,-83.3333333333333,4,2,1,50,0,0
148272,-83.3333333333333,4,2,2,50,0,0
148405,-83.3333333333333,4,2,1,50,0,0
149865,-83.3333333333333,4,2,2,50,0,0
149998,-83.3333333333333,4,2,1,50,0,0
150396,-83.3333333333333,4,2,2,50,0,0
150529,-83.3333333333333,4,2,1,50,0,0
151458,-83.3333333333333,4,2,2,50,0,0
151591,-83.3333333333333,4,2,1,50,0,0
151723,-83.3333333333333,4,2,2,50,0,0
151856,-83.3333333333333,4,2,1,50,0,0
152520,-83.3333333333333,4,2,2,50,0,0
152652,-83.3333333333333,4,2,1,50,0,0
152918,-83.3333333333333,4,2,1,50,0,0
152951,-83.3333333333333,4,2,2,5,0,0
153449,-83.3333333333333,4,2,3,10,0,0
153582,-83.3333333333333,4,2,4,20,0,0
153714,-83.3333333333333,4,2,3,30,0,0
153847,-83.3333333333333,4,2,4,40,0,0
153980,-83.3333333333333,4,2,3,50,0,0
154113,-83.3333333333333,4,2,4,60,0,0
154245,-83.3333333333333,4,2,3,70,0,0
154511,-83.3333333333333,4,2,3,50,0,0
155042,-80.6451612903226,4,2,2,70,0,1
159290,-80.6451612903226,4,2,1,70,0,1
163537,-80.6451612903226,4,2,2,70,0,1
167785,-80.6451612903226,4,2,1,70,0,1
172033,-79.3650793650794,4,2,1,60,0,0
172298,-79.3650793650794,4,2,1,60,0,0
172431,-79.3650793650794,4,1,1,60,0,0
172498,-79.3650793650794,4,2,1,5,0,0
172564,-79.3650793650794,4,2,1,75,0,1
172697,-79.3650793650794,4,1,2,75,0,1
172763,-79.3650793650794,4,2,1,75,0,1
172962,-79.3650793650794,4,1,1,75,0,1
173029,-79.3650793650794,4,2,1,5,0,1
173228,-79.3650793650794,4,1,1,75,0,1
173294,-79.3650793650794,4,2,1,5,0,1
173492,-79.3650793650794,4,2,1,75,0,1
173891,-79.3650793650794,4,1,2,75,0,1
173958,-79.3650793650794,4,2,1,75,0,1
174157,-79.3650793650794,4,1,1,75,0,1
174422,-79.3650793650794,4,2,1,5,0,1
174555,-79.3650793650794,4,1,2,75,0,1
174622,-79.3650793650794,4,2,1,75,0,1
174821,-79.3650793650794,4,1,2,75,0,1
174887,-79.3650793650794,4,2,1,75,0,1
175086,-79.3650793650794,4,2,2,75,0,1
175352,-79.3650793650794,4,2,1,60,0,1
176679,-79.3650793650794,4,1,2,75,0,1
176712,-79.3650793650794,4,2,1,5,0,1
176812,-79.3650793650794,4,1,1,70,0,1
176911,-79.3650793650794,4,2,1,5,0,1
176945,-79.3650793650794,4,1,1,75,0,1
177044,-79.3650793650794,4,2,1,5,0,1
177077,-79.3650793650794,4,1,2,75,0,1
177210,-79.3650793650794,4,1,1,75,0,1
177243,-79.3650793650794,4,2,1,5,0,1
177442,-79.3650793650794,4,2,1,5,0,1
177475,-79.3650793650794,4,1,1,75,0,1
177575,-79.3650793650794,4,2,1,5,0,1
177608,-79.3650793650794,4,1,1,75,0,1
178139,-79.3650793650794,4,2,2,80,0,1
178537,-79.3650793650794,4,1,2,75,0,1
178604,-79.3650793650794,4,2,1,5,0,1
178670,-79.3650793650794,4,1,2,90,0,1
178737,-79.3650793650794,4,2,1,5,0,1
178803,-79.3650793650794,4,2,2,90,0,1
179068,-79.3650793650794,4,1,2,75,0,1
179135,-79.3650793650794,4,2,1,5,0,1
179201,-79.3650793650794,4,1,2,100,0,1
179268,-79.3650793650794,4,2,1,5,0,1
179334,-79.3650793650794,4,1,2,100,0,1
179599,-79.3650793650794,4,2,1,75,0,1
180396,-79.3650793650794,4,2,1,50,0,1
180529,-79.3650793650794,4,2,1,75,0,1
189024,-79.3650793650794,4,2,1,45,0,0
189688,-83.3333333333333,4,2,1,45,0,0
193272,-81.9672131147541,4,1,1,60,0,0
193471,-81.9672131147541,4,2,1,5,0,0
193670,-81.9672131147541,4,1,2,60,0,0
193737,-81.9672131147541,4,2,2,60,0,0
193936,-81.9672131147541,4,1,2,60,0,0
194002,-81.9672131147541,4,2,1,60,0,0
194201,-81.9672131147541,4,1,1,60,0,0
194268,-81.9672131147541,4,2,1,5,0,0
194467,-81.9672131147541,4,2,2,60,0,0
194533,-81.9672131147541,4,2,1,60,0,0
194732,-81.9672131147541,4,1,1,60,0,0
194998,-81.9672131147541,4,2,1,5,0,0
195130,-81.9672131147541,4,1,2,60,0,0
195197,-81.9672131147541,4,2,1,60,0,0
195396,-81.9672131147541,4,1,1,60,0,0
195661,-81.9672131147541,4,2,1,60,0,0
195794,-81.9672131147541,4,1,2,60,0,0
195860,-81.9672131147541,4,2,1,60,0,0
196060,-81.9672131147541,4,1,2,60,0,0
196126,-81.9672131147541,4,2,1,60,0,0
196325,-81.9672131147541,4,1,2,60,0,0
196391,-81.9672131147541,4,2,1,60,0,0
197520,-81.9672131147541,4,2,1,50,0,0

[Colours]
Combo1 : 253,196,196
Combo2 : 133,186,250
Combo3 : 128,207,255
Combo4 : 254,148,112
Combo5 : 247,128,128
Combo6 : 184,149,255
Combo7 : 240,203,254

[HitObjects]
0,326,2122,6,0,B|74:309|63:373|135:364,1,143.999995605469,2|8,1:2|0:0,0:0:0:0:
162,338,2785,2,0,P|157:300|152:262,1,71.9999978027344,0|0,1:2|1:2,0:0:0:0:
193,198,3316,1,2,3:2:0:0:
85,147,3714,2,0,P|80:109|75:71,1,71.9999978027344,8|0,0:0|1:0,0:0:0:0:
136,24,4245,6,0,B|212:22|185:77|269:68,1,143.999995605469,0|8,1:2|0:0,0:0:0:0:
303,51,4909,2,0,P|309:87|315:130,2,71.9999978027344,0|0|2,3:0|0:0|1:2,0:0:0:0:
411,3,5838,2,0,P|439:28|481:33,1,71.9999978027344,8|0,0:0|1:0,0:0:0:0:
509,104,6369,86,0,B|514:182|444:154|457:241,1,143.999995605469,2|8,1:2|0:0,0:0:0:0:
485,257,7033,2,0,P|490:291|498:337,1,71.9999978027344,0|0,1:2|1:2,0:0:0:0:
439,383,7564,1,2,3:2:0:0:
361,293,7962,2,0,P|327:298|281:306,1,71.9999978027344,8|0,0:2|1:2,0:0:0:0:
245,370,8493,6,0,B|165:374|198:308|112:318,1,143.999995605469,0|8,1:2|0:0,0:0:0:0:
80,329,9157,2,0,P|76:292|71:257,2,71.9999978027344,0|0|2,3:0|3:2|1:2,0:0:0:0:
189,281,10086,1,8,0:0:0:0:
249,230,10352,1,0,1:0:0:0:
193,173,10617,86,0,P|198:137|205:102,1,71.9999978027344,2|0,1:2|0:0,0:0:0:0:
223,24,11148,1,8,0:0:0:0:
299,2,11414,1,0,1:0:0:0:
361,50,11679,2,0,P|395:87|457:92,1,107.999996704102,0|0,1:0|3:0,0:0:0:0:
480,67,12210,1,8,0:0:0:0:
500,224,12741,6,0,P|489:278|480:346,1,107.999996704102,0|0,1:2|3:0,0:0:0:0:
417,377,13405,2,0,P|388:354|342:344,1,71.9999978027344,0|0,3:0|0:0,0:0:0:0:
284,380,13936,1,2,1:2:0:0:
243,267,14334,2,0,P|248:230|256:180,1,71.9999978027344,8|0,0:0|1:0,0:0:0:0:
318,151,14865,85,2,1:2:0:0:
382,105,15130,1,0,1:0:0:0:
343,35,15396,2,0,P|306:41|267:49,1,71.9999978027344,8|0,0:0|0:0,0:0:0:0:
235,32,15794,2,0,P|198:37|161:44,1,71.9999978027344,0|2,1:2|3:2,0:0:0:0:
92,8,16325,2,0,L|50:15,1,35.9999989013672,0|8,3:0|3:2,0:0:0:0:
3,75,16723,1,0,3:2:0:0:
61,129,16989,6,0,P|68:164|74:205,1,71.9999978027344,0|0,1:2|1:0,0:0:0:0:
36,270,17520,1,8,0:0:0:0:
171,352,18051,2,0,P|197:376|245:382,1,71.9999978027344,0|0,3:0|3:0,0:0:0:0:
264,360,18449,2,0,P|295:353|341:349,1,71.9999978027344,0|0,3:0|1:2,0:0:0:0:
368,370,18847,85,0,3:0:0:0:
432,323,19113,1,2,1:2:0:0:
499,280,19378,2,0,P|495:241|487:205,1,71.9999978027344,0|8,1:0|0:0,0:0:0:0:
503,172,19776,2,0,P|498:133|490:101,1,71.9999978027344,0|0,1:0|1:0,0:0:0:0:
509,66,20175,2,0,P|474:32|411:32,1,107.999996704102,0|0,3:0|3:0,0:0:0:0:
322,100,20971,1,0,3:0:0:0:
262,46,21237,6,0,P|224:39|184:35,1,71.9999978027344,0|0,1:0|1:0,0:0:0:0:
119,1,21768,2,0,P|87:43|28:54,1,107.999996704102,8|0,0:0|1:0,0:0:0:0:
97,156,22564,2,0,P|89:191|83:234,2,71.9999978027344,0|8|0,3:0|3:2|3:0,0:0:0:0:
159,106,23360,85,2,1:2:0:0:
218,163,23626,2,0,L|258:154,1,35.9999989013672,0|0,1:0|3:0,0:0:0:0:
328,180,24024,1,0,1:0:0:0:
379,117,24290,2,0,P|436:121|470:159,1,107.999996704102,0|0,1:0|3:0,0:0:0:0:
447,189,24821,1,0,3:0:0:0:
506,291,25219,1,0,3:0:0:0:
443,339,25484,6,0,P|407:344|365:352,1,71.9999978027344,0|0,1:0|0:0,0:0:0:0:
347,323,25883,2,0,P|310:329|269:336,1,71.9999978027344,0|0,1:0|1:0,0:0:0:0:
211,381,26414,2,0,P|175:348|115:355,1,107.999996704102,0|0,1:0|3:0,0:0:0:0:
45,380,27077,1,8,3:2:0:0:
7,310,27343,1,0,3:0:0:0:
62,252,27608,22,2,B|76:179|76:179|121:151,1,109.79999547638,0|2,1:0|3:1,0:0:0:0:
170,112,28272,1,2,1:0:0:0:
130,42,28537,2,2,L|47:60,2,73.199996984253,0|0|2,1:0|3:0|3:1,0:0:0:0:
248,17,29467,1,2,3:1:0:0:
301,76,29732,86,2,B|337:58|337:58|416:80,1,109.79999547638,0|2,1:0|3:1,0:0:0:0:
476,40,30396,1,2,3:1:0:0:
509,113,30661,1,2,3:1:0:0:
368,310,31856,6,2,B|334:328|334:328|251:296,1,109.79999547638,0|2,1:0|3:1,0:0:0:0:
194,337,32520,1,2,1:0:0:0:
137,280,32785,2,2,L|54:296,2,73.199996984253,0|0|2,0:0|3:0|3:1,0:0:0:0:
221,192,33714,1,2,3:1:0:0:
281,138,33980,86,2,B|318:120|318:120|382:147,1,109.79999547638,0|2,1:0|3:1,0:0:0:0:
443,95,34644,1,2,1:0:0:0:
401,25,34909,1,2,1:0:0:0:
161,61,35706,2,0,L|171:111,2,36.5999984921265,2|2|0,1:2|3:2|3:0,0:0:0:0:
127,38,36104,69,2,1:2:0:0:
340,328,37697,2,0,L|330:281,1,35.9999989013672,8|0,0:0|1:0,0:0:0:0:
295,179,38228,6,0,P|288:144|278:102,1,71.9999978027344,0|0,1:0|0:0,0:0:0:0:
335,51,38759,2,0,L|376:59,1,35.9999989013672,8|0,0:0|1:0,0:0:0:0:
445,32,39157,1,0,1:0:0:0:
488,98,39422,2,0,P|500:145|512:210,1,107.999996704102,2|8,1:2|3:2,0:0:0:0:
498,281,40086,1,0,3:0:0:0:
419,267,40352,85,2,1:2:0:0:
394,341,40617,2,0,P|343:348|281:367,1,107.999996704102,0|0,1:0|1:0,0:0:0:0:
237,303,41281,1,0,1:0:0:0:
290,244,41546,2,0,L|281:200,1,35.9999989013672,2|0,3:2|3:0,0:0:0:0:
220,159,41945,1,8,0:0:0:0:
86,73,42475,6,0,P|57:55|14:55,2,71.9999978027344,0|0|8,1:0|0:0|0:0,0:0:0:0:
143,17,43272,2,0,L|190:5,1,35.9999989013672,0|0,3:0|1:0,0:0:0:0:
286,57,43803,1,0,3:0:0:0:
353,15,44068,2,0,P|390:6|440:-1,1,71.9999978027344,10|0,0:2|1:0,0:0:0:0:
493,37,44599,85,2,1:2:0:0:
438,94,44865,2,0,P|446:143|458:205,1,107.999996704102,0|0,1:0|1:0,0:0:0:0:
490,314,45661,2,0,P|454:306|419:301,1,71.9999978027344,0|0,3:0|3:0,0:0:0:0:
355,349,46192,2,0,P|319:341|284:336,1,71.9999978027344,8|0,0:0|1:0,0:0:0:0:
210,365,46723,5,2,1:2:0:0:
132,349,46989,2,0,L|97:340,1,35.9999989013672,0|0,1:0|3:0,1:0:0:0:
31,296,47387,2,0,P|25:259|16:218,1,71.9999978027344,0|0,1:0|1:0,0:0:0:0:
41,193,47785,2,0,P|34:155|26:115,1,71.9999978027344,0|0,3:0|3:0,0:0:0:0:
67,53,48316,1,8,3:2:0:0:
133,8,48582,1,2,3:2:0:0:
176,73,48847,85,2,1:2:0:0:
228,132,49113,2,0,P|264:128|308:119,1,71.9999978027344,0|8,1:0|0:0,0:0:0:0:
330,97,49511,1,0,1:0:0:0:
363,210,49909,2,0,P|327:213|291:220,1,71.9999978027344,0|0,3:0|3:0,0:0:0:0:
267,251,50307,1,0,3:0:0:0:
227,319,50573,2,0,P|275:355|321:349,1,107.999996704102,0|8,1:0|0:1,0:0:0:0:
355,330,51104,5,8,0:1:0:0:
426,366,51369,1,8,0:1:0:0:
488,315,51635,2,0,P|480:275|474:224,1,73.199996984253,8|8,0:1|0:1,0:0:0:0:
459,163,52166,1,8,0:1:0:0:
493,90,52431,2,0,L|486:51,1,36.5999984921265,8|8,0:1|3:1,0:0:0:0:
334,9,53095,86,0,P|283:56|196:58,1,143.999995605469,4|0,1:2|3:0,0:0:0:0:
150,11,53891,1,0,1:0:0:0:
92,63,54157,2,0,P|84:127|77:215,1,143.999995605469,0|8,3:0|0:0,0:0:0:0:
220,137,55219,6,0,P|217:205|207:291,1,143.999995605469,0|0,1:0|0:0,0:0:0:0:
263,337,56015,1,0,1:0:0:0:
335,304,56281,2,0,P|372:310|405:318,1,71.9999978027344,0|0,3:0|1:0,0:0:0:0:
470,272,56812,1,8,0:0:0:0:
424,120,57343,86,0,P|390:112|348:106,1,71.9999978027344,2|0,1:2|0:0,0:0:0:0:
291,156,57874,2,0,P|256:149|219:144,1,71.9999978027344,0|2,3:0|1:2,0:0:0:0:
172,80,58405,2,0,P|119:126|49:123,1,143.999995605469,0|10,3:0|0:0,0:0:0:0:
134,256,59467,1,2,3:2:0:0:
7,318,61591,70,0,B|68:314|47:357|118:357,1,109.79999547638,4|2,1:0|1:2,0:0:0:0:
199,280,62387,1,2,1:2:0:0:
252,339,62652,2,0,P|306:349|369:368,1,109.79999547638,0|2,3:0|1:2,0:0:0:0:
473,325,63449,1,0,3:0:0:0:
434,254,63714,38,0,P|442:200|455:140,1,109.79999547638,2|2,1:2|1:2,0:0:0:0:
364,64,64511,1,2,1:2:0:0:
299,111,64776,2,0,P|264:143|195:147,2,109.79999547638,0|2|2,3:0|1:2|1:2,0:0:0:0:
357,167,65838,54,0,P|386:208|449:215,1,109.79999547638,4|2,1:2|1:2,0:0:0:0:
479,203,66369,1,2,3:2:0:0:
510,277,66635,2,0,L|504:313,1,36.5999984921265,2|2,1:2|3:2,0:0:0:0:
442,365,67033,1,2,3:2:0:0:
385,308,67298,2,0,P|348:299|302:293,1,73.199996984253,2|2,3:2|3:2,0:0:0:0:
283,321,67697,1,2,3:2:0:0:
202,327,67962,38,0,P|164:319|118:314,1,73.199996984253,2|2,1:2|3:2,0:0:0:0:
59,354,68493,2,0,P|54:315|46:276,1,73.199996984253,2|2,3:2|1:2,0:0:0:0:
13,259,68891,1,2,3:2:0:0:
39,182,69157,2,0,L|33:146,2,36.5999984921265,8|8|8,0:1|1:0|1:0,0:0:0:0:
132,105,69821,1,8,0:1:0:0:
177,37,70086,38,0,P|212:30|262:23,1,74.39999704834,4|0,1:0|0:0,0:0:0:0:
277,54,70484,2,0,P|314:45|362:39,1,74.39999704834,2|0,1:2|0:0,0:0:0:0:
387,21,70883,1,2,1:2:0:0:
443,80,71148,2,0,P|431:133|421:197,1,111.59999557251,2|2,0:0|1:2,0:0:0:0:
505,279,71945,1,0,3:0:0:0:
447,337,72210,6,0,P|406:343|354:352,1,74.39999704834,2|0,1:2|0:0,0:0:0:0:
343,320,72608,2,0,P|304:324|250:335,1,74.39999704834,2|0,1:2|0:0,0:0:0:0:
234,307,73006,1,2,1:2:0:0:
174,363,73272,1,2,0:0:0:0:
54,336,73670,2,0,P|5:308|4:246,1,111.59999557251,2|2,1:2|0:3,0:0:0:0:
39,185,74334,85,4,1:2:0:0:
112,219,74599,1,2,3:2:0:0:
161,153,74865,2,0,P|196:143|236:136,1,74.39999704834,10|2,0:0|1:2,0:0:0:0:
261,167,75263,2,0,P|307:199|359:189,1,111.59999557251,2|0,0:0|1:0,0:0:0:0:
397,177,75794,2,0,L|435:187,1,37.19999852417,0|8,1:0|0:0,0:0:0:0:
502,143,76192,1,2,3:2:0:0:
464,69,76458,6,0,P|424:59|374:50,1,74.39999704834,2|2,1:2|0:0,0:0:0:0:
363,22,76856,2,0,L|318:13,1,37.19999852417,2|8,1:2|0:0,0:0:0:0:
273,77,77254,2,0,P|233:67|183:58,1,74.39999704834,2|2,1:2|0:0,0:0:0:0:
160,51,77652,2,0,L|167:2,2,37.19999852417,8|8|8,0:1|1:0|0:1,0:0:0:0:
62,125,78316,1,8,0:1:0:0:
8,184,78582,54,2,B|-1:254|-1:254|28:292,1,109.79999547638,4|2,1:0|1:0,0:0:0:0:
88,332,79245,1,2,1:0:0:0:
148,278,79511,2,2,L|163:196,2,73.199996984253,0|0|2,1:0|3:0|3:1,0:0:0:0:
242,355,80440,1,2,3:1:0:0:
309,311,80706,6,2,B|349:298|349:298|409:337,1,109.79999547638,0|2,1:0|1:0,0:0:0:0:
483,312,81369,1,2,3:1:0:0:
456,236,81635,1,2,3:1:0:0:
506,56,82829,86,2,B|464:66|464:66|443:56|443:56|382:70,1,109.79999547638,0|2,1:0|3:1,0:0:0:0:
336,17,83493,1,2,1:0:0:0:
252,24,83759,2,2,B|211:29|211:29|179:66,2,73.199996984253,0|0|2,1:0|3:0|3:1,0:0:0:0:
336,110,84688,1,2,3:1:0:0:
282,170,84953,6,2,B|261:202|261:202|175:215,1,109.79999547638,0|2,1:0|3:1,0:0:0:0:
126,163,85617,1,2,1:0:0:0:
54,125,85883,1,2,1:0:0:0:
8,191,86148,2,0,L|27:334,1,109.79999547638,2|10,1:2|0:0,0:0:0:0:
89,344,86812,1,2,0:0:0:0:
161,374,87077,54,0,P|197:368|246:363,1,71.9999978027344,2|0,1:2|0:0,0:0:0:0:
309,384,87608,1,8,0:0:0:0:
368,331,87874,2,0,L|362:292,1,35.9999989013672,0|0,3:0|1:0,0:0:0:0:
301,245,88272,1,2,3:2:0:0:
355,187,88537,1,0,3:0:0:0:
452,118,88936,1,0,3:0:0:0:
412,49,89201,6,0,P|375:52|317:63,1,71.9999978027344,0|0,1:0|0:0,0:0:0:0:
277,9,89732,2,0,L|234:16,1,35.9999989013672,8|0,0:0|1:0,0:0:0:0:
188,73,90130,1,0,3:0:0:0:
125,23,90396,2,0,P|69:40|47:87,1,107.999996704102,2|8,1:2|3:2,0:0:0:0:
100,140,91060,1,0,3:0:0:0:
48,199,91325,85,2,1:2:0:0:
0,262,91591,2,0,P|7:298|16:351,1,71.9999978027344,0|8,1:0|0:0,0:0:0:0:
81,373,92122,2,0,L|131:381,1,35.9999989013672,0|0,3:0|1:0,0:0:0:0:
173,322,92520,1,2,3:2:0:0:
228,266,92785,1,0,3:0:0:0:
310,351,93183,1,0,3:0:0:0:
382,319,93449,6,0,P|387:283|396:242,2,71.9999978027344,0|0|8,1:0|0:0|0:0,0:0:0:0:
485,378,94378,2,0,P|493:324|507:256,1,107.999996704102,0|0,3:0|3:0,0:0:0:0:
464,202,95042,2,0,P|458:165|452:127,1,71.9999978027344,10|2,0:0|0:0,0:0:0:0:
489,60,95573,85,2,1:2:0:0:
422,13,95838,2,0,P|365:21|303:35,1,107.999996704102,0|0,1:0|1:0,0:0:0:0:
224,107,96635,2,0,P|201:78|194:25,2,71.9999978027344,0|0|8,3:0|3:0|3:2,0:0:0:0:
327,166,97564,1,2,3:2:0:0:
253,259,97962,6,0,P|200:263|147:275,1,107.999996704102,0|0,1:0|1:0,0:0:0:0:
55,352,98759,2,0,P|32:323|25:270,2,71.9999978027344,0|0|8,3:0|3:0|3:2,0:0:0:0:
129,384,99555,1,2,3:2:0:0:
187,330,99821,86,0,P|222:323|271:318,1,71.9999978027344,2|0,1:2|0:0,0:0:0:0:
329,353,100352,2,0,L|366:349,1,35.9999989013672,8|0,0:0|1:0,0:0:0:0:
482,365,100883,2,0,P|473:328|465:287,1,71.9999978027344,0|0,3:0|3:0,0:0:0:0:
488,262,101281,1,0,3:0:0:0:
481,183,101546,2,0,P|442:151|377:162,1,107.999996704102,0|8,1:0|0:1,0:0:0:0:
355,130,102077,5,8,0:1:0:0:
279,158,102343,1,8,0:1:0:0:
212,204,102608,2,0,P|206:165|196:118,1,73.199996984253,8|8,0:1|0:1,0:0:0:0:
135,83,103139,1,8,0:1:0:0:
66,125,103405,2,0,L|27:117,1,36.5999984921265,8|8,0:1|3:1,0:0:0:0:
3,273,104068,86,0,P|71:273|103:335,1,143.999995605469,4|0,1:2|3:0,0:0:0:0:
170,376,104865,1,0,1:0:0:0:
229,324,105130,2,0,P|299:313|381:306,1,143.999995605469,0|8,0:0|0:0,0:0:0:0:
493,204,106192,6,0,P|500:167|511:125,2,71.9999978027344,0|0|0,1:0|0:0|0:0,0:0:0:0:
436,260,106989,1,0,1:0:0:0:
376,208,107254,2,0,P|340:212|303:218,1,71.9999978027344,0|0,3:0|1:0,0:0:0:0:
251,158,107785,1,8,3:2:0:0:
166,23,108316,86,0,P|130:27|86:35,1,71.9999978027344,2|0,1:2|0:0,0:0:0:0:
42,93,108847,2,0,P|46:129|58:174,1,71.9999978027344,0|2,3:0|1:2,0:0:0:0:
116,213,109378,2,0,P|151:208|186:198,1,71.9999978027344,0|0,3:0|2:0,2:0:0:0:
233,134,109909,1,10,0:0:0:0:
346,244,110440,1,2,3:2:0:0:
48,266,112564,54,0,B|110:260|92:307|163:304,1,111.59999557251,4|2,1:0|1:2,0:0:0:0:
267,269,113360,1,2,1:2:0:0:
320,330,113626,2,0,P|365:329|396:304,1,74.39999704834,2|0,0:0|1:0,0:0:0:0:
423,292,114024,2,0,P|429:253|439:217,1,74.39999704834,2|2,1:2|0:0,0:0:0:0:
413,186,114422,1,2,0:0:0:0:
465,122,114688,6,0,P|436:81|376:79,1,111.59999557251,2|2,1:2|1:2,0:0:0:0:
270,20,115484,1,2,1:2:0:0:
202,66,115750,2,0,P|209:103|215:146,1,74.39999704834,2|0,0:0|1:0,0:0:0:0:
194,175,116148,2,0,P|201:212|212:292,1,111.59999557251,2|2,1:2|1:3,0:0:0:0:
146,335,116812,85,4,1:2:0:0:
85,384,117077,1,2,3:2:0:0:
23,329,117343,2,0,P|17:290|9:251,1,74.39999704834,10|2,0:0|1:2,0:0:0:0:
41,229,117741,1,2,0:0:0:0:
98,171,118006,1,2,0:0:0:0:
28,127,118272,2,0,L|18:84,1,37.19999852417,2|8,1:2|0:0,0:0:0:0:
58,18,118670,1,2,3:2:0:0:
132,51,118936,5,2,1:2:0:0:
204,88,119201,2,0,L|259:76,1,37.19999852417,2|2,0:0|1:2,0:0:0:0:
276,100,119467,2,0,P|311:92|362:85,1,74.39999704834,10|2,0:0|1:2,0:0:0:0:
383,108,119865,1,2,0:0:0:0:
450,62,120130,2,8,L|459:17,2,37.19999852417,8|8|8,0:1|1:0|1:0,0:0:0:0:
505,174,120794,1,8,0:1:0:0:
447,232,121060,86,4,P|404:232|371:247,1,74.39999704834,4|0,1:0|0:0,0:0:0:0:
344,217,121458,2,0,P|311:236|290:270,1,74.39999704834,2|0,1:2|0:0,0:0:0:0:
295,306,121856,1,2,1:2:0:0:
236,362,122122,2,0,P|178:370|120:381,1,111.59999557251,2|2,0:0|1:2,0:0:0:0:
36,295,122918,1,2,0:0:0:0:
95,241,123183,6,0,P|90:202|86:160,1,74.39999704834,2|0,1:2|0:0,0:0:0:0:
53,142,123582,2,0,P|48:101|44:58,1,74.39999704834,2|0,1:2|1:0,0:0:0:0:
75,40,123980,1,2,1:2:0:0:
146,0,124245,1,2,0:0:0:0:
212,103,124644,2,0,P|251:137|320:134,1,111.59999557251,2|2,1:2|1:3,0:0:0:0:
363,78,125307,85,4,1:2:0:0:
440,52,125573,1,2,3:2:0:0:
475,125,125838,2,0,P|463:163|452:219,1,74.39999704834,10|2,0:0|1:2,0:0:0:0:
481,229,126237,2,0,P|467:285|413:300,1,111.59999557251,2|0,0:0|1:0,0:0:0:0:
400,336,126768,2,0,L|356:345,1,37.19999852417,0|8,1:0|0:0,0:0:0:0:
282,358,127166,1,2,3:2:0:0:
217,306,127431,6,0,P|178:314|134:320,1,74.39999704834,2|2,1:2|0:0,0:0:0:0:
109,296,127829,2,0,L|67:304,1,37.19999852417,2|8,1:2|0:0,0:0:0:0:
21,238,128228,2,0,P|25:201|36:147,1,74.39999704834,2|2,1:2|3:2,0:0:0:0:
14,127,128626,2,0,L|20:81,2,37.19999852417,8|8|8,0:1|0:1|0:1,0:0:0:0:
132,94,129290,1,8,0:1:0:0:
99,18,129555,5,2,1:2:0:0:
40,83,138051,86,0,P|60:63|102:57,2,71.9999978027344,2|0|8,1:2|3:0|3:2,0:0:0:0:
50,121,138714,2,0,L|39:192,1,71.9999978027344,2|2,1:2|1:2,0:0:0:0:
181,330,139644,2,0,L|189:279,1,35.9999989013672,8|2,0:0|1:2,0:0:0:0:
268,208,140175,6,0,B|345:192|329:255|406:249,2,143.999995605469,2|8|0,1:2|0:0|0:0,0:0:0:0:
238,180,141369,1,2,1:2:0:0:
318,92,141768,2,0,L|326:46,1,35.9999989013672,8|2,0:0|1:2,0:0:0:0:
214,12,142298,86,0,L|105:34,2,107.999996704102,2|2|2,1:2|3:2|3:2,0:0:0:0:
289,37,143360,2,0,L|394:15,2,107.999996704102,2|2|2,0:0|3:2|0:0,0:0:0:0:
240,99,144422,5,2,1:2:0:0:
287,208,144821,1,2,3:2:0:0:
394,157,145219,1,2,0:0:0:0:
446,215,145484,2,0,P|433:269|426:326,1,107.999996704102,2|2,0:0|3:2,0:0:0:0:
323,381,146281,1,2,3:2:0:0:
246,359,146546,85,2,1:2:0:0:
131,197,147210,2,0,L|47:210,2,71.9999978027344,2|2|0,1:2|1:2|3:0,0:0:0:0:
242,239,148139,2,0,L|250:194,1,35.9999989013672,8|2,0:0|1:2,0:0:0:0:
332,118,148670,6,0,P|301:62|220:59,1,143.999995605469,2|8,1:2|0:0,0:0:0:0:
50,146,149865,1,2,1:2:0:0:
118,243,150263,2,0,L|111:287,1,35.9999989013672,8|2,0:0|1:2,0:0:0:0:
204,353,150794,86,0,P|250:351|286:302,2,107.999996704102,2|2|2,1:2|3:2|0:0,0:0:0:0:
142,300,151856,2,0,P|96:302|60:351,2,107.999996704102,2|2|2,0:0|3:2|0:0,0:0:0:0:
256,192,152918,12,0,154511,0:0:0:0:
488,29,155042,86,0,P|453:71|385:73,1,111.59999557251,4|2,1:0|1:2,0:0:0:0:
291,17,155838,1,2,1:2:0:0:
236,78,156104,2,0,P|197:83|163:93,1,74.39999704834,2|0,0:0|1:0,0:0:0:0:
135,122,156502,2,0,P|96:127|62:137,1,74.39999704834,2|2,1:2|0:0,0:0:0:0:
33,166,156900,1,2,0:0:0:0:
10,244,157166,6,0,P|33:286|97:286,1,111.59999557251,2|2,1:2|1:2,0:0:0:0:
185,367,157962,1,2,1:2:0:0:
259,332,158228,2,0,P|266:292|276:245,1,74.39999704834,2|0,0:0|1:0,0:0:0:0:
310,241,158626,2,0,P|319:184|334:117,1,111.59999557251,2|2,1:2|1:3,0:0:0:0:
288,60,159290,85,4,1:2:0:0:
349,6,159555,1,2,0:0:0:0:
430,16,159821,2,0,P|438:55|444:95,1,74.39999704834,10|2,0:0|1:2,0:0:0:0:
473,117,160219,1,2,1:2:0:0:
420,180,160484,1,2,0:0:0:0:
485,229,160750,2,0,L|493:285,1,37.19999852417,2|8,1:2|0:0,0:0:0:0:
439,329,161148,1,2,3:2:0:0:
380,384,161414,5,2,1:2:0:0:
317,331,161679,2,0,L|274:319,1,37.19999852417,2|0,3:2|1:0,0:0:0:0:
256,287,161945,2,0,P|217:276|181:270,1,74.39999704834,10|2,0:0|1:2,0:0:0:0:
156,240,162343,1,2,0:0:0:0:
89,287,162608,2,0,L|80:334,2,37.19999852417,8|8|8,3:1|0:1|0:1,0:0:0:0:
5,201,163272,1,8,0:1:0:0:
65,146,163537,86,4,P|60:108|51:65,1,74.39999704834,4|0,1:0|0:0,0:0:0:0:
76,39,163936,2,4,P|112:46|149:51,1,74.39999704834,2|0,1:2|0:0,0:0:0:0:
185,69,164334,1,2,1:2:0:0:
245,13,164599,2,0,P|295:21|355:33,1,111.59999557251,2|2,0:0|1:2,0:0:0:0:
474,5,165396,1,2,0:0:0:0:
508,78,165661,6,0,P|503:117|499:159,1,74.39999704834,2|0,1:2|0:0,0:0:0:0:
461,168,166060,2,0,P|456:209|452:252,1,74.39999704834,2|0,1:2|0:0,0:0:0:0:
422,269,166458,1,2,1:2:0:0:
474,332,166723,1,2,0:0:0:0:
362,382,167122,2,0,P|327:350|254:351,1,111.59999557251,2|2,1:2|1:3,0:0:0:0:
186,369,167785,85,4,1:2:0:0:
134,304,168051,1,2,0:0:0:0:
193,247,168316,2,0,P|198:206|211:147,1,74.39999704834,10|2,0:0|1:2,0:0:0:0:
235,145,168714,2,0,P|210:102|148:104,1,111.59999557251,2|0,0:0|1:0,0:0:0:0:
70,89,169378,1,8,0:0:0:0:
17,152,169644,1,2,3:2:0:0:
34,232,169909,6,0,P|55:262|100:277,1,74.39999704834,2|2,1:2|0:0,0:0:0:0:
121,301,170307,2,0,P|157:293|212:286,1,74.39999704834,2|8,1:2|0:1,0:0:0:0:
224,315,170706,1,8,1:1:0:0:
290,362,170971,2,0,P|337:356|360:322,1,74.39999704834,2|8,0:0|1:1,0:0:0:0:
392,322,171369,2,0,P|398:282|411:234,1,74.39999704834,8|8,1:0|0:1,0:0:0:0:
382,214,171768,1,8,0:1:0:0:
324,153,172033,69,4,1:3:0:0:
437,86,172431,2,2,L|445:37,1,37.7999988464356,0|12,3:0|1:0,0:0:0:0:
413,18,172697,1,2,3:1:0:0:
338,54,172962,2,2,L|259:40,2,75.5999976928712,0|0|2,1:0|3:0|1:0,0:0:0:0:
406,158,173891,1,2,1:0:0:0:
341,210,174157,6,2,B|304:233|304:233|219:214,1,113.399996539307,0|2,1:0|1:0,0:0:0:0:
174,161,174821,1,2,1:0:0:0:
117,100,175086,1,2,1:0:0:0:
48,146,175352,2,0,L|42:185,1,37.7999988464356,0|0,3:2|1:0,0:0:0:0:
8,208,175617,1,0,1:0:0:0:
74,313,176015,1,2,1:0:0:0:
136,257,176281,85,4,1:2:0:0:
231,336,176679,2,2,B|313:319|313:319|348:343,1,113.399996539307,2|2,1:0|1:0,0:0:0:0:
373,356,177210,2,2,P|426:370|470:335,1,113.399996539307,2|2,0:1|1:0,0:0:0:0:
498,307,177741,2,0,L|490:252,1,37.7999988464356,0|8,1:0|2:0,0:0:0:0:
417,233,178139,6,0,L|409:187,1,37.7999988464356,2|2,3:1|3:1,0:1:0:0:
463,131,178537,2,0,L|493:152,2,37.7999988464356,2|2|2,3:1|3:1|1:0,0:0:0:0:
427,55,179068,2,0,L|464:48,2,37.7999988464356,2|2|2,3:1|1:0|3:1,0:0:0:0:
346,71,179599,86,0,L|302:80,1,37.7999988464356,8|8,3:1|1:0,0:0:0:0:
268,88,179865,1,8,1:0:0:0:
192,53,180130,2,0,P|165:80|120:86,1,75.5999976928712,8|8,0:1|0:1,0:0:0:0:
94,110,180529,86,0,P|102:146|109:193,1,75.5999976928712,4|2,1:1|0:0,0:0:0:0:
78,214,180927,2,0,P|86:250|93:297,1,75.5999976928712,2|2,1:2|0:0,0:0:0:0:
129,307,181325,2,0,P|188:327|241:262,1,151.199995385742,0|0,1:0|1:0,0:0:0:0:
316,232,182122,1,8,0:0:0:0:
366,297,182387,1,0,3:0:0:0:
446,276,182652,38,0,P|453:235|464:192,1,75.5999976928712,2|2,1:2|0:0,0:0:0:0:
489,171,183051,2,0,P|496:133|507:89,1,75.5999976928712,2|2,1:2|0:0,0:0:0:0:
481,62,183449,1,0,1:0:0:0:
400,40,183714,2,0,P|381:74|340:97,1,75.5999976928712,0|0,3:0|1:0,2:0:0:0:
311,80,184113,2,0,P|271:80|230:57,1,75.5999976928712,0|0,1:0|2:0,2:0:0:0:
231,24,184511,1,0,1:0:0:0:
156,59,184776,54,0,P|130:150|7:146,2,226.799993078614,4|0|8,1:2|1:0|0:0,0:0:0:0:
231,208,186900,38,0,P|286:199|359:191,2,113.399996539307,2|2|0,1:2|1:2|1:0,0:0:0:0:
204,286,187962,2,0,P|166:290|129:298,1,75.5999976928712,2|8,3:2|1:0,0:0:0:0:
88,292,188360,2,0,P|82:255|75:204,1,75.5999976928712,8|2,1:0|1:2,0:0:0:0:
41,193,188759,1,8,0:1:0:0:
95,130,189024,1,4,1:0:0:0:
211,294,189688,22,0,P|246:299|281:307,1,71.9999978027344,0|0,3:0|3:0,0:0:0:0:
332,368,190219,1,2,3:2:0:0:
444,330,190617,2,0,P|450:294|458:249,1,71.9999978027344,8|0,0:0|3:0,0:0:0:0:
406,197,191148,6,0,B|391:120|453:134|444:62,1,143.999995605469,2|8,1:2|0:0,0:0:0:0:
417,34,191812,2,0,L|334:19,2,71.9999978027344,0|0|2,3:0|3:0|3:2,0:0:0:0:
347,130,192741,2,0,L|270:117,1,71.9999978027344,8|0,0:0|3:0,0:0:0:0:
227,53,193272,22,2,B|187:47|187:47|167:58|167:58|121:49,1,109.79999547638,6|2,1:2|1:0,0:0:0:0:
48,14,193936,1,2,3:1:0:0:
1,78,194201,2,2,L|22:172,1,73.199996984253,0|2,3:1|0:1,0:0:0:0:
34,228,194732,2,2,B|48:294|48:294|94:326,1,109.79999547638,0|2,1:0|3:1,0:0:0:0:
144,266,195396,86,2,L|262:244,1,109.79999547638,0|2,1:2|1:0,0:0:0:0:
315,196,196060,1,2,3:1:0:0:
365,258,196325,1,2,3:1:0:0:
440,229,196591,6,0,L|447:264,2,36.5999984921265,8|8|8,0:1|1:0|1:0,0:0:0:0:
469,201,196989,2,0,L|452:123,1,73.199996984253,8|8,0:1|0:0,0:0:0:0:
498,62,197520,53,0,1:0:0:0:
