osu file format v14

[General]
AudioFilename: audio.mp3
AudioLeadIn: 0
PreviewTime: 112498
Countdown: 0
SampleSet: Soft
StackLeniency: 0.4
Mode: 0
LetterboxInBreaks: 0
WidescreenStoryboard: 1

[Editor]
Bookmarks: 10617,27608,28006,28272,28537,28803,29068,29467,29732,30130,30396,30661,30927,31325,31458,31591,31856,32254,32520,32785,33051,33316,33714,33980,34378,34644,34909,35175,35573,35706,35838,36104,61591,62652,63714,64776,65838,66900,67962,69024,70086,78582,78980,79245,79511,79776,80042,80440,80706,81104,81369,81635,81900,82298,82431,82564,82829,83228,83493,83759,84024,84290,84688,84953,85352,85617,85883,86148,86546,86679,86812,87077,112564,129555,155042,172033,172431,172564,172697,172962,173228,173493,173891,174157,174555,174821,175086,175352,175750,175883,176015,176148,176679,176812,176945,177077,177210,177475,177608,178006,178139,178272,178537,178670,178803,179068,179201,179334,179599,179732,179865,179998,180130,180263,180396,180529,189024,193006,193272,193670,193936,194201,194467,194732,195130,195396,195794,196060,196325,197520
DistanceSpacing: 1.4
BeatDivisor: 8
GridSize: 8
TimelineZoom: 1.8

[Metadata]
Title:Daisan no Shinzou
TitleUnicode:第三の心臓
Artist:Harumaki Gohan
ArtistUnicode:はるまきごはん
Creator:Chills
Version:Insane
Source:
Tags:japanese electronic pop jpop j-pop vocaloid cover self-cover The Third Heart
BeatmapID:3067207
BeatmapSetID:1495201

[Difficulty]
HPDrainRate:5
CircleSize:4
OverallDifficulty:7
ApproachRate:8.8
SliderMultiplier:1.7
SliderTickRate:1

[Events]
//Background and Video events
0,0,"bg.jpeg",0,0
Video,1495,"harumaki.mp4"
//Break Periods
//Storyboard Layer 0 (Background)
//Storyboard Layer 1 (Fail)
//Storyboard Layer 2 (Pass)
//Storyboard Layer 3 (Foreground)
//Storyboard Layer 4 (Overlay)
//Storyboard Sound Samples

[TimingPoints]
2122,530.973451327434,4,2,1,45,1,0
2122,-66.6666666666667,4,2,1,45,0,0
5175,-133.333333333333,4,2,1,45,0,0
5838,-66.6666666666667,4,2,1,45,0,0
9422,-133.333333333333,4,2,1,45,0,0
9821,-66.6666666666667,4,2,1,45,0,0
10617,-66.6666666666667,4,2,1,50,0,0
27608,-62.5,4,1,1,60,0,0
27807,-62.5,4,2,1,5,0,0
27873,-62.5,4,2,1,60,0,0
28006,-62.5,4,1,1,60,0,0
28073,-62.5,4,2,1,5,0,0
28138,-62.5,4,2,1,60,0,0
28272,-62.5,4,1,1,60,0,0
28338,-62.5,4,2,1,5,0,0
28404,-62.5,4,2,1,60,0,0
28537,-62.5,4,1,1,60,0,0
28604,-62.5,4,2,1,5,0,0
28669,-62.5,4,2,1,60,0,0
28803,-62.5,4,1,1,60,0,0
28869,-62.5,4,2,1,5,0,0
28935,-62.5,4,2,1,60,0,0
29467,-62.5,4,1,1,60,0,0
29533,-62.5,4,2,1,5,0,0
29599,-62.5,4,2,1,60,0,0
30130,-62.5,4,1,1,60,0,0
30197,-62.5,4,2,1,5,0,0
30262,-62.5,4,2,1,60,0,0
30396,-62.5,4,1,1,60,0,0
30462,-62.5,4,2,1,5,0,0
30528,-62.5,4,2,1,60,0,0
30661,-62.5,4,1,1,60,0,0
30728,-62.5,4,2,1,5,0,0
30794,-62.5,4,2,1,60,0,0
31856,-62.5,4,1,1,60,0,0
32055,-62.5,4,2,1,5,0,0
32121,-62.5,4,2,1,60,0,0
32254,-62.5,4,1,1,60,0,0
32321,-62.5,4,2,1,5,0,0
32386,-62.5,4,2,1,60,0,0
32520,-62.5,4,1,1,60,0,0
32586,-62.5,4,2,1,5,0,0
32652,-62.5,4,2,1,60,0,0
32785,-62.5,4,1,1,60,0,0
32852,-62.5,4,2,1,5,0,0
32917,-62.5,4,2,1,60,0,0
33051,-62.5,4,1,1,60,0,0
33117,-62.5,4,2,1,5,0,0
33183,-62.5,4,2,1,60,0,0
33714,-62.5,4,1,1,60,0,0
33781,-62.5,4,2,1,5,0,0
33846,-62.5,4,2,1,60,0,0
34378,-62.5,4,1,1,60,0,0
34445,-62.5,4,2,1,5,0,0
34510,-62.5,4,2,1,60,0,0
34644,-62.5,4,1,1,60,0,0
34710,-62.5,4,2,1,5,0,0
34776,-62.5,4,2,1,60,0,0
34909,-62.5,4,1,1,60,0,0
34975,-62.5,4,2,1,5,0,0
35042,-62.5,4,2,1,60,0,0
37697,-62.5,4,2,1,50,0,0
37829,-76.9230769230769,4,2,1,50,0,0
38228,-66.6666666666667,4,2,1,50,0,0
50971,-66.6666666666667,4,2,1,55,0,0
52564,-100,4,2,1,55,0,0
53095,-100,4,2,1,50,0,0
59732,-100,4,2,1,5,0,0
61325,-100,4,2,1,50,0,0
61591,-57.1428571428571,4,2,1,65,0,0
61989,-57.1428571428571,4,2,2,65,0,0
65440,-57.1428571428571,4,2,2,65,0,0
65506,-57.1428571428571,4,2,2,65,0,0
65838,-57.1428571428571,4,2,1,65,0,0
70086,-50,4,2,2,70,0,1
74334,-50,4,2,1,70,0,1
78582,-62.5,4,1,2,60,0,0
78781,-62.5,4,2,1,5,0,0
78847,-62.5,4,2,1,60,0,0
78980,-62.5,4,1,1,60,0,0
79046,-62.5,4,2,1,5,0,0
79112,-62.5,4,2,1,60,0,0
79245,-62.5,4,1,1,60,0,0
79312,-62.5,4,2,1,5,0,0
79377,-62.5,4,2,1,60,0,0
79511,-62.5,4,1,1,60,0,0
79577,-62.5,4,2,1,5,0,0
79643,-62.5,4,2,1,60,0,0
79776,-62.5,4,1,1,60,0,0
79843,-62.5,4,2,1,5,0,0
79908,-62.5,4,2,1,60,0,0
80440,-62.5,4,1,1,60,0,0
80506,-62.5,4,2,1,5,0,0
80572,-62.5,4,2,1,60,0,0
81104,-62.5,4,1,1,60,0,0
81170,-62.5,4,2,1,5,0,0
81236,-62.5,4,2,1,60,0,0
81369,-62.5,4,1,1,60,0,0
81436,-62.5,4,2,1,5,0,0
81501,-62.5,4,2,1,60,0,0
81635,-62.5,4,1,1,60,0,0
81701,-62.5,4,2,1,5,0,0
81768,-62.5,4,2,1,60,0,0
82829,-62.5,4,1,1,60,0,0
83029,-62.5,4,2,1,5,0,0
83094,-62.5,4,2,1,60,0,0
83228,-62.5,4,1,1,60,0,0
83294,-62.5,4,2,1,5,0,0
83360,-62.5,4,2,1,60,0,0
83493,-62.5,4,1,1,60,0,0
83560,-62.5,4,2,1,5,0,0
83625,-62.5,4,2,1,60,0,0
83759,-62.5,4,1,1,60,0,0
83825,-62.5,4,2,1,5,0,0
83891,-62.5,4,2,1,60,0,0
84024,-62.5,4,1,1,60,0,0
84091,-62.5,4,2,1,5,0,0
84156,-62.5,4,2,1,60,0,0
84688,-62.5,4,1,1,60,0,0
84754,-62.5,4,2,1,5,0,0
84820,-62.5,4,2,1,60,0,0
85352,-62.5,4,1,1,60,0,0
85418,-62.5,4,2,1,5,0,0
85484,-62.5,4,2,1,60,0,0
85617,-62.5,4,1,1,60,0,0
85683,-62.5,4,2,1,5,0,0
85749,-62.5,4,2,1,60,0,0
85883,-62.5,4,1,1,60,0,0
85949,-62.5,4,2,1,5,0,0
86015,-62.5,4,2,1,60,0,0
86812,-66.6666666666667,4,2,1,60,0,0
87077,-66.6666666666667,4,2,1,50,0,0
97829,-66.6666666666667,4,2,1,5,0,0
97962,-66.6666666666667,4,2,1,50,0,0
101945,-66.6666666666667,4,2,1,55,0,0
103537,-100,4,2,1,55,0,0
104068,-100,4,2,1,50,0,0
110971,-100,4,2,1,5,0,0
112298,-100,4,2,1,50,0,0
112564,-50,4,2,2,70,0,1
116812,-50,4,2,1,70,0,1
120130,-50,4,2,2,70,0,1
125307,-50,4,2,1,70,0,1
129555,-100,4,2,1,50,0,0
131281,-100,4,2,2,50,0,0
131414,-100,4,2,1,50,0,0
132874,-100,4,2,2,50,0,0
133006,-100,4,2,1,50,0,0
133405,-100,4,2,2,50,0,0
133537,-100,4,2,1,50,0,0
137122,-100,4,2,2,50,0,0
137254,-100,4,2,1,50,0,0
138714,-100,4,2,2,50,0,0
140042,-100,4,2,1,50,0,0
141369,-100,4,2,2,50,0,0
142298,-100,4,2,1,50,0,0
142962,-100,4,2,2,50,0,0
143095,-100,4,2,1,50,0,0
143228,-100,4,2,2,50,0,0
143360,-100,4,2,1,50,0,0
144024,-100,4,2,2,50,0,0
144157,-100,4,2,1,50,0,0
145086,-100,4,2,2,50,0,0
145219,-100,4,2,1,50,0,0
145616,-100,4,2,2,50,0,0
145620,-100,4,2,2,50,0,0
145750,-100,4,2,1,50,0,0
147210,-100,4,2,2,50,0,0
147608,-100,4,2,1,50,0,0
148272,-100,4,2,2,50,0,0
148405,-100,4,2,1,50,0,0
149865,-100,4,2,2,50,0,0
149998,-100,4,2,1,50,0,0
150396,-100,4,2,2,50,0,0
150529,-100,4,2,1,50,0,0
151458,-100,4,2,2,50,0,0
151591,-100,4,2,1,50,0,0
151723,-100,4,2,2,50,0,0
151856,-100,4,2,1,50,0,0
152520,-100,4,2,2,50,0,0
152652,-100,4,2,1,50,0,0
152951,-100,4,2,2,5,0,0
153449,-100,4,2,3,10,0,0
153582,-100,4,2,4,20,0,0
153714,-100,4,2,3,30,0,0
153847,-100,4,2,4,40,0,0
153980,-100,4,2,3,50,0,0
154113,-100,4,2,4,60,0,0
154245,-100,4,2,3,70,0,0
154378,-100,4,2,3,40,0,0
154511,-100,4,2,3,50,0,0
155042,-50,4,2,2,70,0,1
159290,-50,4,2,1,70,0,1
163537,-50,4,2,2,70,0,1
167785,-50,4,2,1,70,0,1
172033,-100,4,2,1,60,0,0
172431,-100,4,2,2,60,0,0
172564,-50,4,2,1,75,0,1
172697,-50,4,1,1,75,0,1
172763,-50,4,2,1,5,0,1
172829,-50,4,2,1,75,0,1
172962,-50,4,1,1,75,0,1
173029,-50,4,2,1,5,0,1
173094,-50,4,2,1,75,0,1
173228,-50,4,1,1,75,0,1
173294,-50,4,2,1,5,0,1
173360,-50,4,2,1,75,0,1
173891,-50,4,1,1,75,0,1
173958,-50,4,2,1,5,0,1
174023,-50,4,2,1,75,0,1
174555,-50,4,1,1,75,0,1
174622,-50,4,2,1,5,0,1
174687,-50,4,2,1,75,0,1
174821,-50,4,1,1,75,0,1
174887,-50,4,2,1,5,0,1
174953,-50,4,2,1,75,0,1
175086,-50,4,1,1,75,0,1
175152,-50,4,2,1,5,0,1
175219,-50,4,2,1,75,0,1
175352,-50,4,2,1,60,0,1
176679,-50,4,2,2,75,0,1
177210,-50,4,2,1,75,0,1
177475,-50,4,2,2,75,0,1
177608,-50,4,2,1,75,0,1
178139,-50,4,2,2,80,0,1
178405,-50,4,2,1,75,0,1
178670,-50,4,2,2,90,0,1
178936,-50,4,2,1,75,0,1
179201,-50,4,2,2,100,0,1
179467,-50,4,2,1,75,0,1
180396,-50,4,2,1,50,0,1
180529,-50,4,2,1,75,0,1
189024,-66.6666666666667,4,2,1,45,0,0
193272,-66.6666666666667,4,1,1,60,0,0
193471,-66.6666666666667,4,2,1,5,0,0
193537,-66.6666666666667,4,2,1,60,0,0
193670,-66.6666666666667,4,1,1,60,0,0
193737,-66.6666666666667,4,2,1,5,0,0
193802,-66.6666666666667,4,2,1,60,0,0
193936,-66.6666666666667,4,1,1,60,0,0
194002,-66.6666666666667,4,2,1,5,0,0
194068,-66.6666666666667,4,2,1,60,0,0
194201,-66.6666666666667,4,1,1,60,0,0
194268,-66.6666666666667,4,2,1,5,0,0
194333,-66.6666666666667,4,2,1,60,0,0
194467,-66.6666666666667,4,2,2,60,0,0
194599,-66.6666666666667,4,2,1,60,0,0
195130,-66.6666666666667,4,1,1,60,0,0
195197,-66.6666666666667,4,2,1,5,0,0
195262,-66.6666666666667,4,2,1,60,0,0
195794,-66.6666666666667,4,1,1,60,0,0
195860,-66.6666666666667,4,2,1,5,0,0
195926,-66.6666666666667,4,2,1,60,0,0
196060,-66.6666666666667,4,1,1,60,0,0
196126,-66.6666666666667,4,2,1,5,0,0
196192,-66.6666666666667,4,2,1,60,0,0
196325,-66.6666666666667,4,1,1,60,0,0
196391,-66.6666666666667,4,2,1,5,0,0
196457,-66.6666666666667,4,2,1,60,0,0
197520,-66.6666666666667,4,2,1,50,0,0

[Colours]
Combo1 : 253,196,196
Combo2 : 133,186,250
Combo3 : 128,207,255
Combo4 : 254,148,112
Combo5 : 247,128,128
Combo6 : 184,149,255
Combo7 : 240,203,254

[HitObjects]
34,42,2122,6,0,B|99:31|85:93|169:64,1,127.500004863739,2|0,1:2|0:0,0:0:0:0:
242,46,2520,2,0,L|231:117,1,63.7500024318696,0|8,0:0|0:0,0:0:0:0:
359,34,2785,2,0,P|353:68|348:105,1,63.7500024318696,0|0,1:2|0:0,0:0:0:0:
463,223,3051,2,0,P|415:183|345:204,1,127.500004863739,0|2,1:2|3:2,0:0:0:0:
333,365,3449,1,0,3:0:0:0:
353,356,3582,1,0,3:0:0:0:
377,349,3714,2,0,P|383:315|392:277,1,63.7500024318696,8|0,3:2|1:2,0:0:0:0:
249,324,3980,2,0,P|255:290|264:252,1,63.7500024318696
148,220,4245,6,0,P|81:231|10:245,1,127.500004863739,0|0,1:2|0:0,0:0:0:0:
1,335,4644,2,0,P|28:328|63:321,1,63.7500024318696,0|8,0:0|0:0,0:0:0:0:
104,138,4909,2,0,P|72:144|41:152,1,63.7500024318696
142,308,5175,86,0,B|174:303|174:303|204:292,1,63.7500024318696,0|2,0:0|1:2,0:0:0:0:
273,164,5573,1,0,3:0:0:0:
280,182,5706,1,0,3:0:0:0:
288,200,5838,2,0,P|319:209|356:218,1,63.7500024318696,8|0,3:2|1:2,0:0:0:0:
299,30,6104,2,0,P|268:39|237:46,1,63.7500024318696
34,42,6369,6,0,B|99:31|85:93|169:64,1,127.500004863739,2|0,1:2|0:0,0:0:0:0:
34,132,6768,2,0,P|27:163|24:194,1,63.7500024318696,0|8,0:0|0:0,0:0:0:0:
152,171,7033,2,0,P|145:202|142:233,1,63.7500024318696,0|0,1:2|0:0,0:0:0:0:
19,300,7298,2,0,P|45:350|120:355,1,127.500004863739,0|2,1:2|3:2,0:0:0:0:
252,242,7697,1,0,3:0:0:0:
273,232,7829,1,0,3:0:0:0:
295,224,7962,2,0,P|286:258|280:296,1,63.7500024318696,8|0,3:2|1:2,0:0:0:0:
476,197,8228,2,0,P|467:162|461:125,1,63.7500024318696
350,26,8493,86,0,P|362:87|375:164,1,127.500004863739,0|0,1:2|0:0,0:0:0:0:
268,65,8891,2,0,P|263:36|254:2,1,63.7500024318696,0|8,0:0|0:0,0:0:0:0:
448,72,9157,2,0,P|455:102|461:134,1,63.7500024318696,0|0,0:0|3:0,0:0:0:0:
297,206,9422,6,0,B|294:171|294:171|283:143,1,63.7500024318696,0|2,3:2|1:2,0:0:0:0:
152,209,9821,1,0,3:0:0:0:
159,227,9953,1,0,3:0:0:0:
167,245,10086,2,0,P|197:252|235:263,1,63.7500024318696,8|0,0:0|1:2,0:0:0:0:
284,360,10352,2,0,P|314:367|352:378,1,63.7500024318696,0|0,3:2|3:0,0:0:0:0:
499,252,10617,85,2,1:2:0:0:
499,252,10883,2,0,P|462:255|432:269,1,63.7500024318696
480,164,11148,2,0,P|443:167|413:181,1,63.7500024318696,8|0,0:0|1:2,0:0:0:0:
295,61,11414,1,0,0:0:0:0:
314,68,11546,1,0,1:2:0:0:
336,76,11679,2,0,P|329:45|324:8,2,63.7500024318696,0|2|0,0:0|3:2|3:0,0:0:0:0:
444,86,12077,2,0,P|437:55|432:18,1,63.7500024318696,0|8,3:0|3:2,0:0:0:0:
204,73,12343,1,0,1:2:0:0:
219,64,12475,2,0,P|212:33|207:-4,1,63.7500024318696,0|0,3:0|3:0,0:0:0:0:
77,137,12741,6,0,B|138:127|127:185|195:168,1,127.500004863739,0|0,1:2|0:0,0:0:0:0:
284,145,13139,2,0,P|285:182|268:209,1,63.7500024318696,0|8,0:0|0:0,0:0:0:0:
72,293,13405,2,0,P|71:256|88:229,1,63.7500024318696
249,322,13670,2,0,P|250:359|233:386,2,63.7500024318696,0|0|2,0:0|0:0|1:2,0:0:0:0:
386,289,14068,1,0,3:0:0:0:
399,304,14201,1,0,3:0:0:0:
408,317,14334,2,0,P|439:310|477:305,2,63.7500024318696,8|0|0,3:2|1:2|3:2,0:0:0:0:
502,181,14732,1,0,3:2:0:0:
418,196,14865,86,0,P|386:202|355:206,1,63.7500024318696,2|0,1:2|0:0,0:0:0:0:
300,20,15130,1,0,0:0:0:0:
315,31,15263,1,0,0:0:0:0:
333,41,15396,2,0,P|338:73|345:106,1,63.7500024318696,8|0,0:0|1:2,0:0:0:0:
221,132,15661,1,0,0:0:0:0:
232,119,15794,2,0,P|225:87|220:56,1,63.7500024318696,0|0,1:2|0:0,0:0:0:0:
112,84,16060,2,0,P|117:115|123:146,1,63.7500024318696,2|0,3:2|3:0,0:0:0:0:
2,171,16325,1,0,3:0:0:0:
14,156,16458,2,0,P|7:124|2:93,1,63.7500024318696,8|0,3:2|1:2,0:0:0:0:
112,266,16723,1,0,3:2:0:0:
98,246,16856,1,0,3:2:0:0:
85,227,16989,6,0,P|117:232|161:241,1,63.7500024318696,0|0,1:2|0:0,0:0:0:0:
217,328,17254,2,0,P|249:333|293:342,1,63.7500024318696
376,273,17520,1,8,0:0:0:0:
147,238,17785,2,0,P|179:243|223:252,1,63.7500024318696,0|0,0:0|1:0,0:0:0:0:
279,339,18051,2,0,P|311:344|355:353,2,63.7500024318696,0|2|0,0:0|1:2|3:0,0:0:0:0:
450,289,18449,2,0,P|482:294|526:303,2,63.7500024318696,0|8|0,3:0|3:2|1:2,0:0:0:0:
303,160,18847,2,0,P|309:195|318:231,1,63.7500024318696,0|0,3:0|3:0,0:0:0:0:
472,153,19113,86,0,P|488:93|500:28,1,127.500004863739,2|0,1:2|0:0,0:0:0:0:
382,85,19511,1,0,0:0:0:0:
356,7,19644,1,8,0:0:0:0:
337,0,19776,2,0,P|304:6|273:14,2,63.7500024318696,0|0|0,1:0|0:0|1:0,0:0:0:0:
211,84,20175,2,0,P|178:90|147:98,1,63.7500024318696,0|2,0:0|0:0,0:0:0:0:
168,177,20440,1,0,3:0:0:0:
87,189,20573,2,0,P|54:195|23:203,1,63.7500024318696,0|8,3:0|3:2,0:0:0:0:
163,361,20838,2,0,P|193:366|225:374,2,63.7500024318696,0|0|0,1:0|3:0|3:0,0:0:0:0:
38,352,21237,6,0,P|39:320|52:291,1,63.7500024318696,0|0,1:0|0:0,0:0:0:0:
159,263,21502,2,0,P|187:248|218:245,1,63.7500024318696
342,267,21768,1,8,0:0:0:0:
284,321,21900,2,0,P|310:337|328:363,1,63.7500024318696
456,306,22166,2,0,P|466:245|485:172,1,127.500004863739,0|2,0:0|1:2,0:0:0:0:
504,32,22564,2,0,P|508:65|491:94,1,63.7500024318696,0|0,3:0|3:0,0:0:0:0:
397,48,22829,2,0,P|401:81|384:110,1,63.7500024318696,8|0,3:2|1:0,0:0:0:0:
212,73,23095,2,0,P|207:41|221:13,1,63.7500024318696,0|0,3:0|3:0,0:0:0:0:
303,69,23360,85,2,1:2:0:0:
123,78,23626,1,0,0:0:0:0:
103,91,23759,2,0,P|110:122|117:163,1,63.7500024318696,0|8,0:0|0:0,0:0:0:0:
0,289,24024,2,0,P|4:257|12:226,1,63.7500024318696,0|0,1:0|0:0,0:0:0:0:
182,310,24290,2,0,P|143:367|77:374,1,127.500004863739,0|2,1:0|0:0,0:0:0:0:
244,250,24688,2,0,P|267:278|273:319,1,63.7500024318696,0|0,3:0|3:0,0:0:0:0:
225,153,24953,2,0,P|261:156|294:181,1,63.7500024318696,8|0,3:2|1:0,0:0:0:0:
0,2,25219,2,0,P|56:13|141:31,1,127.500004863739,0|0,3:0|1:0,0:0:0:0:
418,87,25750,5,0,0:0:0:0:
335,72,25883,2,0,P|303:63|266:57,1,63.7500024318696,0|8,0:0|0:0,0:0:0:0:
480,101,26148,2,0,P|448:92|411:86,1,63.7500024318696,0|0,1:0|0:0,0:0:0:0:
333,195,26414,2,0,P|364:188|404:181,2,63.7500024318696,0|0|2,1:0|0:0|1:2,0:0:0:0:
493,356,26812,2,0,P|461:348|424:341,1,63.7500024318696,0|0,3:0|3:0,0:0:0:0:
227,316,27077,1,8,3:2:0:0:
305,374,27210,6,0,L|315:318,1,31.8750012159348,0|0,1:0|3:0,0:0:0:0:
319,372,27343,2,0,L|337:278,1,95.6250036478044,0|0,3:0|0:0,0:0:0:0:
325,256,27608,6,2,B|280:219|280:219|182:248,1,136,0|0,1:0|3:0,0:0:0:0:
1,213,28006,2,2,L|80:189,1,68,0|8,3:0|0:0,0:0:0:0:
153,164,28272,2,2,L|232:140,1,68,0|0,1:0|0:0,0:0:0:0:
67,50,28537,2,2,B|65:91|65:91|90:120,1,68,0|0,1:0|0:0,0:0:0:0:
228,2,28803,2,2,B|197:29|197:29|194:67,1,68,0|0,3:0|3:0,0:0:0:0:
406,52,29068,2,2,B|343:56|343:56|296:113,1,136,0|0,3:0|1:0,0:1:0:0:
490,160,29467,2,2,L|479:93,1,68,0|0,3:0|3:0,0:0:0:0:
411,366,29732,86,2,B|400:280|400:280|451:273,1,136,0|0,1:0|3:0,0:1:0:0:
399,190,30130,2,2,L|311:202,1,68,0|8,3:0|0:0,0:0:0:0:
245,154,30396,2,2,L|191:224,1,68,0|0,3:0|0:0,0:0:0:0:
111,214,30661,2,2,L|123:302,1,68,0|0,3:0|0:0,0:0:0:0:
245,154,30927,2,0,L|238:108,2,34,0|0|0,1:0|3:0|3:0,0:0:0:0:
11,72,31192,1,0,3:0:0:0:
33,92,31325,2,0,L|45:180,1,68,8|0,3:2|1:0,0:0:0:0:
182,46,31591,1,2,1:2:0:0:
96,15,31723,1,2,0:0:0:0:
161,124,31856,6,2,B|252:107|252:107|265:170,1,136,0|0,1:0|3:0,0:0:0:0:
219,261,32254,2,2,L|296:277,1,68,0|8,3:0|0:0,0:0:0:0:
374,223,32520,2,2,L|451:239,1,68,0|0,1:0|0:0,0:0:0:0:
151,381,32785,2,2,B|130:353|130:353|132:304,1,68,0|0,0:0|0:0,0:0:0:0:
256,331,33051,2,2,B|260:296|260:296|297:263,1,68,0|0,3:0|3:0,0:0:0:0:
358,367,33316,2,2,B|393:336|393:336|502:364,1,136,0|0,3:0|1:0,0:1:0:0:
462,225,33714,2,2,L|395:211,1,68,0|0,3:0|3:0,0:0:0:0:
382,100,33980,86,2,B|441:113|441:113|446:121|446:121|515:136,1,136,0|0,1:0|3:0,0:1:0:0:
266,42,34378,2,2,L|332:27,1,68,0|8,3:0|0:0,0:0:0:0:
128,70,34644,2,2,L|164:12,1,68,0|0,1:0|0:0,0:0:0:0:
52,153,34909,2,2,L|35:87,1,68,0|0,1:0|0:0,0:0:0:0:
212,162,35175,2,0,L|221:199,2,34,0|0|0,1:0|3:0|3:0,0:0:0:0:
338,189,35440,1,2,0:0:0:0:
354,207,35573,2,0,L|337:272,1,68,10|2,0:0|1:2,0:0:0:0:
101,349,35838,1,2,3:2:0:0:
66,278,35971,1,0,3:0:0:0:
134,231,36104,69,2,1:2:0:0:
482,48,37697,5,8,0:0:0:0:
461,65,37829,2,0,L|338:38,1,110.499994941712,0|0,1:0|0:0,0:0:0:0:
259,14,38228,86,0,B|244:77|300:71|281:144,1,127.500004863739,0|0,1:0|0:0,0:0:0:0:
236,218,38626,1,0,0:0:0:0:
307,273,38759,1,8,0:0:0:0:
322,252,38891,2,0,P|351:246|391:241,1,63.7500024318696,0|0,1:0|0:0,0:0:0:0:
484,357,39157,2,0,P|451:361|421:367,1,63.7500024318696,0|0,1:0|0:0,0:0:0:0:
474,229,39422,2,0,L|521:221,2,31.8750012159348,2|0|0,1:2|3:0|3:0,0:0:0:0:
512,119,39688,1,0,3:0:0:0:
500,142,39821,2,0,P|467:144|435:150,3,63.7500024318696,8|0|0|0,3:2|1:0|3:0|3:0,0:0:0:0:
218,59,40352,6,0,P|258:16|325:27,1,127.500004863739,2|0,1:2|0:0,0:0:0:0:
379,82,40750,1,0,0:0:0:0:
300,179,40883,1,8,0:0:0:0:
287,156,41015,2,0,P|255:148|224:144,1,63.7500024318696,0|0,1:0|0:0,0:0:0:0:
83,248,41281,2,0,P|112:256|146:260,1,63.7500024318696,0|0,1:0|0:0,0:0:0:0:
117,158,41546,1,2,3:2:0:0:
110,145,41679,2,0,P|77:137|47:133,1,63.7500024318696,0|0,3:0|3:0,0:0:0:0:
18,35,41945,2,0,P|83:44|155:61,1,127.500004863739,8|0,3:2|3:0,0:0:0:0:
207,16,42343,1,0,3:0:0:0:
341,11,42475,86,0,P|333:43|327:90,1,63.7500024318696,0|0,1:0|0:0,0:0:0:0:
448,144,42741,2,0,P|440:178|434:223,1,63.7500024318696
292,279,43006,1,8,0:0:0:0:
300,83,43272,1,0,0:0:0:0:
329,73,43405,2,0,P|317:135|306:201,1,127.500004863739,0|2,0:0|1:2,0:0:0:0:
436,206,43803,2,0,P|428:241|422:285,1,63.7500024318696,0|0,3:0|3:0,0:0:0:0:
228,335,44068,1,10,3:2:0:0:
199,283,44201,1,2,1:2:0:0:
142,266,44334,1,2,3:2:0:0:
87,291,44467,1,2,3:2:0:0:
9,244,44599,5,2,1:2:0:0:
9,244,44865,2,0,P|69:230|152:220,1,127.500004863739,0|8,0:0|0:0,0:0:0:0:
206,128,45263,2,0,P|172:132|133:140,1,63.7500024318696,0|0,1:0|0:0,0:0:0:0:
3,76,45529,1,0,1:0:0:0:
16,62,45661,2,0,P|47:54|78:51,1,63.7500024318696,0|2,0:0|3:2,0:0:0:0:
175,41,45927,2,0,P|206:37|237:30,1,63.7500024318696,0|0,3:0|3:0,0:0:0:0:
364,74,46192,1,8,3:2:0:0:
341,84,46325,1,0,1:0:0:0:
320,94,46458,2,0,P|313:124|309:156,1,63.7500024318696,2|2,3:2|3:2,0:0:0:0:
478,269,46723,86,0,P|488:203|436:159,1,127.500004863739,0|0,1:0|0:0,0:0:0:0:
383,247,47122,1,0,0:0:0:0:
429,358,47254,1,8,0:0:0:0:
412,340,47387,2,0,P|349:348|278:362,1,127.500004863739,0|0,1:0|1:0,0:0:0:0:
258,265,47785,2,0,P|225:268|196:276,1,63.7500024318696,0|2,0:0|1:2,0:0:0:0:
104,294,48051,2,0,P|72:301|41:304,1,63.7500024318696,0|0,3:0|3:0,0:0:0:0:
119,117,48316,1,8,3:2:0:0:
138,128,48449,1,0,1:0:0:0:
156,138,48582,2,0,P|151:170|144:203,1,63.7500024318696,2|2,3:2|3:2,0:0:0:0:
182,3,48847,6,0,B|238:0|233:48|306:38,1,127.500004863739,0|0,1:0|0:0,0:0:0:0:
375,4,49245,1,0,0:0:0:0:
479,97,49378,1,8,0:0:0:0:
456,89,49511,2,0,P|461:60|469:27,2,63.7500024318696,0|0|0,1:0|0:0|1:0,0:0:0:0:
299,190,49909,2,0,P|297:223|316:256,1,63.7500024318696,0|2,0:0|3:2,0:0:0:0:
442,247,50175,1,0,3:0:0:0:
463,232,50307,2,0,P|465:198|446:166,1,63.7500024318696,0|8,3:0|3:2,0:0:0:0:
230,283,50573,2,0,P|291:289|376:306,1,127.500004863739,0|0,1:0|3:0,0:0:0:0:
183,368,50971,85,8,0:1:0:0:
99,321,51104,2,0,L|79:174,1,127.500004863739,8|8,0:1|0:1,0:0:0:0:
267,0,51635,1,8,0:1:0:0:
193,68,51768,1,8,0:1:0:0:
278,131,51900,2,0,L|295:257,2,127.500004863739,8|8|8,0:1|0:1|0:1,0:0:0:0:
506,145,52564,2,0,L|497:93,3,42.5,8|0|0|0,0:1|3:0|3:0|3:0,0:0:0:0:
477,32,53095,6,0,L|293:1,1,170,4|0,1:2|3:0,0:0:0:0:
228,77,53891,1,0,1:0:0:0:
306,147,54157,2,0,P|325:229|256:275,1,170,0|8,0:0|0:0,0:0:0:0:
55,179,54953,1,0,0:0:0:0:
73,166,55086,1,0,0:0:0:0:
94,155,55219,2,0,L|231:181,2,127.5,0|0|0,1:0|1:0|1:0,0:0:0:0:
45,54,56281,2,0,L|130:70,1,85,0|0,0:0|1:0,0:0:0:0:
229,20,56679,86,0,L|224:-7,1,21.25,0|0,1:0|3:0,0:0:0:0:
244,37,56812,2,0,L|297:47,3,42.5,8|0|0|0,0:0|3:0|3:0|3:0,0:0:0:0:
442,50,57343,6,0,P|381:62|351:132,1,127.5,2|0,1:2|1:0,0:0:0:0:
363,133,57874,1,0,0:0:0:0:
188,173,58139,2,0,P|224:168|250:206,2,85,2|0|0,1:2|0:0|0:0,0:0:0:0:
482,250,58936,2,0,P|408:255|378:345,1,170,10|2,0:0|3:2,0:0:0:0:
256,192,59732,12,0,61325,1:0:0:0:
476,320,61591,54,0,B|402:311|410:378|335:361,1,148.750001418591,4|0,1:0|0:0,0:0:0:0:
245,304,61989,2,0,P|291:249|371:281,1,148.750001418591,2|0,1:2|0:0,0:0:0:0:
428,213,62387,2,0,P|424:176|416:125,1,74.3750007092953,2|0,1:2|0:0,0:0:0:0:
197,41,62652,2,0,P|206:111|221:198,1,148.750001418591,2|0,0:0|1:0,0:0:0:0:
123,180,63051,1,2,1:2:0:0:
146,254,63183,2,0,B|149:291|149:291|128:253,1,74.3750007092953,8|0,0:0|3:0,0:0:0:0:
42,285,63449,2,0,P|20:257|27:206,1,74.3750007092953,2|0,0:0|0:0,0:0:0:0:
204,355,63714,22,0,P|176:377|125:370,2,74.3750007092953,2|0|0,1:2|0:0|0:0,0:0:0:0:
364,300,64113,2,0,P|335:277|298:277,2,74.3750007092953,2|0|0,1:2|0:0|0:0,0:0:0:0:
450,379,64511,2,0,P|458:346|465:293,1,74.3750007092953,2|0,1:2|0:0,0:0:0:0:
230,232,64776,2,0,P|295:220|387:208,1,148.750001418591,2|0,0:0|1:0,0:0:0:0:
431,143,65175,1,2,1:2:0:0:
365,85,65307,2,0,P|396:60|442:65,1,74.3750007092953,8|2,0:0|1:2,0:0:0:0:
202,36,65573,2,0,P|171:11|125:16,1,74.3750007092953,0|0,1:0|0:0,0:0:0:0:
244,142,65838,70,0,B|162:162|187:99|106:104,1,148.750001418591,4|2,1:2|0:0,0:0:0:0:
28,184,66237,1,2,1:2:0:0:
13,97,66369,2,0,P|7:60|-1:19,1,74.3750007092953,2|0,0:0|0:0,0:0:0:0:
147,226,66635,1,2,1:2:0:0:
165,250,66768,2,0,P|156:287|151:323,1,74.3750007092953,2|0,0:0|0:0,0:0:0:0:
267,231,67033,2,0,P|261:194|253:157,1,74.3750007092953,2|0,0:0|1:0,0:0:0:0:
391,242,67298,1,2,1:2:0:0:
439,301,67431,2,0,P|430:338|425:374,1,74.3750007092953,8|2,0:0|3:2,0:0:0:0:
477,107,67697,2,0,P|468:144|463:180,1,74.3750007092953,2|2,3:2|0:0,0:0:0:0:
235,49,67962,37,2,1:2:0:0:
293,35,68095,1,2,0:0:0:0:
343,71,68228,1,2,0:0:0:0:
346,131,68360,1,2,1:2:0:0:
307,172,68493,2,0,P|303:208|335:251,1,74.3750007092953,2|0,0:0|0:0,0:0:0:0:
259,326,68759,1,2,1:2:0:0:
248,344,68891,2,0,P|270:372|323:380,2,74.3750007092953,2|0|8,0:0|3:0|0:1,0:0:0:0:
175,295,69290,54,0,P|135:306|93:311,1,74.3750007092953,8|8,1:0|1:0,0:0:0:0:
0,155,69555,2,0,P|33:146|72:140,1,74.3750007092953,8|0,0:0|0:0,0:0:0:0:
209,0,69821,1,8,0:1:0:0:
129,47,69953,1,8,0:1:0:0:
176,121,70086,86,0,P|219:110|263:103,1,85,4|0,1:0|0:0,0:0:0:0:
401,134,70352,1,0,0:0:0:0:
380,56,70484,2,0,B|418:31|418:31|447:80,1,85,2|8,1:2|0:0,0:0:0:0:
488,229,70750,1,0,0:0:0:0:
448,292,70883,2,0,P|417:322|358:325,1,85,2|0,1:2|0:0,0:0:0:0:
234,189,71148,6,0,P|275:197|305:226,1,85,2|0,0:0|0:0,0:0:0:0:
185,367,71414,1,0,1:0:0:0:
135,291,71546,1,2,1:2:0:0:
44,328,71679,2,0,P|37:280|25:229,1,85,8|0,0:0|3:0,0:0:0:0:
44,231,71878,1,0,3:0:0:0:
58,215,71945,2,0,P|52:171|41:116,1,85,0|0,3:0|0:0,0:0:0:0:
1,40,72210,86,0,P|38:11|85:12,2,85,2|0|0,1:2|0:0|0:0,0:0:0:0:
252,137,72608,2,0,P|210:133|178:105,2,85,2|8|0,1:2|0:0|0:0,0:0:0:0:
382,70,73006,2,0,P|386:110|365:158,1,85,2|0,1:2|0:0,0:0:0:0:
225,281,73272,6,0,P|265:287|324:301,1,85,2|0,0:0|0:0,0:0:0:0:
512,171,73537,1,0,1:0:0:0:
443,134,73670,1,2,1:2:0:0:
370,151,73803,1,8,0:0:0:0:
327,212,73936,1,0,1:0:0:0:
328,285,74068,2,0,P|340:319|382:352,1,85,2|0,0:3|0:0,0:0:0:0:
512,64,74334,86,0,P|426:51|332:39,1,170,4|2,1:2|0:0,0:0:0:0:
121,61,74732,1,0,1:0:0:0:
198,9,74865,2,0,P|206:53|218:101,1,85,10|0,0:0|0:0,0:0:0:0:
22,218,75130,1,2,1:2:0:0:
40,212,75263,6,0,P|49:170|57:128,2,85,2|0|0,0:0|0:0|0:0,0:0:0:0:
175,237,75661,1,0,1:0:0:0:
132,308,75794,1,0,1:0:0:0:
204,369,75927,2,0,P|246:359|294:350,1,85,8|0,0:0|3:0,0:0:0:0:
300,338,76126,1,0,3:0:0:0:
311,327,76192,2,0,P|353:317|401:308,1,85,2|2,3:2|0:0,0:0:0:0:
512,162,76458,86,0,P|467:151|416:142,1,85,2|0,1:2|0:0,0:0:0:0:
462,19,76723,1,2,0:0:0:0:
374,57,76856,2,0,P|329:46|278:37,2,85,2|8|0,1:2|0:0|0:0,0:0:0:0:
177,73,77254,2,0,P|147:34|154:-16,1,85,2|0,1:2|0:0,0:0:0:0:
341,136,77520,5,2,0:0:0:0:
319,218,77652,2,0,L|306:273,2,42.5,8|8|8,0:1|0:1|1:0,0:0:0:0:
248,115,77918,1,8,1:0:0:0:
224,203,78051,2,0,P|213:246|205:286,1,85,8|8,0:0|0:1,0:0:0:0:
137,353,78316,1,8,0:1:0:0:
61,296,78449,1,8,0:1:0:0:
2,365,78582,54,2,B|14:293|14:293|12:286|12:286|24:221,1,136,4|0,1:0|0:1,0:0:0:0:
3,26,78980,2,2,L|15:92,1,68,0|8,1:0|0:0,0:0:0:0:
114,37,79245,2,2,L|126:103,1,68,0|0,1:0|0:0,0:0:0:0:
313,26,79511,2,2,B|275:20|275:20|245:40,1,68,0|0,1:0|0:0,0:0:0:0:
318,136,79776,2,2,B|286:158|286:158|279:193,1,68,0|0,3:0|3:0,0:0:0:0:
406,219,80042,2,2,B|389:289|389:289|434:340,1,136,0|0,3:0|1:0,0:1:0:0:
496,245,80440,2,2,L|510:178,1,68,0|0,3:0|3:0,0:0:0:0:
458,0,80706,6,2,B|439:86|439:86|379:76,1,136,0|0,1:0|0:0,0:1:0:0:
266,0,81104,2,2,L|340:12,1,68,0|8,1:0|0:0,0:0:0:0:
184,128,81369,2,2,L|244:84,1,68,0|0,3:0|0:0,0:0:0:0:
269,260,81635,2,2,L|281:186,1,68,0|0,3:0|0:0,0:0:0:0:
52,286,81900,2,0,L|43:339,2,34,0|0|0,1:0|3:0|3:0,0:0:0:0:
149,243,82166,1,0,3:0:0:0:
169,260,82298,2,0,L|182:340,1,68,8|0,3:2|1:0,0:0:0:0:
188,124,82564,1,2,1:2:0:0:
104,77,82697,1,2,0:0:0:0:
0,202,82829,86,2,L|147:177,1,136,0|0,1:0|3:0,0:0:0:0:
252,29,83228,2,2,L|169:43,1,68,0|8,3:0|0:0,0:0:0:0:
386,104,83493,2,2,L|303:118,1,68,0|0,1:0|0:0,0:0:0:0:
412,13,83759,2,2,B|447:19|447:19|482:46,1,68,0|0,1:0|0:0,0:0:0:0:
438,166,84024,2,2,B|458:194|458:194|464:238,1,68,0|0,3:0|3:0,0:0:0:0:
356,248,84290,2,2,B|355:307|355:307|293:370,1,136,0|0,3:0|1:0,0:1:0:0:
235,306,84688,2,2,L|163:316,1,68,0|0,3:0|3:0,0:0:0:0:
17,219,84953,6,2,B|76:211|76:211|87:218|87:218|168:206,1,136,0|0,1:0|0:0,0:1:0:0:
57,47,85352,2,2,L|42:124,1,68,0|8,3:0|0:0,0:0:0:0:
210,34,85617,2,2,L|144:77,1,68,0|0,1:0|0:0,0:0:0:0:
342,120,85883,2,2,L|264:104,1,68,0|0,1:0|0:0,0:0:0:0:
446,32,86148,2,0,L|438:76,2,34,2|2|2,1:2|3:2|3:2,0:0:0:0:
507,143,86414,1,2,3:2:0:0:
483,158,86546,2,0,L|495:237,1,68,10|2,0:0|1:2,0:0:0:0:
326,234,86812,1,2,0:0:0:0:
382,298,86945,1,2,0:0:0:0:
320,360,87077,54,0,P|254:347|171:335,1,127.500004863739,2|0,1:2|0:0,0:0:0:0:
154,278,87475,1,0,0:0:0:0:
32,351,87608,2,0,P|27:315|20:283,1,63.7500024318696,8|0,0:0|1:0,0:0:0:0:
85,189,87874,1,0,0:0:0:0:
161,147,88006,2,0,P|95:138|16:124,1,127.500004863739,0|2,1:0|3:2,0:0:0:0:
180,51,88405,1,0,3:0:0:0:
202,45,88537,2,0,P|234:61|252:91,1,63.7500024318696,0|8,3:0|3:2,0:0:0:0:
357,59,88803,1,0,1:0:0:0:
376,70,88936,2,0,P|387:104|378:138,1,63.7500024318696,0|0,3:0|3:0,0:0:0:0:
260,255,89201,6,0,P|254:219|247:178,1,63.7500024318696,0|0,1:0|0:0,0:0:0:0:
361,276,89467,2,0,P|355:240|348:199,1,63.7500024318696
426,363,89732,1,8,0:0:0:0:
463,292,89865,2,0,P|457:256|450:215,1,63.7500024318696
282,43,90130,2,0,P|287:78|295:120,1,63.7500024318696
469,31,90396,2,0,L|463:-6,2,31.8750012159348,2|0|0,1:2|3:0|3:0,0:0:0:0:
360,10,90661,1,0,3:0:0:0:
378,20,90794,2,0,P|383:55|391:97,3,63.7500024318696,8|0|0|0,3:2|1:0|3:0|3:0,0:0:0:0:
249,192,91325,86,0,P|207:185|178:97,1,127.500004863739,2|0,1:2|0:0,0:0:0:0:
354,225,91723,1,0,0:0:0:0:
333,238,91856,2,0,P|325:270|321:301,1,63.7500024318696,8|0,0:0|1:0,0:0:0:0:
218,276,92122,1,0,0:0:0:0:
203,292,92254,2,0,P|211:321|215:355,1,63.7500024318696,0|0,1:0|0:0,0:0:0:0:
80,383,92520,2,0,P|84:351|91:320,1,63.7500024318696,2|0,3:2|3:0,0:0:0:0:
24,184,92785,2,0,P|19:215|12:246,2,63.7500024318696,0|8|0,3:0|3:2|1:0,0:0:0:0:
5,43,93183,1,0,3:0:0:0:
23,29,93316,1,0,3:0:0:0:
120,94,93449,6,0,P|85:98|43:107,1,63.7500024318696,0|0,1:0|0:0,0:0:0:0:
271,2,93714,2,0,P|239:7|208:11,1,63.7500024318696
263,125,93980,1,8,0:0:0:0:
204,176,94113,2,0,P|169:180|127:189,1,63.7500024318696
361,60,94378,2,0,P|331:6|257:9,1,127.500004863739,0|2,0:0|1:2,0:0:0:0:
389,144,94776,2,0,P|420:129|442:92,1,63.7500024318696,0|0,3:0|3:0,0:0:0:0:
281,242,95042,1,10,3:2:0:0:
313,291,95175,1,2,1:2:0:0:
371,304,95307,1,2,3:2:0:0:
424,276,95440,1,2,3:2:0:0:
487,358,95573,85,2,1:2:0:0:
487,358,95838,2,0,P|492:323|502:285,2,63.7500024318696,0|0|8,0:0|0:0|0:0,0:0:0:0:
376,206,96237,2,0,P|381:171|391:133,2,63.7500024318696,0|0|0,1:0|0:0|1:0,0:0:0:0:
498,295,96635,2,0,P|492:260|483:222,1,63.7500024318696,0|2,0:0|3:2,0:0:0:0:
387,143,96900,2,0,P|381:108|372:70,1,63.7500024318696,0|0,3:0|3:0,0:0:0:0:
247,57,97166,1,8,3:2:0:0:
270,45,97298,2,0,P|226:3|154:26,1,127.500004863739,0|2,1:0|3:2,0:0:0:0:
152,32,97697,1,0,1:0:0:0:
25,26,97962,6,0,P|19:61|10:99,2,63.7500024318696,0|0|8,0:0|0:0|0:0,0:0:0:0:
136,178,98360,2,0,P|130:213|121:251,2,63.7500024318696,0|0|0,1:0|0:0|1:0,0:0:0:0:
12,88,98759,2,0,P|17:123|27:161,1,63.7500024318696,0|2,0:0|1:2,0:0:0:0:
123,240,99024,2,0,P|128:275|138:313,1,63.7500024318696,0|0,3:0|3:0,0:0:0:0:
253,253,99290,1,8,3:2:0:0:
237,269,99422,2,0,P|281:311|353:288,1,127.500004863739,0|2,1:0|3:2,0:0:0:0:
352,276,99821,1,2,1:2:0:0:
256,85,100086,86,0,P|309:95|396:108,1,127.500004863739,0|8,0:0|0:0,0:0:0:0:
417,20,100484,2,0,P|384:15|337:5,2,63.7500024318696,0|0|0,1:0|0:0|1:0,0:0:0:0:
454,218,100883,2,0,P|456:185|437:152,1,63.7500024318696,0|2,0:0|3:2,0:0:0:0:
334,220,101148,1,0,3:0:0:0:
313,235,101281,2,0,P|311:269|330:301,1,63.7500024318696,0|8,3:0|3:2,0:0:0:0:
507,124,101546,2,0,P|446:118|361:101,1,127.500004863739,0|0,1:0|3:0,0:0:0:0:
303,51,101945,5,8,0:1:0:0:
380,105,102077,2,0,L|400:252,1,127.500004863739,8|8,0:1|0:1,0:0:0:0:
211,341,102608,1,8,0:1:0:0:
285,273,102741,1,8,0:1:0:0:
200,210,102874,2,0,L|183:84,2,127.500004863739,8|8|8,0:1|0:1|0:1,0:0:0:0:
23,51,103537,2,0,L|32:103,3,42.5,8|0|0|0,3:1|3:0|3:0|3:0,0:0:0:0:
75,165,104068,86,0,P|64:251|55:345,1,170,4|0,1:2|3:0,0:0:0:0:
227,374,104865,1,0,1:0:0:0:
279,300,105130,2,0,P|198:274|142:339,1,170,0|8,0:0|0:0,0:0:0:0:
357,370,105927,1,0,3:0:0:0:
374,357,106060,1,0,3:0:0:0:
396,347,106192,2,0,P|400:303|410:253,1,85,0|0,1:0|0:0,0:0:0:0:
317,184,106723,2,0,P|312:140|303:90,1,85,0|0,0:0|1:0,0:0:0:0:
407,262,107254,2,0,P|419:219|437:171,1,85,0|0,0:0|1:0,0:0:0:0:
491,73,107652,6,0,L|484:35,1,21.25,0|0,1:0|3:0,0:0:0:0:
477,88,107785,2,0,L|430:81,3,42.5,8|0|0|0,3:2|3:0|3:0|3:0,0:0:0:0:
340,13,108316,86,0,P|288:-1|234:59,1,127.5,2|0,1:2|1:0,0:0:0:0:
245,60,108847,1,0,0:0:0:0:
0,163,109113,2,0,P|36:158|62:196,2,85,2|0|0,1:2|0:0|0:0,0:0:0:0:
289,271,109909,2,0,P|239:252|161:339,1,170,10|2,0:0|3:2,0:0:0:0:
256,192,110706,12,0,112298,1:0:0:0:
17,301,112564,54,0,P|6:344|-1:388,1,85,4|0,1:0|0:0,0:0:0:0:
149,265,112829,1,0,0:0:0:0:
154,180,112962,2,0,P|110:178|80:211,1,85,2|8,1:2|0:0,0:0:0:0:
238,346,113228,1,0,0:0:0:0:
288,283,113360,2,0,P|328:274|390:264,1,85,2|0,1:2|0:0,0:0:0:0:
505,368,113626,6,0,P|463:375|421:384,1,85,2|0,0:0|0:0,0:0:0:0:
327,187,113891,1,0,1:0:0:0:
399,140,114024,1,2,1:2:0:0:
473,205,114157,2,0,P|480:157|492:106,1,85,8|2,0:0|0:0,0:0:0:0:
480,109,114356,1,2,0:0:0:0:
472,100,114422,2,0,P|466:56|455:1,1,85,2|2,0:0|0:0,0:0:0:0:
331,39,114688,86,0,P|294:10|247:11,2,85,2|0|0,1:2|0:0|0:0,0:0:0:0:
132,152,115086,2,0,P|174:148|206:120,2,85,2|8|0,1:2|0:0|1:0,0:0:0:0:
3,18,115484,2,0,P|13:59|22:110,1,85,2|0,1:2|0:0,0:0:0:0:
132,152,115750,6,0,P|122:193|113:244,1,85,2|0,0:0|0:0,0:0:0:0:
180,356,116015,1,0,1:0:0:0:
254,379,116148,1,2,1:2:0:0:
323,348,116281,1,8,0:0:0:0:
353,280,116414,1,0,1:0:0:0:
342,205,116546,2,0,P|297:205|269:247,1,85,2|0,1:3|0:0,0:0:0:0:
484,291,116812,86,0,P|495:207|515:111,1,170,4|2,1:2|0:0,0:0:0:0:
403,18,117210,1,2,1:2:0:0:
330,53,117343,2,0,P|351:84|402:92,1,85,10|0,0:0|0:0,0:0:0:0:
139,45,117608,1,2,1:2:0:0:
158,25,117741,6,0,P|202:31|241:41,2,85,2|0|2,0:0|0:0|0:0,0:0:0:0:
158,219,118139,1,0,1:0:0:0:
114,149,118272,1,2,1:2:0:0:
32,188,118405,2,0,P|20:231|9:277,1,85,8|2,0:0|3:2,0:0:0:0:
18,288,118604,1,0,3:0:0:0:
23,302,118670,2,0,P|10:347|0:391,1,85,2|2,3:2|3:2,0:0:0:0:
246,244,118936,86,0,P|223:212|175:205,1,85,2|0,1:2|0:0,0:0:0:0:
199,330,119201,1,2,0:0:0:0:
276,364,119334,1,2,1:2:0:0:
346,314,119467,2,0,P|362:278|344:233,1,85,10|0,0:0|0:0,0:0:0:0:
295,75,119732,1,2,1:2:0:0:
372,22,119865,5,2,0:0:0:0:
385,40,119998,2,0,P|423:48|480:57,1,85,0|8,0:0|0:1,0:0:0:0:
477,66,120197,1,8,0:1:0:0:
487,76,120263,2,0,P|456:106|460:150,1,85,8|8,1:0|1:0,0:0:0:0:
475,310,120529,2,0,P|429:297|386:290,1,85,8|0,1:2|1:0,0:0:0:0:
170,248,120794,1,8,0:1:0:0:
197,360,120927,1,8,0:1:0:0:
183,232,121060,86,4,P|191:191|197:145,1,85,4|0,1:0|0:0,0:0:0:0:
61,31,121325,1,0,0:0:0:0:
1,95,121458,2,0,B|30:124|30:124|88:108,1,85,2|8,1:2|0:0,0:0:0:0:
255,41,121723,1,0,0:0:0:0:
321,87,121856,2,0,P|315:129|307:170,1,85,2|0,1:2|0:0,0:0:0:0:
453,345,122122,6,0,P|458:300|469:243,1,85,2|0,0:0|0:0,0:0:0:0:
416,42,122387,1,0,1:0:0:0:
473,102,122520,1,2,1:2:0:0:
422,172,122652,2,0,P|374:179|323:191,1,85,8|2,0:0|0:0,0:0:0:0:
325,195,122852,1,2,0:0:0:0:
316,204,122918,2,0,P|272:210|217:221,1,85,2|2,0:0|0:0,0:0:0:0:
0,215,123183,86,0,P|37:186|84:187,2,85,2|0|0,1:2|0:0|0:0,0:0:0:0:
187,66,123582,2,0,P|145:62|113:34,2,85,2|8|0,1:2|0:0|1:0,0:0:0:0:
328,16,123980,2,0,P|335:60|311:101,1,85,2|0,1:2|0:0,0:0:0:0:
253,233,124245,6,0,P|294:223|336:217,1,85,2|0,0:0|0:0,0:0:0:0:
488,340,124511,1,0,1:0:0:0:
425,384,124644,1,2,1:2:0:0:
350,369,124776,1,8,0:0:0:0:
319,298,124909,1,0,1:0:0:0:
356,231,125042,2,0,P|395:209|452:221,1,85,2|0,1:3|0:0,0:0:0:0:
236,364,125307,86,0,P|156:344|61:325,1,170,4|2,1:2|0:0,0:0:0:0:
22,212,125706,1,0,1:0:0:0:
89,162,125838,2,0,P|79:121|70:71,1,85,10|0,0:0|0:0,0:0:0:0:
247,31,126104,1,2,1:2:0:0:
258,45,126237,6,0,P|248:85|239:136,2,85,2|0|0,0:0|0:0|0:0,0:0:0:0:
366,222,126635,1,0,1:0:0:0:
446,261,126768,1,0,1:0:0:0:
508,190,126900,2,0,P|498:148|489:100,1,85,8|0,0:0|3:0,0:0:0:0:
477,94,127099,1,0,3:0:0:0:
466,83,127166,2,0,P|456:41|447:-7,1,85,2|2,3:2|3:2,0:0:0:0:
258,133,127431,86,0,P|298:130|335:100,1,85,2|0,1:2|0:0,0:0:0:0:
76,19,127697,1,2,0:0:0:0:
137,83,127829,2,0,P|161:50|162:2,2,85,2|8|0,1:2|0:0|0:0,0:0:0:0:
0,194,128228,2,0,P|42:184|94:174,1,85,2|0,1:2|0:0,0:0:0:0:
188,352,128493,5,2,0:0:0:0:
167,269,128626,2,0,L|154:213,2,42.5,8|8|8,0:1|0:1|1:0,0:0:0:0:
305,380,128891,1,8,1:0:0:0:
283,291,129024,2,0,P|272:247|265:207,1,85,10|2,0:0|1:2,0:0:0:0:
370,147,129290,1,8,0:1:0:0:
438,200,129422,1,8,0:1:0:0:
473,116,129555,6,0,L|480:55,3,42.5,2|2|0|0,1:2|0:0|3:0|0:0,0:0:0:0:
389,61,130086,2,0,L|406:2,3,42.5,8|0|0|0,3:2|3:0|0:0|3:0,0:0:0:0:
485,132,130750,1,0,3:0:0:0:
473,116,130883,2,0,L|480:55,1,42.5
389,61,131148,2,0,L|406:2,3,42.5,8|2|0|0,3:2|1:2|0:0|3:0,0:0:0:0:
293,30,131679,86,0,L|241:39,3,42.5,2|2|0|0,1:2|0:0|3:0|0:0,0:0:0:0:
189,102,132210,2,0,L|147:94,3,42.5,8|0|0|0,3:2|3:0|0:0|3:0,0:0:0:0:
310,49,132874,1,2,1:2:0:0:
293,30,133006,2,0,L|241:39,1,42.5,0|0,0:0|3:0,0:0:0:0:
189,102,133272,2,0,L|147:94,3,42.5,8|2|0|0,0:0|1:2|0:0|3:0,0:0:0:0:
0,84,133803,6,0,L|7:137,3,42.5,0|0|0|0,1:0|0:0|3:0|0:0,0:0:0:0:
80,138,134334,2,0,L|73:191,3,42.5,8|0|0|0,3:2|3:0|0:0|3:0,0:0:0:0:
153,201,134865,2,0,L|136:251,3,42.5,0|0|0|0,0:0|3:0|0:0|3:0,0:0:0:0:
215,271,135396,2,0,L|190:318,3,42.5,8|0|0|0,3:2|1:0|3:0|0:0,0:0:0:0:
264,351,135927,86,0,L|231:393,3,42.5,2|2|0|0,1:2|0:0|3:0|0:0,0:0:0:0:
359,322,136458,2,0,L|334:369,3,42.5,8|0|0|0,3:2|3:0|0:0|3:0,0:0:0:0:
448,275,136989,2,0,L|431:325,3,42.5,0|2|0|0,0:0|1:2|0:0|3:0,0:0:0:0:
512,182,137520,2,0,L|505:235,1,42.5,8|0,3:2|1:0,0:0:0:0:
386,138,137785,5,0,0:0:0:0:
386,138,137918,1,2,0:0:0:0:
386,138,138051,2,0,L|441:128,1,42.5,2|2,1:2|3:2,0:0:0:0:
267,73,138316,2,0,L|308:80,1,42.5,0|0,0:0|3:0,0:0:0:0:
168,0,138582,2,0,L|207:14,3,42.5,8|2|0|2,3:2|1:2|0:0|1:2,0:0:0:0:
248,90,139245,1,0,3:0:0:0:
267,73,139378,2,0,L|308:80,1,42.5,0|0,0:0|3:0,0:0:0:0:
168,0,139644,2,0,L|207:14,3,42.5,8|2|0|0,0:0|1:2|0:0|3:0,0:0:0:0:
31,78,140175,85,2,1:2:0:0:
31,78,140307,1,2,3:2:0:0:
31,78,140440,2,0,L|20:25,1,42.5,0|0,0:0|3:0,0:0:0:0:
137,152,140706,2,0,L|148:99,1,42.5,8|0,0:0|3:0,0:0:0:0:
62,245,140971,2,0,L|51:192,1,42.5,0|0,0:0|3:0,0:0:0:0:
150,168,141369,1,2,1:2:0:0:
137,152,141502,2,0,L|148:99,1,42.5,0|0,0:0|3:0,0:0:0:0:
62,245,141768,2,0,L|51:192,3,42.5,8|2|0|0,0:0|1:2|0:0|3:0,0:0:0:0:
18,324,142298,6,0,L|74:336,2,42.5,2|0|0,1:2|3:0|0:0,0:0:0:0:
146,303,142697,2,0,L|202:315,2,42.5,2|8|2,3:2|0:0|1:2,0:0:0:0:
267,276,143095,2,0,L|323:288,1,42.5,2|2,3:2|1:2,0:0:0:0:
456,357,143360,2,0,L|414:348,2,42.5,2|0|0,0:0|3:0|0:0,0:0:0:0:
350,293,143759,2,0,L|308:284,2,42.5,2|8|2,3:2|0:0|1:2,0:0:0:0:
237,224,144157,2,0,L|195:215,1,42.5,2|0,0:0|3:0,0:0:0:0:
26,236,144422,86,0,L|82:248,2,42.5,2|0|0,1:2|3:0|0:0,0:0:0:0:
153,206,144821,2,0,L|209:218,2,42.5,2|8|2,3:2|0:0|1:2,0:0:0:0:
270,160,145219,2,0,L|326:172,1,42.5,2|0,0:0|3:0,0:0:0:0:
422,239,145484,2,0,L|464:248,2,42.5,2|2|0,0:0|1:2|0:0,0:0:0:0:
312,169,145883,2,0,L|354:178,2,42.5,2|8|0,3:2|3:2|1:0,0:0:0:0:
196,82,146281,2,0,L|238:91,1,42.5,2|2,3:2|0:0,0:0:0:0:
306,0,146546,5,2,1:2:0:0:
306,0,146679,1,2,3:2:0:0:
306,0,146812,2,0,L|315:52,1,42.5,0|0,0:0|3:0,0:0:0:0:
408,62,147077,2,0,L|417:114,1,42.5,8|2,0:0|1:2,0:0:0:0:
497,23,147343,2,0,L|506:75,1,42.5,0|2,0:0|1:2,0:0:0:0:
382,8,147741,1,0,3:0:0:0:
400,20,147874,2,0,L|409:72,1,42.5,0|0,0:0|3:0,0:0:0:0:
504,64,148139,2,0,L|513:116,3,42.5,8|2|0|0,0:0|1:2|0:0|3:0,0:0:0:0:
419,165,148670,85,2,1:2:0:0:
419,165,148803,1,2,3:2:0:0:
419,165,148936,2,0,L|370:154,1,42.5,0|0,0:0|3:0,0:0:0:0:
456,243,149201,2,0,L|414:252,1,42.5,8|0,0:0|3:0,0:0:0:0:
512,305,149467,2,0,L|474:325,1,42.5,0|0,0:0|3:0,0:0:0:0:
442,147,149865,1,2,1:2:0:0:
419,165,149998,2,0,L|370:154,1,42.5,0|0,0:0|3:0,0:0:0:0:
456,243,150263,2,0,L|414:252,1,42.5,8|2,0:0|1:2,0:0:0:0:
512,305,150529,2,0,L|474:325,1,42.5,2|2,0:0|3:2,0:0:0:0:
330,376,150794,6,0,L|339:322,2,42.5,2|0|0,1:2|3:0|0:0,0:0:0:0:
250,294,151192,2,0,L|259:240,2,42.5,2|8|2,3:2|0:0|1:2,0:0:0:0:
176,211,151591,2,0,L|185:157,1,42.5,2|2,0:0|1:2,0:0:0:0:
288,43,151856,2,0,L|281:84,2,42.5,2|0|0,0:0|3:0|0:0,0:0:0:0:
189,127,152254,2,0,L|182:168,2,42.5,2|8|2,3:2|0:0|1:2,0:0:0:0:
94,213,152652,2,0,L|87:254,1,42.5,2|0,0:0|3:0,0:0:0:0:
256,192,152918,12,0,154511,0:0:0:0:
482,38,155042,70,0,P|440:44|398:55,1,85,4|0,1:0|0:0,0:0:0:0:
236,208,155307,1,0,0:0:0:0:
276,269,155440,2,0,P|306:296|347:293,1,85,2|8,1:2|0:0,0:0:0:0:
474,161,155706,1,0,0:0:0:0:
393,141,155838,2,0,P|351:147|309:158,1,85,2|0,1:2|0:0,0:0:0:0:
169,23,156104,6,0,P|160:64|153:106,1,85,2|0,0:0|0:0,0:0:0:0:
8,280,156369,1,0,1:0:0:0:
81,236,156502,1,2,1:2:0:0:
129,308,156635,2,0,P|177:301|228:289,1,85,8|2,0:0|0:0,0:0:0:0:
223,302,156834,1,2,0:0:0:0:
232,308,156900,2,0,P|276:302|331:291,1,85,2|2,0:0|0:0,0:0:0:0:
478,320,157166,86,0,P|441:349|394:348,2,85,2|0|0,1:2|0:0|0:0,0:0:0:0:
309,158,157564,2,0,P|351:162|383:190,2,85,2|8|0,1:2|0:0|0:0,0:0:0:0:
480,41,157962,2,0,P|490:82|497:124,1,85,2|0,1:2|0:0,0:0:0:0:
212,177,158228,6,0,P|219:135|229:93,1,85,2|0,0:0|0:0,0:0:0:0:
218,321,158493,1,0,1:0:0:0:
144,344,158626,1,2,1:2:0:0:
75,313,158759,1,8,0:0:0:0:
45,245,158891,1,0,1:0:0:0:
56,170,159024,2,0,P|101:170|129:212,1,85,2|0,1:3|0:0,0:0:0:0:
0,5,159290,86,0,P|81:27|177:46,1,170,4|2,1:2|0:0,0:0:0:0:
370,120,159688,1,2,1:2:0:0:
296,81,159821,2,0,P|320:47|361:40,1,85,10|0,0:0|0:0,0:0:0:0:
439,183,160086,1,2,1:2:0:0:
458,201,160219,6,0,P|464:245|474:284,2,85,2|0|2,1:2|0:0|0:0,0:0:0:0:
377,313,160617,1,0,1:0:0:0:
306,361,160750,1,2,1:2:0:0:
259,284,160883,2,0,P|216:272|170:261,1,85,8|0,0:0|2:0,0:0:0:0:
159,270,161082,1,0,3:0:0:0:
145,275,161148,2,0,P|100:262|56:252,1,85,2|2,3:2|3:2,0:0:0:0:
0,336,161414,86,0,P|23:368|71:375,1,85,2|2,1:2|0:0,0:0:0:0:
127,105,161679,1,2,0:0:0:0:
69,36,161812,1,2,1:2:0:0:
0,97,161945,2,0,P|7:135|18:202,1,85,10|0,0:0|0:0,0:0:0:0:
188,179,162210,1,2,1:2:0:0:
231,80,162343,5,2,0:0:0:0:
210,65,162475,2,0,L|202:23,2,42.5,0|0|8,3:2|3:2|3:1,3:2:0:0:
332,102,162741,1,8,0:1:0:0:
332,102,162874,1,8,0:1:0:0:
270,159,163006,2,0,P|224:172|181:179,1,85,8|0,1:2|1:0,0:0:0:0:
460,245,163272,1,8,0:1:0:0:
343,288,163405,1,8,0:1:0:0:
480,237,163537,86,4,P|487:195|500:144,1,85,4|0,1:0|0:0,0:0:0:0:
360,27,163803,1,0,0:0:0:0:
434,0,163936,2,0,B|463:29|463:29|447:87,1,85,2|8,1:2|0:0,0:0:0:0:
230,90,164201,1,0,0:0:0:0:
290,136,164334,2,0,P|331:127|373:121,1,85,2|0,1:2|0:0,0:0:0:0:
213,232,164599,6,0,P|167:231|132:197,1,85,2|0,0:0|0:0,0:0:0:0:
163,0,164865,1,0,1:0:0:0:
93,63,164998,1,2,1:2:0:0:
0,30,165130,2,0,P|7:78|19:129,1,85,8|0,0:0|0:0,0:0:0:0:
23,127,165329,1,2,0:0:0:0:
32,136,165396,2,0,P|38:180|49:235,1,85,2|2,0:0|0:0,0:0:0:0:
17,347,165661,86,0,P|54:376|101:375,2,85,2|0|0,1:2|0:0|0:0,0:0:0:0:
204,272,166060,2,0,P|246:268|278:240,2,85,2|8|0,1:2|0:0|0:0,0:0:0:0:
316,114,166458,2,0,P|358:118|390:146,1,85,2|0,1:2|0:0,0:0:0:0:
512,361,166723,6,0,P|471:351|429:345,1,85,2|0,0:0|0:0,0:0:0:0:
209,193,166989,1,0,1:0:0:0:
239,122,167122,1,2,1:2:0:0:
310,95,167254,1,8,0:0:0:0:
374,139,167387,1,0,1:0:0:0:
392,213,167520,2,0,P|382:254|374:307,1,85,2|0,1:3|0:0,0:0:0:0:
303,80,167785,86,0,P|344:25|445:45,1,170,4|2,1:2|0:0,0:0:0:0:
287,259,168183,1,0,1:0:0:0:
234,319,168316,2,0,P|192:326|150:336,1,85,10|0,0:0|0:0,0:0:0:0:
0,119,168582,1,2,1:2:0:0:
53,179,168714,6,0,P|94:186|136:196,2,85,2|0|0,0:0|0:0|0:0,0:0:0:0:
252,20,169113,1,0,1:0:0:0:
223,100,169245,1,0,1:0:0:0:
293,155,169378,2,0,P|335:145|383:136,1,85,8|0,0:0|3:0,0:0:0:0:
389,124,169577,1,0,3:0:0:0:
400,113,169644,2,0,P|442:103|490:94,1,85,2|2,3:2|3:2,0:0:0:0:
456,308,169909,86,0,P|416:305|379:275,1,85,2|0,1:2|0:0,0:0:0:0:
211,370,170175,1,2,0:0:0:0:
217,287,170307,2,0,P|177:290|140:320,1,85,2|8,1:2|0:0,0:0:0:0:
293,155,170573,6,0,L|284:109,2,42.5,8|8|8,0:1|0:1|1:1,0:0:0:0:
191,187,170838,2,0,P|149:178|96:167,1,85,8|2,0:1|0:0,0:0:0:0:
386,81,171104,2,0,L|377:35,2,42.5,8|8|8,0:1|0:1|1:1,0:0:0:0:
284,113,171369,2,0,P|243:104|193:94,1,85,8|8,1:0|0:0,0:0:0:0:
456,5,171635,1,8,0:1:0:0:
471,89,171768,1,8,0:1:0:0:
487,169,171900,1,8,0:1:0:0:
379,63,172033,70,2,B|353:99|353:99|399:116,1,85,4|0,1:3|0:0,0:1:0:0:
408,123,172431,1,2,3:1:0:0:
495,254,172564,1,12,1:0:0:0:
420,225,172697,2,2,L|330:245,1,85,0|0,2:0|1:0,0:0:0:0:
43,293,172962,6,2,B|15:256|15:256|24:205,1,85,0|0,2:0|0:0,0:0:0:0:
124,159,173228,2,2,B|130:113|130:113|172:83,1,85,0|0,2:0|1:0,0:0:0:0:
278,105,173493,2,2,B|315:77|315:77|366:85,2,85,0|8|0,1:0|0:0|3:0,0:1:0:0:
220,291,173891,2,2,L|205:196,1,85,0|0,1:0|3:0,0:0:0:0:
138,347,174091,85,0,3:0:0:0:
138,347,174157,2,2,B|172:380|172:380|315:360,1,170,0|0,1:0|0:0,0:1:0:0:
405,299,174555,2,2,L|393:203,1,85,0|8,1:0|0:0,0:0:0:0:
490,148,174821,2,2,L|413:88,1,85,0|0,1:0|0:0,0:0:0:0:
374,0,175086,2,2,L|278:11,1,85,0|0,1:0|0:0,0:0:0:0:
43,45,175352,5,0,3:2:0:0:
43,45,175418,1,0,3:0:0:0:
43,45,175484,2,0,L|143:30,2,85,0|0|8,1:0|1:0|3:2,0:0:0:0:
0,137,175883,1,0,1:0:0:0:
94,152,176015,2,2,B|122:184|122:184|114:232,1,85,0|2,1:0|1:0,0:1:0:0:
12,360,176281,86,0,B|126:343|126:343|142:359|142:359|278:335,1,255,4|2,1:2|1:0,0:0:0:0:
415,307,176812,1,8,0:0:0:0:
346,257,176945,2,0,L|360:162,1,85,2|2,0:1|1:0,0:0:0:0:
461,28,177210,2,0,B|476:57|476:57|453:108,1,85,2|0,0:1|0:0,0:1:0:0:
269,200,177475,1,2,0:1:0:0:
228,138,177608,2,2,B|213:109|213:109|236:58,2,85,0|0|8,1:0|1:0|0:0,0:1:0:0:
59,256,178006,5,0,3:0:0:0:
59,256,178073,1,0,3:0:0:0:
59,256,178139,2,0,L|42:160,1,85,2|2,0:1|0:1,0:0:0:0:
104,120,178405,1,0,1:0:0:0:
146,297,178537,1,0,0:0:0:0:
158,312,178670,2,0,L|191:220,1,85,2|2,0:1|1:0,0:0:0:0:
287,217,178936,1,8,0:0:0:0:
228,366,179068,1,0,0:0:0:0:
230,384,179201,2,0,L|304:321,1,85,2|2,1:0|0:1,0:0:0:0:
409,232,179467,86,0,L|422:179,4,42.5,0|0|8|8|8,3:2|3:2|3:1|3:1|1:0,3:2:0:0:
385,313,179865,1,8,1:0:0:0:
405,113,179998,2,0,B|450:105|450:105|476:135,1,85,8|8,0:1|0:1,0:0:0:0:
287,217,180263,1,8,1:0:0:0:
232,143,180396,1,8,0:1:0:0:
308,77,180529,86,0,P|226:61|126:45,1,170,4|2,1:1|0:0,0:0:0:0:
1,62,180927,2,0,P|43:50|58:-1,1,85,2|8,1:2|0:0,0:0:0:0:
96,321,181192,1,2,0:0:0:0:
30,271,181325,2,0,P|40:192|118:183,1,170,0|0,1:0|3:0,0:0:0:0:
323,344,181723,37,2,3:2:0:0:
248,380,181856,2,0,P|200:370|152:363,2,85,0|0|8,1:0|1:0|0:0,0:0:0:0:
398,298,182254,1,0,3:0:0:0:
398,298,182321,1,0,3:0:0:0:
398,298,182387,2,0,P|404:254|414:199,1,85,0|0,3:0|3:0,0:0:0:0:
441,33,182652,54,0,P|412:91|310:93,1,170,2|2,1:2|0:0,0:0:0:0:
123,102,183051,2,0,P|153:76|211:84,2,85,2|8|2,1:2|0:0|0:0,0:0:0:0:
227,174,183449,2,0,P|264:186|286:241,1,85,0|2,1:0|0:0,0:0:0:0:
9,321,183714,37,0,0:0:0:0:
75,376,183847,1,2,3:2:0:0:
92,383,183980,2,0,P|113:345|99:297,2,85,0|0|8,1:0|1:0|0:0,0:0:0:0:
12,163,184378,1,0,1:0:0:0:
85,215,184511,2,0,P|130:222|180:232,1,85,0|0,1:0|3:0,0:0:0:0:
320,24,184776,54,0,B|227:14|266:88|159:80,1,170,4|0,1:2|3:0,0:0:0:0:
98,18,185175,2,0,P|73:56|80:103,1,85,2|8,1:2|0:0,0:0:0:0:
278,227,185440,2,0,P|303:189|296:142,1,85,2|0,0:0|1:0,0:0:0:0:
181,330,185706,1,2,0:0:0:0:
253,382,185838,38,0,P|299:386|336:352,2,85,0|2|0,3:0|3:2|1:0,0:0:0:0:
21,260,186237,1,0,1:0:0:0:
85,215,186369,2,0,P|131:211|168:245,1,85,8|0,0:0|3:0,0:0:0:0:
75,92,186635,2,0,P|67:53|61:5,1,85,2|2,3:2|3:2,0:0:0:0:
238,52,186900,54,0,P|321:37|418:27,1,170,2|2,1:2|0:0,0:0:0:0:
499,102,187298,2,0,P|456:107|396:119,2,85,2|8|2,1:2|0:0|0:0,0:0:0:0:
295,258,187697,2,0,P|330:279|372:273,1,85,0|2,1:0|0:0,0:0:0:0:
263,152,187962,37,0,3:0:0:0:
240,168,188095,2,0,L|188:178,2,42.5,8|8|8,0:1|0:1|1:0,0:0:0:0:
115,77,188360,1,8,1:0:0:0:
56,130,188493,2,0,P|48:171|81:218,1,85,10|2,1:2|1:2,0:0:0:0:
306,336,188759,2,0,P|314:295|281:248,1,85,8|8,0:1|0:1,0:0:0:0:
3,380,189024,22,0,B|68:391|54:329|138:358,1,127.500004863739,4|0,1:0|0:0,0:0:0:0:
215,265,189422,2,0,P|181:259|144:254,1,63.7500024318696,0|8,1:2|0:0,0:0:0:0:
240,168,189688,2,0,P|206:162|169:157,1,63.7500024318696,0|0,0:0|1:0,0:0:0:0:
360,93,189953,2,0,P|331:46|260:47,1,127.500004863739,0|2,0:0|3:2,0:0:0:0:
477,166,190352,1,0,1:0:0:0:
484,147,190484,1,0,1:0:0:0:
491,128,190617,2,0,P|457:134|419:143,1,63.7500024318696,8|0,3:2|1:2,0:0:0:0:
306,336,190883,2,0,P|340:342|378:351,1,63.7500024318696
484,244,191148,6,0,P|417:255|346:269,1,127.500004863739,0|0,1:2|0:0,0:0:0:0:
268,225,191546,2,0,P|271:192|280:150,1,63.7500024318696,0|8,1:2|0:0,0:0:0:0:
153,254,191812,2,0,P|156:221|165:179,1,63.7500024318696,0|0,0:0|1:0,0:0:0:0:
53,313,192077,2,0,P|76:356|164:367,1,127.500004863739,0|2,0:0|3:2,0:0:0:0:
162,363,192409,1,0,3:0:0:0:
173,352,192475,1,0,1:0:0:0:
26,218,192608,1,0,1:0:0:0:
49,201,192741,2,0,P|52:168|61:126,1,63.7500024318696,8|0,1:2|3:0,0:0:0:0:
220,23,193006,2,0,P|216:55|208:98,1,63.7500024318696,2|0,3:2|0:0,0:0:0:0:
349,54,193272,22,2,B|404:44|404:44|411:36|411:36|478:24,1,127.500004863739,6|0,1:2|0:0,0:0:0:0:
393,189,193670,2,2,L|406:114,1,63.7500024318696,0|8,1:2|0:0,0:0:0:0:
275,220,193936,2,2,L|288:145,1,63.7500024318696,0|0,2:0|1:0,0:0:0:0:
413,287,194201,2,2,B|380:287|380:287|349:309,1,63.7500024318696,0|0,2:0|0:0,0:0:0:0:
275,220,194467,2,0,B|251:243|251:243|245:280,1,63.7500024318696,2|0,0:1|1:0,0:0:0:0:
126,280,194732,2,2,B|142:337|142:337|216:375,1,127.500004863739,0|0,1:0|3:0,0:1:0:0:
158,191,195130,2,2,L|88:180,1,63.7500024318696,0|0,2:0|3:0,0:0:0:0:
0,84,195396,86,2,B|80:74|80:74|75:24,1,127.500004863739,0|0,1:2|0:0,0:1:0:0:
228,26,195794,2,2,L|153:37,1,63.7500024318696,0|8,1:2|0:0,0:0:0:0:
368,38,196060,2,2,L|307:-7,1,63.7500024318696,0|0,2:0|1:0,0:0:0:0:
466,129,196325,2,2,L|455:53,1,63.7500024318696,0|0,2:0|3:0,0:0:0:0:
290,164,196591,6,0,L|282:214,2,31.8750012159348,8|8|8,0:1|0:1|1:0,0:0:0:0:
356,122,196856,1,8,1:0:0:0:
422,219,196989,1,8,0:1:0:0:
389,287,197122,1,8,0:1:0:0:
332,319,197254,1,8,1:2:0:0:
291,309,197387,1,8,0:0:0:0:
279,296,197520,69,0,1:0:0:0:
