osu file format v14

[General]
AudioFilename: audio.mp3
AudioLeadIn: 0
PreviewTime: 112498
Countdown: 0
SampleSet: Soft
StackLeniency: 0.5
Mode: 0
LetterboxInBreaks: 0
WidescreenStoryboard: 1

[Editor]
Bookmarks: 10617,27608,28006,28272,28537,28803,29068,29467,29732,30130,30396,30661,30927,31325,31458,31591,31856,32254,32520,32785,33051,33316,33714,33980,34378,34644,34909,35175,35573,35706,35838,36104,59666,60827,61591,62652,63714,64776,65838,66900,67962,69024,70086,78582,78980,79245,79511,79776,80042,80440,80706,81104,81369,81635,81900,82298,82431,82564,82829,83228,83493,83759,84024,84290,84688,84953,85352,85617,85883,86148,86546,86679,86812,87077,110639,111801,112564,129555,155042,172033,172431,172564,172697,172962,173228,173493,173891,174157,174555,174821,175086,175352,175750,175883,176015,176148,176679,176812,176945,177077,177210,177475,177608,178006,178139,178272,178537,178670,178803,179068,179201,179334,179599,179732,179865,179998,180130,180263,180396,180529,189024,193006,193272,193670,193936,194201,194467,194732,195130,195396,195794,196060,196325,197520
DistanceSpacing: 1.4
BeatDivisor: 8
GridSize: 8
TimelineZoom: 2.000001

[Metadata]
Title:Daisan no Shinzou
TitleUnicode:第三の心臓
Artist:Harumaki Gohan
ArtistUnicode:はるまきごはん
Creator:Chills
Version:Hard
Source:
Tags:japanese electronic pop jpop j-pop vocaloid cover self-cover The Third Heart
BeatmapID:3067206
BeatmapSetID:1495201

[Difficulty]
HPDrainRate:4
CircleSize:3.8
OverallDifficulty:5.5
ApproachRate:7.8
SliderMultiplier:1.4
SliderTickRate:1

[Events]
//Background and Video events
0,0,"bg.jpeg",0,0
Video,1495,"harumaki.mp4"
//Break Periods
//Storyboard Layer 0 (Background)
//Storyboard Layer 1 (Fail)
//Storyboard Layer 2 (Pass)
//Storyboard Layer 3 (Foreground)
//Storyboard Layer 4 (Overlay)
//Storyboard Sound Samples

[TimingPoints]
2122,530.973451327434,4,2,1,45,1,0
2122,-76.9230769230769,4,2,1,45,0,0
10617,-76.9230769230769,4,2,1,50,0,0
27608,-68.9655172413793,4,1,1,60,0,0
27807,-68.9655172413793,4,2,1,5,0,0
28006,-68.9655172413793,4,1,2,60,0,0
28073,-68.9655172413793,4,2,1,60,0,0
28272,-68.9655172413793,4,1,1,60,0,0
28338,-68.9655172413793,4,2,1,5,0,0
28404,-68.9655172413793,4,2,1,60,0,0
28537,-68.9655172413793,4,1,2,60,0,0
28604,-68.9655172413793,4,2,1,60,0,0
28803,-68.9655172413793,4,1,2,60,0,0
28869,-68.9655172413793,4,2,1,60,0,0
29467,-68.9655172413793,4,1,2,60,0,0
29533,-68.9655172413793,4,2,1,5,0,0
29599,-68.9655172413793,4,2,1,60,0,0
29732,-68.9655172413793,4,1,1,60,0,0
29998,-68.9655172413793,4,2,1,5,0,0
30130,-68.9655172413793,4,1,2,60,0,0
30197,-68.9655172413793,4,2,1,60,0,0
30396,-68.9655172413793,4,1,2,60,0,0
30462,-68.9655172413793,4,2,1,60,0,0
30661,-68.9655172413793,4,2,2,60,0,0
30927,-68.9655172413793,4,2,1,60,0,0
31856,-68.9655172413793,4,1,1,60,0,0
32055,-68.9655172413793,4,2,1,5,0,0
32254,-68.9655172413793,4,1,2,60,0,0
32321,-68.9655172413793,4,2,1,60,0,0
32520,-68.9655172413793,4,1,1,60,0,0
32586,-68.9655172413793,4,2,1,5,0,0
32652,-68.9655172413793,4,2,1,60,0,0
32785,-68.9655172413793,4,1,2,60,0,0
32852,-68.9655172413793,4,2,1,60,0,0
33051,-68.9655172413793,4,1,2,60,0,0
33117,-68.9655172413793,4,2,1,60,0,0
33714,-68.9655172413793,4,1,2,60,0,0
33781,-68.9655172413793,4,2,1,5,0,0
33846,-68.9655172413793,4,2,1,60,0,0
33980,-68.9655172413793,4,1,1,60,0,0
34245,-68.9655172413793,4,2,1,5,0,0
34378,-68.9655172413793,4,1,2,60,0,0
34445,-68.9655172413793,4,2,1,60,0,0
34644,-68.9655172413793,4,1,2,60,0,0
34710,-68.9655172413793,4,2,1,60,0,0
34909,-68.9655172413793,4,2,2,60,0,0
35175,-68.9655172413793,4,2,1,60,0,0
37697,-68.9655172413793,4,2,1,50,0,0
37829,-86.9565217391304,4,2,1,50,0,0
38228,-76.9230769230769,4,2,1,50,0,0
50971,-86.9565217391304,4,2,1,55,0,0
53095,-86.9565217391304,4,2,1,50,0,0
59732,-80,4,2,1,5,0,0
61325,-80,4,2,1,50,0,0
61591,-64.5161290322581,4,2,1,65,0,0
61989,-64.5161290322581,4,2,2,65,0,0
62785,-64.5161290322581,4,2,1,65,0,0
62918,-64.5161290322581,4,2,2,65,0,0
65440,-64.5161290322581,4,2,2,65,0,0
65506,-64.5161290322581,4,2,2,65,0,0
65838,-64.5161290322581,4,2,1,65,0,0
70086,-62.5,4,2,2,70,0,1
74334,-62.5,4,2,1,70,0,1
78582,-68.9655172413793,4,1,2,60,0,0
78781,-68.9655172413793,4,2,1,5,0,0
78980,-68.9655172413793,4,1,2,60,0,0
79046,-68.9655172413793,4,2,1,60,0,0
79245,-68.9655172413793,4,1,1,60,0,0
79312,-68.9655172413793,4,2,1,5,0,0
79378,-68.9655172413793,4,2,1,60,0,0
79511,-68.9655172413793,4,1,2,60,0,0
79577,-68.9655172413793,4,2,1,60,0,0
79776,-68.9655172413793,4,1,2,60,0,0
79843,-68.9655172413793,4,2,1,60,0,0
80440,-68.9655172413793,4,1,2,60,0,0
80506,-68.9655172413793,4,2,1,5,0,0
80572,-68.9655172413793,4,2,1,60,0,0
80706,-68.9655172413793,4,1,1,60,0,0
80971,-68.9655172413793,4,2,1,5,0,0
81104,-68.9655172413793,4,1,2,60,0,0
81170,-68.9655172413793,4,2,1,60,0,0
81369,-68.9655172413793,4,1,2,60,0,0
81436,-68.9655172413793,4,2,1,60,0,0
81632,-68.9655172413793,4,2,2,60,0,0
81635,-68.9655172413793,4,2,2,60,0,0
82829,-68.9655172413793,4,1,1,60,0,0
83029,-68.9655172413793,4,2,1,5,0,0
83228,-68.9655172413793,4,1,2,60,0,0
83294,-68.9655172413793,4,2,1,60,0,0
83493,-68.9655172413793,4,1,1,60,0,0
83560,-68.9655172413793,4,2,1,5,0,0
83625,-68.9655172413793,4,2,1,60,0,0
83759,-68.9655172413793,4,1,2,60,0,0
83825,-68.9655172413793,4,2,1,60,0,0
84024,-68.9655172413793,4,1,2,60,0,0
84091,-68.9655172413793,4,2,1,60,0,0
84688,-68.9655172413793,4,1,2,60,0,0
84754,-68.9655172413793,4,2,1,5,0,0
84820,-68.9655172413793,4,2,1,60,0,0
84953,-68.9655172413793,4,1,1,60,0,0
85219,-68.9655172413793,4,2,1,5,0,0
85352,-68.9655172413793,4,1,2,60,0,0
85418,-68.9655172413793,4,2,1,60,0,0
85617,-68.9655172413793,4,1,2,60,0,0
85683,-68.9655172413793,4,2,1,60,0,0
85883,-68.9655172413793,4,2,2,60,0,0
86148,-68.9655172413793,4,2,1,60,0,0
87077,-76.9230769230769,4,2,1,50,0,0
101945,-76.9230769230769,4,2,1,55,0,0
104068,-86.9565217391304,4,2,1,50,0,0
110971,-80,4,2,1,5,0,0
112298,-80,4,2,1,50,0,0
112564,-62.5,4,2,2,70,0,1
116812,-62.5,4,2,1,70,0,1
120130,-62.5,4,2,2,70,0,1
120927,-62.5,4,2,2,70,0,1
121060,-62.5,4,2,2,70,0,1
125307,-62.5,4,2,1,70,0,1
129555,-86.9565217391304,4,2,1,50,0,0
130219,-86.9565217391304,4,2,1,50,0,0
131281,-86.9565217391304,4,2,2,50,0,0
131414,-86.9565217391304,4,2,1,50,0,0
132874,-86.9565217391304,4,2,2,50,0,0
133006,-86.9565217391304,4,2,1,50,0,0
133405,-86.9565217391304,4,2,2,50,0,0
133537,-86.9565217391304,4,2,1,50,0,0
137122,-86.9565217391304,4,2,2,50,0,0
137254,-86.9565217391304,4,2,1,50,0,0
138714,-86.9565217391304,4,2,2,50,0,0
140042,-86.9565217391304,4,2,1,50,0,0
141369,-86.9565217391304,4,2,2,50,0,0
142298,-86.9565217391304,4,2,1,50,0,0
142962,-86.9565217391304,4,2,2,50,0,0
143095,-86.9565217391304,4,2,1,50,0,0
143228,-86.9565217391304,4,2,2,50,0,0
143360,-86.9565217391304,4,2,1,50,0,0
144024,-86.9565217391304,4,2,2,50,0,0
144157,-86.9565217391304,4,2,1,50,0,0
145086,-86.9565217391304,4,2,2,50,0,0
145219,-86.9565217391304,4,2,1,50,0,0
145750,-86.9565217391304,4,2,1,50,0,0
147210,-86.9565217391304,4,2,2,50,0,0
147608,-86.9565217391304,4,2,1,50,0,0
148272,-86.9565217391304,4,2,2,50,0,0
148405,-86.9565217391304,4,2,1,50,0,0
149865,-86.9565217391304,4,2,2,50,0,0
149998,-86.9565217391304,4,2,1,50,0,0
150396,-86.9565217391304,4,2,2,50,0,0
150529,-86.9565217391304,4,2,1,50,0,0
151458,-86.9565217391304,4,2,2,50,0,0
151591,-86.9565217391304,4,2,1,50,0,0
151723,-86.9565217391304,4,2,2,50,0,0
151856,-86.9565217391304,4,2,1,50,0,0
152520,-86.9565217391304,4,2,2,50,0,0
152652,-86.9565217391304,4,2,1,50,0,0
152951,-86.9565217391304,4,2,2,5,0,0
153449,-86.9565217391304,4,2,3,10,0,0
153582,-86.9565217391304,4,2,4,20,0,0
153714,-86.9565217391304,4,2,3,30,0,0
153847,-86.9565217391304,4,2,4,40,0,0
153980,-86.9565217391304,4,2,3,50,0,0
154113,-86.9565217391304,4,2,4,60,0,0
154245,-86.9565217391304,4,2,3,70,0,0
154378,-86.9565217391304,4,2,3,40,0,0
154511,-86.9565217391304,4,2,3,50,0,0
155042,-62.5,4,2,2,70,0,1
159290,-62.5,4,2,1,70,0,1
163405,-62.5,4,2,1,70,0,1
163537,-62.5,4,2,2,70,0,1
167785,-62.5,4,2,1,70,0,1
172033,-90.9090909090909,4,1,1,60,0,0
172298,-66.6666666666667,4,2,1,60,0,0
172431,-66.6666666666667,4,2,2,60,0,0
172564,-57.1428571428571,4,2,1,75,0,1
172697,-57.1428571428571,4,1,1,75,0,1
172763,-57.1428571428571,4,2,1,5,0,1
172829,-57.1428571428571,4,2,1,75,0,1
172962,-57.1428571428571,4,1,2,75,0,1
173029,-57.1428571428571,4,2,1,75,0,1
173228,-57.1428571428571,4,1,2,75,0,1
173294,-57.1428571428571,4,2,1,75,0,1
173891,-57.1428571428571,4,1,1,75,0,1
173958,-57.1428571428571,4,2,1,5,0,1
174023,-57.1428571428571,4,2,1,75,0,1
174157,-57.1428571428571,4,1,1,75,0,1
174422,-57.1428571428571,4,2,1,5,0,1
174555,-57.1428571428571,4,1,2,75,0,1
174622,-57.1428571428571,4,2,1,75,0,1
174821,-57.1428571428571,4,1,2,75,0,1
174887,-57.1428571428571,4,2,2,75,0,1
175086,-57.1428571428571,4,2,2,75,0,1
175352,-57.1428571428571,4,2,1,60,0,1
176679,-57.1428571428571,4,2,2,75,0,1
177210,-57.1428571428571,4,2,1,75,0,1
177409,-57.1428571428571,4,2,1,75,0,1
177475,-57.1428571428571,4,2,2,75,0,1
177608,-57.1428571428571,4,2,1,75,0,1
178139,-57.1428571428571,4,2,2,80,0,1
178537,-57.1428571428571,4,2,1,75,0,1
178669,-57.1428571428571,4,2,2,90,0,1
179068,-57.1428571428571,4,2,1,75,0,1
179201,-57.1428571428571,4,2,2,100,0,1
179467,-57.1428571428571,4,2,1,75,0,1
180396,-57.1428571428571,4,2,1,50,0,1
180529,-58.8235294117647,4,2,1,75,0,1
189024,-76.9230769230769,4,2,1,45,0,0
193272,-68.9655172413793,4,1,1,60,0,0
193471,-68.9655172413793,4,2,1,5,0,0
193670,-68.9655172413793,4,1,2,60,0,0
193737,-68.9655172413793,4,2,1,60,0,0
193936,-68.9655172413793,4,1,1,60,0,0
194002,-68.9655172413793,4,2,1,5,0,0
194068,-68.9655172413793,4,2,1,60,0,0
194201,-68.9655172413793,4,1,2,60,0,0
194268,-68.9655172413793,4,2,1,60,0,0
194467,-68.9655172413793,4,2,2,60,0,0
194599,-68.9655172413793,4,2,1,60,0,0
195130,-68.9655172413793,4,1,2,60,0,0
195197,-68.9655172413793,4,2,1,60,0,0
195396,-68.9655172413793,4,1,1,60,0,0
195661,-68.9655172413793,4,2,1,5,0,0
195794,-68.9655172413793,4,1,2,60,0,0
195860,-68.9655172413793,4,2,1,60,0,0
196060,-68.9655172413793,4,1,2,60,0,0
196126,-68.9655172413793,4,2,1,60,0,0
196325,-68.9655172413793,4,1,2,60,0,0
196391,-68.9655172413793,4,2,1,60,0,0
197520,-68.9655172413793,4,2,1,50,0,0

[Colours]
Combo1 : 253,196,196
Combo2 : 133,186,250
Combo3 : 128,207,255
Combo4 : 254,148,112
Combo5 : 247,128,128
Combo6 : 184,149,255
Combo7 : 240,203,254

[HitObjects]
512,73,2122,6,0,B|391:54,1,90.9999958343508,2|0,1:2|0:0,0:0:0:0:
364,11,2520,2,0,P|315:8|280:48,2,90.9999958343508,0|0|0,3:0|1:2|1:2,0:0:0:0:
206,78,3316,1,2,0:0:0:0:
294,176,3582,1,0,1:0:0:0:
294,176,3714,2,0,L|285:220,2,45.4999979171754,8|0|0,3:2|1:2|0:0,0:0:0:0:
180,306,4245,6,0,L|80:323,1,90.9999958343508,0|0,1:2|0:0,0:0:0:0:
23,285,4644,2,0,P|9:241|37:200,2,90.9999958343508,0|0|0,3:0|3:0|0:0,0:0:0:0:
143,362,5440,1,2,1:2:0:0:
251,293,5706,1,0,3:0:0:0:
251,293,5838,2,0,L|305:305,2,45.4999979171754,8|0|0,3:2|1:2|0:0,0:0:0:0:
419,309,6369,86,0,L|407:218,1,90.9999958343508,2|0,1:2|0:0,0:0:0:0:
430,143,6768,2,0,P|463:172|518:173,2,90.9999958343508,0|0|0,3:0|1:2|1:2,0:0:0:0:
491,52,7564,2,0,L|501:0,2,45.4999979171754,2|0|0,3:2|3:0|3:0,0:0:0:0:
423,27,7962,1,8,0:0:0:0:
316,72,8228,2,0,L|261:83,1,45.4999979171754,0|0,3:0|3:0,0:0:0:0:
219,31,8493,6,0,L|117:50,1,90.9999958343508,0|0,1:2|0:0,0:0:0:0:
74,0,8891,2,0,P|40:35|-17:29,2,90.9999958343508,0|0|0,3:0|3:0|0:0,0:0:0:0:
160,94,9688,1,2,1:2:0:0:
69,182,9953,1,0,3:0:0:0:
69,182,10086,1,8,0:0:0:0:
69,182,10219,2,0,L|63:136,2,45.4999979171754,0|0|0,1:2|3:2|3:0,0:0:0:0:
130,224,10617,86,0,L|142:317,1,90.9999958343508,2|0,1:2|0:0,0:0:0:0:
256,370,11148,2,0,P|300:365|332:334,1,90.9999958343508,8|0,0:0|0:0,0:0:0:0:
402,297,11546,1,0,1:2:0:0:
402,297,11679,2,0,L|411:247,2,45.4999979171754,0|2|0,0:0|3:2|3:0,0:0:0:0:
480,215,12077,2,0,L|495:125,1,90.9999958343508,0|0,3:0|1:2,0:0:0:0:
512,55,12475,1,0,3:0:0:0:
384,42,12741,6,0,P|352:73|296:74,1,90.9999958343508,0|0,1:2|0:0,0:0:0:0:
255,22,13139,2,0,L|158:38,2,90.9999958343508,0|0|0,3:0|0:0|0:0,0:0:0:0:
382,131,13936,1,2,1:2:0:0:
287,216,14201,1,0,3:0:0:0:
287,216,14334,1,8,0:0:0:0:
190,133,14599,2,0,L|136:123,1,45.4999979171754,0|0,3:2|3:2,0:0:0:0:
84,83,14865,86,0,L|96:186,1,90.9999958343508,2|0,1:2|0:0,0:0:0:0:
26,205,15263,1,0,0:0:0:0:
26,205,15396,2,0,L|38:303,1,90.9999958343508,8|0,0:0|0:0,0:0:0:0:
87,352,15794,1,0,1:2:0:0:
207,379,16060,1,2,3:2:0:0:
239,262,16325,1,0,3:0:0:0:
239,262,16458,2,0,P|287:256|325:287,1,90.9999958343508,8|0,3:2|3:2,0:0:0:0:
355,348,16856,1,0,3:2:0:0:
355,348,16989,6,0,L|415:338,1,45.4999979171754,0|0,1:2|0:0,0:0:0:0:
466,379,17254,1,0,3:0:0:0:
512,259,17520,1,8,0:0:0:0:
415,182,17785,1,0,0:0:0:0:
415,182,17918,1,0,1:0:0:0:
415,182,18051,2,0,L|432:88,1,90.9999958343508,0|0,0:0|3:0,0:0:0:0:
380,38,18449,2,0,P|344:69|288:77,1,90.9999958343508,0|0,3:0|1:2,0:0:0:0:
243,29,18847,1,0,3:0:0:0:
119,27,19113,85,2,1:2:0:0:
74,149,19378,2,0,P|104:178|158:184,1,90.9999958343508,0|8,0:0|0:0,0:0:0:0:
211,138,19776,2,0,L|194:252,1,90.9999958343508,0|0,1:0|1:0,0:0:0:0:
142,281,20175,1,0,0:0:0:0:
238,371,20440,1,0,3:0:0:0:
238,371,20573,1,0,3:0:0:0:
313,268,20838,2,0,L|322:222,2,45.4999979171754,0|0|0,1:0|3:0|3:0,0:0:0:0:
353,332,21237,6,0,L|458:315,2,90.9999958343508,0|0|8,1:0|0:0|0:0,0:0:0:0:
295,382,21900,1,0,0:0:0:0:
205,292,22166,1,0,0:0:0:0:
291,199,22431,1,2,1:2:0:0:
291,199,22564,2,0,L|275:103,1,90.9999958343508,0|8,3:0|3:2,0:0:0:0:
384,66,23095,2,0,L|393:119,2,45.4999979171754,0|0|2,3:0|3:0|1:2,0:0:0:0:
498,9,23626,85,0,3:0:0:0:
498,9,23759,2,0,L|514:107,1,90.9999958343508,0|0,3:0|1:0,0:0:0:0:
447,216,24290,2,0,P|413:188|364:185,1,90.9999958343508,0|2,1:0|0:0,0:0:0:0:
297,218,24688,1,0,3:0:0:0:
297,218,24821,2,0,L|286:274,1,45.4999979171754,0|8,3:0|3:2,0:0:0:0:
212,357,25219,1,0,3:0:0:0:
94,297,25484,6,0,L|110:200,1,90.9999958343508,0|0,1:0|1:0,0:0:0:0:
60,152,25883,1,0,3:0:0:0:
28,33,26148,1,0,1:0:0:0:
157,8,26414,2,0,P|187:38|247:40,1,90.9999958343508,0|2,1:0|1:2,0:0:0:0:
302,12,26812,2,0,L|401:-1,2,90.9999958343508,0|8|0,3:0|3:2|3:0,0:0:0:0:
183,110,27608,22,2,B|191:156|191:156|302:143,1,152.250004646301,0|2,1:0|3:1,0:0:0:0:
362,104,28139,1,8,0:0:0:0:
362,104,28272,2,2,L|427:95,1,50.7500015487671,0|0,1:0|0:0,0:0:0:0:
467,149,28537,1,2,1:0:0:0:
507,285,28803,1,2,3:1:0:0:
386,359,29068,2,2,L|330:347,2,50.7500015487671,0|8|0,3:0|0:0|1:0,0:1:0:0:
301,281,29467,1,2,3:1:0:0:
173,323,29732,86,2,B|123:310|123:310|93:205,1,152.250004646301,0|2,1:0|3:1,0:0:0:0:
27,174,30263,1,8,0:0:0:0:
27,174,30396,1,2,3:1:0:0:
74,40,30661,1,2,3:1:0:0:
209,67,30927,2,0,L|218:31,2,25.3750007743836,0|0|0,1:0|3:0|3:0,0:0:0:0:
260,129,31192,1,0,3:0:0:0:
260,129,31325,1,8,3:2:0:0:
368,67,31591,2,0,L|419:57,1,50.7500015487671,2|2,1:2|0:0,0:0:0:0:
468,114,31856,6,2,B|510:128|510:128|477:240,1,152.250004646301,0|2,1:0|3:1,0:0:0:0:
512,307,32387,1,8,0:0:0:0:
512,307,32520,2,2,L|495:367,1,50.7500015487671,0|0,1:0|0:0,0:0:0:0:
426,382,32785,1,2,0:0:0:0:
342,266,33051,1,2,3:1:0:0:
223,343,33316,2,2,L|170:328,2,50.7500015487671,0|8|0,3:0|0:0|1:0,0:1:0:0:
110,368,33714,1,2,3:1:0:0:
8,291,33980,86,2,B|30:189|30:189|90:156,1,152.250004646301,0|2,1:0|3:1,0:0:0:0:
57,95,34511,1,8,0:0:0:0:
57,95,34644,1,2,1:0:0:0:
182,30,34909,1,2,1:0:0:0:
257,150,35175,2,0,L|262:119,2,25.3750007743836,0|0|0,1:0|3:0|3:0,0:0:0:0:
312,220,35440,1,2,0:0:0:0:
312,220,35573,2,0,L|301:275,1,50.7500015487671,10|2,0:0|1:2,0:0:0:0:
227,298,35838,2,0,L|216:353,1,50.7500015487671,2|0,3:2|3:0,0:0:0:0:
145,383,36104,69,2,1:2:0:0:
45,53,37697,1,8,0:0:0:0:
45,53,37829,2,0,L|160:31,1,80.5000015354157,0|0,1:0|0:0,0:0:0:0:
144,23,38228,6,0,P|170:48|234:50,1,90.9999958343508,0|0,1:0|0:0,0:0:0:0:
345,12,38759,1,8,0:0:0:0:
345,12,38891,2,0,L|447:29,1,90.9999958343508,0|0,1:0|1:0,0:0:0:0:
504,155,39422,2,0,L|512:110,2,45.4999979171754,2|0|0,1:2|3:0|3:0,0:0:0:0:
438,187,39821,1,8,0:0:0:0:
363,282,40086,2,0,L|373:343,1,45.4999979171754,0|0,3:0|3:0,0:0:0:0:
313,371,40352,85,2,1:2:0:0:
206,307,40617,2,0,L|155:314,2,45.4999979171754,0|0|8,0:0|0:0|0:0,0:0:0:0:
253,248,41015,1,0,1:0:0:0:
151,170,41281,1,0,1:0:0:0:
240,79,41546,1,2,3:2:0:0:
240,79,41679,2,0,P|207:44|152:43,2,90.9999958343508,0|8|0,3:0|3:2|3:0,0:0:0:0:
306,44,42343,1,0,3:0:0:0:
306,44,42475,6,0,L|363:55,1,45.4999979171754,0|0,1:0|0:0,0:0:0:0:
412,8,42741,1,0,0:0:0:0:
505,94,43006,1,8,0:0:0:0:
414,183,43272,1,0,3:0:0:0:
414,183,43405,2,0,L|436:331,1,136.499993751526,0|0,3:0|3:0,0:0:0:0:
323,380,44068,1,10,3:2:0:0:
301,375,44201,1,2,1:2:0:0:
279,369,44334,1,2,3:2:0:0:
256,364,44467,1,2,3:2:0:0:
234,358,44599,85,2,1:2:0:0:
165,250,44865,1,0,0:0:0:0:
280,192,45130,1,8,0:0:0:0:
280,192,45263,2,0,L|268:89,1,90.9999958343508,0|0,1:0|1:0,0:0:0:0:
247,30,45661,2,0,L|202:22,1,45.4999979171754,0|2,0:0|3:2,0:0:0:0:
128,12,45927,1,0,3:0:0:0:
0,74,46192,1,8,3:2:0:0:
0,74,46325,1,0,1:0:0:0:
0,74,46458,1,2,3:2:0:0:
65,191,46723,6,0,P|96:164|151:167,1,90.9999958343508,0|0,1:0|3:0,0:0:0:0:
202,211,47122,1,0,3:0:0:0:
287,325,47387,2,0,L|384:311,1,90.9999958343508,0|0,1:0|1:0,0:0:0:0:
452,329,47785,2,0,L|459:284,1,45.4999979171754,0|2,0:0|1:2,0:0:0:0:
512,229,48051,1,0,3:0:0:0:
464,121,48316,1,8,3:2:0:0:
464,121,48449,1,0,1:0:0:0:
464,121,48582,1,2,3:2:0:0:
401,10,48847,86,0,P|369:42|314:48,1,90.9999958343508,0|0,1:0|0:0,0:0:0:0:
210,6,49378,1,8,0:0:0:0:
210,6,49511,2,0,L|112:25,1,90.9999958343508,0|0,1:0|1:0,0:0:0:0:
51,0,49909,2,0,L|35:103,1,90.9999958343508,0|0,0:0|3:0,0:0:0:0:
2,159,50307,2,0,P|-3:203|34:244,2,90.9999958343508,0|0|0,3:0|1:0|3:0,0:0:0:0:
83,160,50971,5,8,0:1:0:0:
83,160,51104,1,8,0:1:0:0:
122,265,51369,1,8,0:1:0:0:
233,229,51635,1,8,0:1:0:0:
233,229,51768,1,8,0:1:0:0:
233,229,51900,1,8,0:1:0:0:
286,328,52166,1,8,0:1:0:0:
387,275,52431,1,8,0:1:0:0:
387,275,52564,2,0,L|392:230,3,40.2500007677078,8|0|0|0,0:1|3:0|3:0|3:0,0:0:0:0:
467,279,53095,86,0,L|487:115,1,161.000003070831,4|0,1:2|3:0,0:0:0:0:
396,50,53891,1,0,1:0:0:0:
313,131,54157,2,0,P|268:188|173:184,1,161.000003070831,0|8,0:0|0:0,0:0:0:0:
94,255,54953,5,0,0:0:0:0:
94,255,55086,1,0,0:0:0:0:
94,255,55219,2,0,P|139:312|234:308,1,161.000003070831,0|0,1:0|0:0,0:0:0:0:
318,255,56015,1,0,1:0:0:0:
378,350,56281,2,0,L|473:334,1,80.5000015354157,0|0,0:0|1:0,0:0:0:0:
506,279,56679,1,0,1:0:0:0:
506,279,56812,2,0,L|513:233,3,40.2500007677078,8|0|0|0,0:0|3:0|3:0|3:0,0:0:0:0:
440,215,57343,86,0,L|454:130,1,80.5000015354157,2|0,1:2|0:0,0:0:0:0:
334,192,57874,2,0,L|348:271,1,80.5000015354157,0|2,0:0|1:2,0:0:0:0:
227,210,58405,2,0,L|253:50,2,161.000003070831,0|10|2,0:0|0:0|3:2,0:0:0:0:
0,373,61591,70,0,L|114:354,1,108.500000827789,4|0,1:0|0:0,0:0:0:0:
179,377,61989,2,0,L|376:340,1,162.750001241684,2|2,1:2|1:2,0:0:0:0:
489,326,62652,2,0,L|481:379,2,54.2500004138947,2|2|0,0:0|0:0|1:0,0:0:0:0:
435,271,63051,2,0,P|411:201|468:140,1,162.750001241684,2|0,1:2|3:0,0:0:0:0:
390,8,63714,38,0,L|324:20,1,54.2500004138947,2|0,1:2|0:0,0:0:0:0:
263,20,63980,1,0,0:0:0:0:
263,20,64113,2,0,P|228:79|131:86,1,162.750001241684,2|2,1:2|1:2,0:0:0:0:
8,15,64776,1,2,0:0:0:0:
35,164,65042,2,0,L|47:233,1,54.2500004138947,0|2,1:0|1:2,0:0:0:0:
112,252,65307,2,0,L|122:306,1,54.2500004138947,8|2,0:0|1:2,0:0:0:0:
67,359,65573,1,0,1:0:0:0:
218,356,65838,54,0,L|336:383,1,108.500000827789,4|2,1:2|0:0,0:0:0:0:
384,332,66237,1,2,1:2:0:0:
384,332,66369,2,0,L|459:347,1,54.2500004138947,2|0,0:0|0:0,0:0:0:0:
500,297,66635,1,2,1:2:0:0:
500,297,66768,2,0,L|520:186,2,108.500000827789,2|2|2,0:0|0:0|1:2,0:0:0:0:
361,191,67564,2,0,L|371:137,2,54.2500004138947,2|2|2,3:2|3:2|0:0,0:0:0:0:
315,83,67962,38,0,L|261:94,1,54.2500004138947,2|2,1:2|0:0,0:0:0:0:
209,46,68228,2,0,L|155:57,1,54.2500004138947,2|2,0:0|1:2,0:0:0:0:
81,36,68493,2,0,P|107:81|92:149,1,108.500000827789,2|2,0:0|1:2,0:0:0:0:
40,192,68891,2,0,L|55:313,1,108.500000827789,2|8,0:0|0:1,0:0:0:0:
124,351,69290,2,0,L|134:288,1,54.2500004138947,8|8,1:0|1:0,0:0:0:0:
197,253,69555,1,8,0:0:0:0:
197,253,69688,1,0,3:0:0:0:
252,200,69821,2,8,L|241:140,1,54.2500004138947,8|8,0:1|0:1,0:1:0:0:
305,99,70086,54,0,P|359:86|411:123,1,112,4|0,1:0|0:0,0:0:0:0:
485,120,70484,2,0,L|460:247,1,112,2|0,1:2|0:0,0:0:0:0:
477,303,70883,2,0,B|422:316,1,56,2|0,1:2|0:0,0:0:0:0:
356,274,71148,1,2,0:0:0:0:
235,372,71414,1,0,1:0:0:0:
235,372,71546,1,2,1:2:0:0:
235,372,71679,2,0,L|175:359,2,56,8|0|0,0:0|3:0|3:0,0:0:0:0:
112,354,72077,1,0,0:0:0:0:
112,354,72210,86,0,P|51:353|28:303,1,112,2|0,1:2|0:0,0:0:0:0:
70,247,72608,2,0,L|54:127,1,112,2|0,1:2|0:0,0:0:0:0:
18,66,73006,2,0,L|86:53,1,56,2|0,1:2|0:0,0:0:0:0:
133,4,73272,1,2,0:0:0:0:
247,117,73537,1,0,1:0:0:0:
247,117,73670,1,2,1:2:0:0:
247,117,73803,2,0,L|306:107,1,56,8|0,0:0|1:0,0:0:0:0:
358,53,74068,2,0,L|417:43,1,56,2|0,0:3|0:0,0:0:0:0:
475,92,74334,6,0,L|450:224,1,112,4|2,1:2|0:0,0:0:0:0:
495,274,74732,1,0,1:0:0:0:
495,274,74865,2,0,P|456:317|397:312,1,112,10|2,0:0|1:2,0:0:0:0:
336,281,75263,2,0,L|324:210,2,56,2|0|0,0:0|0:0|0:0,0:0:0:0:
295,350,75661,1,0,1:0:0:0:
295,350,75794,1,0,1:0:0:0:
295,350,75927,1,8,0:0:0:0:
139,366,76192,2,0,L|128:294,1,56,2|2,3:2|0:0,0:0:0:0:
57,262,76458,86,0,P|101:264|143:204,1,112,2|2,1:2|0:0,0:0:0:0:
95,152,76856,2,0,L|78:33,1,112,2|0,1:2|0:0,0:0:0:0:
143,0,77254,1,2,1:2:0:0:
298,33,77520,1,2,0:0:0:0:
298,33,77652,2,0,L|290:-1,2,28,8|8|8,0:1|0:1|1:0,0:0:0:0:
372,73,77918,1,8,1:0:0:0:
372,73,78051,2,0,L|381:131,1,56,8|8,0:0|0:1,0:0:0:0:
447,178,78316,1,8,0:1:0:0:
447,178,78449,1,8,0:1:0:0:
395,239,78582,70,2,B|289:222|289:222|280:271,1,152.250004646301,4|2,1:0|1:0,0:0:0:0:
225,320,79113,1,8,0:0:0:0:
225,320,79245,2,2,L|169:309,1,50.7500015487671,0|0,1:0|0:0,0:0:0:0:
114,355,79511,1,2,1:0:0:0:
21,246,79776,1,2,3:1:0:0:
150,188,80042,2,2,L|159:132,2,50.7500015487671,0|8|0,3:0|0:0|1:0,0:1:0:0:
98,88,80440,1,2,3:1:0:0:
188,0,80706,6,2,B|220:47|220:47|326:64,1,152.250004646301,0|2,1:0|1:0,0:0:0:0:
380,24,81237,1,8,0:0:0:0:
380,24,81369,1,2,3:1:0:0:
471,132,81635,1,2,3:1:0:0:
345,199,81900,2,0,L|353:162,2,25.3750007743836,0|0|0,1:0|3:0|3:0,0:0:0:0:
417,238,82166,1,0,3:0:0:0:
417,238,82298,1,8,0:0:0:0:
359,330,82564,2,0,L|369:394,1,50.7500015487671,2|2,1:2|0:0,0:0:0:0:
287,371,82829,86,2,B|178:387|178:387|168:340,1,152.250004646301,0|2,1:0|3:1,0:0:0:0:
184,274,83360,1,8,0:0:0:0:
184,274,83493,2,2,L|127:258,1,50.7500015487671,0|0,1:0|0:0,0:0:0:0:
88,201,83759,1,2,1:0:0:0:
157,76,84024,1,2,3:1:0:0:
263,154,84290,2,2,L|318:164,2,50.7500015487671,0|8|0,3:0|0:0|1:0,0:1:0:0:
363,105,84688,1,2,3:1:0:0:
482,83,84953,6,2,B|522:134|522:134|503:236,1,152.250004646301,0|2,1:0|3:1,0:0:0:0:
443,258,85484,1,8,0:0:0:0:
443,258,85617,1,2,1:0:0:0:
339,384,85883,1,2,1:0:0:0:
258,266,86148,2,0,L|268:212,2,50.7500015487671,2|2|2,1:2|3:2|3:2,0:0:0:0:
206,317,86546,2,0,L|146:327,1,50.7500015487671,10|2,0:0|1:2,0:0:0:0:
102,277,86812,2,0,L|42:287,1,50.7500015487671,2|2,0:0|0:0,0:0:0:0:
0,235,87077,54,0,L|15:130,1,90.9999958343508,2|0,1:2|0:0,0:0:0:0:
89,42,87608,2,0,P|139:35|175:71,1,90.9999958343508,8|0,0:0|0:0,0:0:0:0:
235,94,88006,2,0,L|338:74,1,90.9999958343508,0|2,1:0|3:2,0:0:0:0:
396,42,88405,1,0,3:0:0:0:
396,42,88537,1,0,3:0:0:0:
493,132,88803,1,0,1:0:0:0:
493,132,88936,1,0,3:0:0:0:
417,234,89201,6,0,L|408:287,2,45.4999979171754,0|0|0,1:0|0:0|0:0,0:0:0:0:
303,350,89732,1,8,0:0:0:0:
303,350,89865,2,0,P|255:340|212:363,1,90.9999958343508
101,305,90396,2,0,L|92:251,2,45.4999979171754,2|0|0,1:2|3:0|3:0,0:0:0:0:
35,217,90794,1,8,0:0:0:0:
114,126,91060,2,0,L|123:72,1,45.4999979171754,0|0,3:0|3:0,0:0:0:0:
62,38,91325,86,0,L|151:20,1,90.9999958343508,2|0,1:2|0:0,0:0:0:0:
264,78,91856,2,0,L|374:60,1,90.9999958343508,8|0,0:0|0:0,0:0:0:0:
415,15,92254,2,0,P|403:69|431:101,1,90.9999958343508,0|2,1:0|3:2,0:0:0:0:
498,117,92652,1,0,3:0:0:0:
498,117,92785,1,0,3:0:0:0:
424,213,93051,2,0,L|432:257,2,45.4999979171754,0|0|0,1:0|3:0|3:0,0:0:0:0:
491,309,93449,5,0,1:0:0:0:
380,372,93714,1,0,0:0:0:0:
299,279,93980,1,8,0:0:0:0:
299,279,94113,1,0,0:0:0:0:
181,346,94378,2,0,B|104:318|118:382|42:368,1,136.499993751526,0|0,3:0|3:0,0:0:0:0:
5,250,95042,1,10,3:2:0:0:
10,228,95175,1,2,1:2:0:0:
16,206,95307,1,2,3:2:0:0:
21,183,95440,1,2,3:2:0:0:
27,161,95573,85,2,1:2:0:0:
4,36,95838,1,0,0:0:0:0:
127,4,96104,1,8,0:0:0:0:
127,4,96237,2,0,P|155:36|204:37,1,90.9999958343508,0|0,1:0|1:0,0:0:0:0:
268,1,96635,1,0,0:0:0:0:
345,101,96900,2,0,L|399:110,1,45.4999979171754,0|0,3:0|3:0,0:0:0:0:
457,74,97166,1,8,3:2:0:0:
457,74,97298,1,0,1:0:0:0:
501,193,97564,6,0,L|486:300,1,90.9999958343508,2|0,3:2|0:0,0:0:0:0:
512,355,97962,1,0,1:0:0:0:
389,381,98228,1,8,0:0:0:0:
389,381,98360,2,0,P|361:349|312:348,1,90.9999958343508,0|0,1:0|1:0,0:0:0:0:
248,384,98759,1,0,0:0:0:0:
171,284,99024,2,0,L|121:273,2,45.4999979171754,0|0|8,3:0|3:0|3:2,0:0:0:0:
61,316,99422,1,0,1:0:0:0:
6,205,99688,85,2,3:2:0:0:
6,205,99821,1,2,1:2:0:0:
100,119,100086,2,0,L|200:139,1,90.9999958343508,0|8,0:0|0:0,0:0:0:0:
243,83,100484,2,0,P|282:57|340:65,1,90.9999958343508,0|0,1:0|1:0,0:0:0:0:
387,14,100883,1,0,0:0:0:0:
477,103,101148,1,0,3:0:0:0:
477,103,101281,2,0,L|461:204,2,90.9999958343508,0|0|0,3:0|1:0|3:0,0:0:0:0:
395,94,101945,5,8,0:1:0:0:
395,94,102077,1,8,0:1:0:0:
326,201,102343,1,8,0:1:0:0:
225,140,102608,1,8,0:1:0:0:
225,140,102741,1,8,0:1:0:0:
225,140,102874,1,8,0:1:0:0:
146,239,103139,1,8,0:1:0:0:
46,167,103405,1,8,0:1:0:0:
46,167,103537,2,0,L|37:115,3,45.4999979171754,8|0|0|0,3:1|3:0|3:0|3:0,0:0:0:0:
0,225,104068,86,0,L|20:385,1,161.000003070831,4|0,1:2|3:0,0:0:0:0:
115,323,104865,1,0,1:0:0:0:
210,375,105130,2,0,B|298:389|270:317|367:336,1,161.000003070831,0|8,0:0|0:0,0:0:0:0:
498,368,105927,1,0,3:0:0:0:
498,368,106060,1,0,3:0:0:0:
498,368,106192,6,0,L|514:283,2,80.5000015354157,0|0|0,1:0|0:0|0:0,0:0:0:0:
368,338,106989,1,0,1:0:0:0:
368,338,107254,2,0,L|389:245,1,80.5000015354157,0|0,0:0|1:0,0:0:0:0:
459,229,107652,1,0,1:0:0:0:
459,229,107785,2,0,L|467:186,3,40.2500007677078,8|0|0|0,3:2|3:0|3:0|3:0,0:0:0:0:
427,114,108316,86,0,P|394:141|344:145,1,80.5000015354157,2|0,1:2|0:0,0:0:0:0:
280,64,108847,2,0,L|188:44,1,80.5000015354157,0|2,0:0|1:2,0:0:0:0:
123,129,109378,2,0,L|201:146,2,80.5000015354157,0|0|10,0:0|0:0|0:0,0:0:0:0:
0,247,110440,1,2,3:2:0:0:
33,355,112564,54,0,P|68:315|130:325,1,112,4|0,1:0|0:0,0:0:0:0:
189,360,112962,2,0,L|320:342,1,112,2|0,1:2|0:0,0:0:0:0:
377,356,113360,2,0,L|391:299,1,56,2|0,1:2|0:0,0:0:0:0:
343,238,113626,1,2,0:0:0:0:
425,107,113891,1,0,1:0:0:0:
425,107,114024,1,2,1:2:0:0:
425,107,114157,2,0,L|479:94,2,56,8|2|2,0:0|0:0|0:0,0:0:0:0:
360,62,114555,1,2,0:0:0:0:
360,62,114688,6,0,P|302:55|261:89,1,112,2|0,1:2|0:0,0:0:0:0:
199,39,115086,2,0,L|72:60,1,112,2|0,1:2|1:0,0:0:0:0:
10,45,115484,2,0,L|-3:119,1,56,2|0,1:2|0:0,0:0:0:0:
37,170,115750,1,2,0:0:0:0:
30,334,116015,1,0,1:0:0:0:
30,334,116148,1,2,1:2:0:0:
30,334,116281,2,0,P|62:331|91:318,1,56,8|0,0:0|1:0,0:0:0:0:
159,345,116546,2,0,P|179:320|190:290,1,56,2|0,1:3|0:0,0:0:0:0:
157,225,116812,86,0,L|285:207,1,112,4|2,1:2|0:0,0:0:0:0:
325,263,117210,1,2,1:2:0:0:
325,263,117343,2,0,P|363:298|424:300,1,112,10|2,0:0|1:2,0:0:0:0:
479,248,117741,2,0,L|502:131,1,112,2|2,0:0|0:0,0:0:0:0:
383,33,118272,2,0,L|361:142,1,112,2|2,1:2|3:2,0:0:0:0:
293,104,118670,2,0,L|233:116,1,56,2|2,3:2|3:2,0:0:0:0:
180,60,118936,6,0,P|140:29|73:34,1,112,2|2,1:2|0:0,0:0:0:0:
28,89,119334,1,2,1:2:0:0:
28,89,119467,2,0,P|-3:129|2:196,1,112,10|2,0:0|1:2,0:0:0:0:
70,219,119865,1,2,0:0:0:0:
44,373,120130,2,0,L|115:388,2,56,8|8|8,0:1|1:0|1:0,0:0:0:0:
160,340,120529,2,0,L|231:354,1,56,8|0,1:2|1:0,0:0:0:0:
285,313,120794,1,8,0:1:0:0:
285,313,120927,1,8,0:1:0:0:
355,348,121060,86,4,L|341:221,1,112,4|0,1:0|0:0,0:0:0:0:
302,169,121458,2,0,P|334:130|404:131,1,112,2|0,1:2|0:0,0:0:0:0:
459,166,121856,2,0,L|471:100,1,56,2|0,1:2|0:0,0:0:0:0:
507,41,122122,1,2,0:0:0:0:
354,4,122387,1,0,1:0:0:0:
354,4,122520,1,2,1:2:0:0:
354,4,122652,2,0,L|292:13,2,56,8|2|2,0:0|0:0|0:0,0:0:0:0:
244,66,123051,1,2,0:0:0:0:
244,66,123183,6,0,P|190:55|147:87,1,112,2|0,1:2|0:0,0:0:0:0:
69,72,123582,2,0,L|88:187,1,112,2|0,1:2|1:0,0:0:0:0:
21,224,123980,2,0,L|31:283,1,56,2|0,1:2|0:0,0:0:0:0:
81,338,124245,1,2,0:0:0:0:
218,256,124511,1,0,1:0:0:0:
218,256,124644,1,2,1:2:0:0:
218,256,124776,2,0,P|236:279|268:297,1,56,8|0,0:0|1:0,0:0:0:0:
302,358,125042,2,0,P|330:361|366:351,1,56,2|0,1:3|0:0,0:0:0:0:
423,314,125307,86,0,L|442:191,1,112,4|2,1:2|0:0,0:0:0:0:
496,147,125706,1,0,1:0:0:0:
496,147,125838,2,0,P|465:99|404:93,1,112,10|2,0:0|1:2,0:0:0:0:
343,54,126237,2,0,L|353:-5,2,56,2|0|0,0:0|0:0|0:0,0:0:0:0:
285,107,126635,1,0,1:0:0:0:
285,107,126768,1,0,1:0:0:0:
285,107,126900,1,8,0:0:0:0:
150,26,127166,2,0,L|82:40,1,56,2|2,3:2|3:2,0:0:0:0:
24,3,127431,6,0,L|11:132,1,112,2|2,1:2|0:0,0:0:0:0:
84,145,127829,2,0,P|41:151|6:217,1,112,2|0,1:2|0:0,0:0:0:0:
50,270,128228,1,2,1:2:0:0:
181,364,128493,1,2,0:0:0:0:
181,364,128626,2,0,L|242:353,2,56,8|8|8,0:1|1:0|1:0,0:0:0:0:
272,286,129024,2,0,L|345:303,1,56,10|2,0:0|1:2,0:0:0:0:
387,356,129290,1,8,0:1:0:0:
387,356,129422,1,8,0:1:0:0:
387,356,129555,6,0,L|454:369,1,40.2500007677078,2|2,1:2|0:0,0:0:0:0:
460,201,130086,1,8,3:2:0:0:
460,201,130219,2,0,L|369:184,2,80.5000015354157,0|0|0,3:0|3:0|3:0,0:0:0:0:
497,38,131148,1,8,3:2:0:0:
497,38,131281,1,2,1:2:0:0:
390,20,131546,85,0,3:0:0:0:
390,20,131679,2,0,L|381:75,1,40.2500007677078,2|2,1:2|0:0,0:0:0:0:
223,46,132210,1,8,3:2:0:0:
223,46,132343,2,0,L|206:138,2,80.5000015354157,0|0|2,3:0|3:0|1:2,0:0:0:0:
60,81,133272,1,8,0:0:0:0:
60,81,133405,1,2,1:2:0:0:
3,240,133803,6,0,B|98:227|59:294|155:298,1,161.000003070831,0|8,1:0|3:2,0:0:0:0:
188,260,134467,2,0,L|175:168,2,80.5000015354157,0|0|0,3:0|3:0|3:0,0:0:0:0:
312,382,135396,1,8,3:2:0:0:
312,382,135529,1,0,1:0:0:0:
428,260,135927,86,0,L|263:294,1,161.000003070831,2|8,1:2|3:2,0:0:0:0:
225,256,136591,2,0,P|202:229|205:182,2,80.5000015354157,0|0|2,3:0|3:0|1:2,0:0:0:0:
274,96,137520,1,8,3:2:0:0:
274,96,137652,2,0,L|378:80,1,80.5000015354157,0|2,1:0|0:0,0:0:0:0:
398,110,138051,5,2,1:2:0:0:
484,323,138582,1,8,3:2:0:0:
484,323,138714,2,0,L|401:337,1,80.5000015354157,2|2,1:2|1:2,0:0:0:0:
304,284,139245,2,0,L|208:295,1,80.5000015354157,0|0,3:0|3:0,0:0:0:0:
182,261,139644,1,8,0:0:0:0:
182,261,139776,1,2,1:2:0:0:
43,163,140175,85,2,1:2:0:0:
43,163,140307,2,0,P|96:159|117:93,1,120.750002303124,2|8,3:2|0:0,0:0:0:0:
102,48,140838,2,0,L|186:30,1,80.5000015354157,0|0,3:0|3:0,0:0:0:0:
289,61,141369,1,2,1:2:0:0:
456,107,141768,1,8,0:0:0:0:
456,107,141900,1,2,1:2:0:0:
500,269,142298,6,0,L|403:284,1,80.5000015354157,2|0,1:2|0:0,0:0:0:0:
379,321,142697,2,0,L|282:336,1,80.5000015354157,2|2,3:2|1:2,0:0:0:0:
257,371,143095,1,2,3:2:0:0:
241,259,143360,2,0,L|339:242,1,80.5000015354157,2|0,0:0|0:0,0:0:0:0:
356,200,143759,2,0,L|447:182,1,80.5000015354157,2|2,3:2|1:2,0:0:0:0:
484,212,144157,1,2,0:0:0:0:
466,100,144422,86,0,L|382:117,1,80.5000015354157,2|0,1:2|0:0,0:0:0:0:
337,87,144821,2,0,L|252:105,1,80.5000015354157,2|2,3:2|1:2,0:0:0:0:
218,143,145219,1,2,0:0:0:0:
126,78,145484,2,0,L|106:204,2,120.750002303124,2|2|2,0:0|3:2|3:2,0:0:0:0:
216,10,146546,6,0,P|269:-9|324:75,1,161.000003070831,2|8,1:2|0:0,0:0:0:0:
287,102,147210,2,0,L|274:184,2,80.5000015354157,2|2|0,1:2|1:2|3:0,0:0:0:0:
456,73,148139,1,8,0:0:0:0:
456,73,148272,1,2,1:2:0:0:
488,243,148670,85,2,1:2:0:0:
488,243,148803,2,0,L|360:263,1,120.750002303124,2|8,3:2|0:0,0:0:0:0:
332,304,149334,2,0,P|299:277|251:277,2,80.5000015354157,0|0|2,3:0|3:0|1:2,0:0:0:0:
180,369,150263,1,8,0:0:0:0:
180,369,150396,1,2,1:2:0:0:
180,369,150529,2,0,L|123:380,1,40.2500007677078,2|2,0:0|3:2,0:0:0:0:
90,351,150794,6,0,L|105:254,1,80.5000015354157,2|0,1:2|0:0,0:0:0:0:
79,219,151192,2,0,L|94:122,1,80.5000015354157,2|2,3:2|1:2,0:0:0:0:
127,95,151591,1,2,0:0:0:0:
239,104,151856,2,0,L|224:201,1,80.5000015354157,2|0,0:0|0:0,0:0:0:0:
256,231,152254,2,0,L|241:328,1,80.5000015354157,2|2,3:2|1:2,0:0:0:0:
280,352,152652,1,2,0:0:0:0:
256,192,152918,12,0,154511,0:0:0:0:
472,31,155042,70,0,P|431:69|370:61,1,112,4|0,1:0|0:0,0:0:0:0:
301,45,155440,2,0,L|314:167,1,112,2|0,1:2|0:0,0:0:0:0:
385,185,155838,2,0,L|393:250,1,56,2|0,1:2|0:0,0:0:0:0:
444,299,156104,1,2,0:0:0:0:
306,364,156369,1,0,1:0:0:0:
306,364,156502,1,2,1:2:0:0:
306,364,156635,2,0,L|249:352,2,56,8|2|2,0:0|0:0|0:0,0:0:0:0:
204,290,157033,1,2,0:0:0:0:
204,290,157166,6,0,P|162:333|101:338,1,112,2|0,1:2|0:0,0:0:0:0:
42,375,157564,2,0,L|28:249,1,112,2|0,1:2|0:0,0:0:0:0:
85,208,157962,2,0,L|75:137,1,56,2|0,1:2|0:0,0:0:0:0:
13,106,158228,1,2,0:0:0:0:
139,13,158493,1,0,1:0:0:0:
139,13,158626,1,2,1:2:0:0:
139,13,158759,2,0,L|205:26,1,56,8|0,0:0|1:0,0:0:0:0:
268,2,159024,2,0,L|283:68,1,56,2|0,1:3|0:0,0:0:0:0:
235,121,159290,86,0,P|269:166|327:169,1,112,4|2,1:2|0:0,0:0:0:0:
389,130,159688,1,2,1:2:0:0:
389,130,159821,2,0,L|510:152,1,112,10|2,0:0|1:2,0:0:0:0:
507,228,160219,2,0,L|396:207,1,112,2|2,1:2|0:0,0:0:0:0:
290,324,160750,2,0,P|252:281|181:275,1,112,2|0,1:2|2:0,0:0:0:0:
135,247,161148,5,2,3:2:0:0:
135,247,161281,1,2,3:2:0:0:
135,247,161414,2,0,L|126:181,2,56,2|2|2,1:2|0:0|0:0,0:0:0:0:
65,283,161812,2,0,L|72:338,1,56,2|10,1:2|0:0,0:0:0:0:
0,153,162210,1,2,1:2:0:0:
0,153,162343,2,0,P|35:108|97:103,1,112,2|8,0:0|3:1,0:0:0:0:
133,36,162741,2,0,L|191:25,1,56,8|8,0:1|0:1,0:0:0:0:
258,70,163006,1,8,1:2:0:0:
258,70,163139,1,0,1:0:0:0:
315,123,163272,2,0,L|376:112,1,56,8|8,0:1|0:1,0:0:0:0:
439,76,163537,86,4,L|422:194,1,112,4|0,1:0|0:0,0:0:0:0:
475,245,163936,2,0,P|465:292|406:318,1,112,2|0,1:2|0:0,0:0:0:0:
363,380,164334,2,0,L|298:364,1,56,2|0,1:2|0:0,0:0:0:0:
231,351,164599,1,2,0:0:0:0:
82,351,164865,1,0,1:0:0:0:
82,351,164998,1,2,1:2:0:0:
82,351,165130,2,0,L|73:286,2,56,8|0|2,0:0|0:0|0:0,0:0:0:0:
8,246,165529,1,2,0:0:0:0:
8,246,165661,6,0,P|62:240|89:169,1,112,2|0,1:2|0:0,0:0:0:0:
163,163,166060,2,0,P|109:157|82:86,1,112,2|0,1:2|0:0,0:0:0:0:
5,85,166458,2,0,L|16:15,1,56,2|0,1:2|0:0,0:0:0:0:
86,0,166723,1,2,0:0:0:0:
245,22,166989,1,0,1:0:0:0:
245,22,167122,1,2,1:2:0:0:
245,22,167254,2,0,P|242:54|263:86,1,56,8|0,0:0|1:0,0:0:0:0:
330,74,167520,2,0,P|354:91|394:90,1,56,2|0,1:3|0:0,0:0:0:0:
451,62,167785,86,0,L|431:195,1,112,4|2,1:2|0:0,0:0:0:0:
379,228,168183,1,0,1:0:0:0:
379,228,168316,2,0,P|316:226|278:277,1,112,10|2,0:0|1:2,0:0:0:0:
314,330,168714,2,0,L|382:345,2,56,2|0|0,0:0|0:0|0:0,0:0:0:0:
251,373,169113,1,0,1:0:0:0:
251,373,169245,1,0,1:0:0:0:
251,373,169378,1,8,0:0:0:0:
164,241,169644,2,0,L|100:229,1,56,2|2,3:2|3:2,0:0:0:0:
38,265,169909,6,0,L|23:140,1,112,2|2,1:2|0:0,0:0:0:0:
56,81,170307,2,0,P|94:43|154:49,1,112,2|8,1:2|0:1,0:0:0:0:
221,11,170706,1,8,1:1:0:0:
221,11,170838,1,8,0:1:0:0:
345,106,171104,2,0,L|358:42,2,56,8|8|8,0:1|1:1|1:0,0:0:0:0:
405,155,171502,2,0,L|413:219,1,56,8|8,0:0|0:1,0:0:0:0:
469,272,171768,1,8,0:1:0:0:
469,272,171900,1,8,0:1:0:0:
414,329,172033,70,2,P|362:315|315:355,1,115.50000352478,4|2,1:3|3:1,0:0:0:0:
248,316,172564,1,12,1:0:0:0:
248,316,172697,2,2,L|189:329,1,61.2500005841255,0|0,2:0|1:0,0:0:0:0:
126,379,172962,1,2,3:1:0:0:
0,284,173228,1,2,3:1:0:0:
80,146,173493,2,2,L|64:69,2,61.2500005841255,0|8|0,1:0|0:0|3:0,0:1:0:0:
152,112,173891,2,2,L|228:128,1,61.2500005841255,0|0,1:0|3:0,0:0:0:0:
272,71,174157,6,2,B|339:83|339:83|378:58|378:58|456:72,1,183.750001752377,0|2,1:0|1:0,0:0:0:0:
494,139,174688,1,8,0:0:0:0:
494,139,174821,1,2,1:0:0:0:
354,214,175086,1,2,1:0:0:0:
465,328,175352,2,0,L|479:258,2,61.2500005841255,0|0|0,3:2|1:0|1:0,0:0:0:0:
391,352,175750,1,8,3:2:0:0:
391,352,175883,1,0,1:0:0:0:
317,380,176015,2,2,L|239:364,1,61.2500005841255,0|2,1:0|1:0,0:1:0:0:
191,320,176281,86,0,B|152:352|152:352|17:325,1,183.750001752377,4|2,1:2|1:0,0:0:0:0:
63,258,176812,1,8,0:0:0:0:
63,258,176945,2,0,L|53:193,1,61.2500005841255,2|2,0:1|1:0,0:0:0:0:
39,119,177210,1,2,0:1:0:0:
165,21,177475,1,2,0:1:0:0:
165,21,177608,2,2,L|236:7,2,61.2500005841255,0|0|8,1:0|1:0|0:0,0:1:0:0:
297,32,178006,6,0,L|374:17,1,61.2500005841255,0|2,3:0|3:1,0:0:0:0:
424,56,178272,1,2,3:1:0:0:
287,151,178537,2,0,L|364:136,1,61.2500005841255,0|2,3:0|3:1,0:0:0:0:
435,179,178803,1,2,1:0:0:0:
278,260,179068,2,0,L|355:245,1,61.2500005841255,0|2,3:0|1:0,0:0:0:0:
449,301,179334,1,2,3:1:0:0:
449,301,179467,86,0,L|457:264,2,30.6250002920628,0|0|8,3:2|3:2|3:1,3:2:0:0:
332,357,179732,2,0,L|249:371,1,61.2500005841255,8|8,1:0|1:0,0:0:0:0:
209,318,179998,1,8,0:1:0:0:
209,318,180130,1,8,0:1:0:0:
151,378,180263,1,8,1:0:0:0:
0,277,180529,86,0,L|19:146,1,119.000002269745,4|2,1:1|0:0,0:0:0:0:
36,84,180927,2,0,B|93:81|93:81|126:26,1,119.000002269745,2|2,1:2|0:0,0:0:0:0:
192,67,181325,2,0,L|320:87,2,119.000002269745,0|0|0,1:0|0:0|1:0,0:0:0:0:
142,127,181989,1,0,1:0:0:0:
142,127,182122,1,8,0:0:0:0:
258,228,182387,2,0,L|268:290,1,59.5000011348725,0|0,3:0|3:0,0:0:0:0:
329,333,182652,38,0,L|465:360,1,119.000002269745,2|2,1:2|0:0,0:0:0:0:
500,300,183051,2,0,B|518:260|518:260|490:168,1,119.000002269745,2|2,1:2|0:0,0:0:0:0:
424,157,183449,2,0,L|438:89,1,59.5000011348725,0|2,1:0|0:0,0:0:0:0:
488,41,183714,1,0,0:0:0:0:
336,9,183980,1,0,1:0:0:0:
336,9,184113,2,0,B|309:48|309:48|232:65,1,119.000002269745,0|0,1:0|1:0,0:0:0:0:
169,29,184511,2,0,L|156:95,1,59.5000011348725,0|0,1:0|3:0,0:0:0:0:
83,118,184776,54,0,B|71:171|71:171|67:175|67:175|55:242,1,119.000002269745,4|0,1:2|3:0,0:0:0:0:
6,293,185175,2,0,P|68:284|98:349,1,119.000002269745,2|2,1:2|0:0,0:0:0:0:
165,364,185573,1,0,1:0:0:0:
284,266,185838,2,0,L|352:256,1,59.5000011348725,0|2,3:0|3:2,0:0:0:0:
419,288,186104,1,0,1:0:0:0:
419,288,186237,1,0,1:0:0:0:
455,216,186369,1,8,0:0:0:0:
361,92,186635,2,0,L|376:31,1,59.5000011348725,2|2,3:2|3:2,0:0:0:0:
303,4,186900,38,0,L|170:23,1,119.000002269745,2|2,1:2|0:0,0:0:0:0:
142,85,187298,2,0,L|9:104,1,119.000002269745,2|2,1:2|0:0,0:0:0:0:
2,176,187697,1,0,1:0:0:0:
111,285,187962,1,0,3:0:0:0:
111,285,188095,2,0,L|102:213,2,59.5000011348725,8|8|8,0:1|1:0|1:0,0:0:0:0:
164,341,188493,2,0,L|221:357,1,59.5000011348725,10|2,1:2|1:2,0:0:0:0:
288,316,188759,1,8,0:1:0:0:
288,316,188891,1,8,0:1:0:0:
346,375,189024,22,0,P|396:369|418:319,1,90.9999958343508,4|0,1:0|0:0,0:0:0:0:
483,308,189422,2,0,L|498:219,2,90.9999958343508,0|0|0,1:2|3:0|0:0,0:0:0:0:
380,231,190219,1,2,3:2:0:0:
277,165,190484,1,0,1:0:0:0:
277,165,190617,2,0,L|224:174,2,45.4999979171754,8|0|0,3:2|1:2|0:0,0:0:0:0:
132,269,191148,6,0,P|82:261|58:223,1,90.9999958343508,0|0,1:2|0:0,0:0:0:0:
9,179,191546,2,0,L|22:81,2,90.9999958343508,0|0|0,1:2|3:0|0:0,0:0:0:0:
144,126,192343,2,0,L|151:76,2,45.4999979171754,2|0|0,3:2|1:0|1:0,0:0:0:0:
211,32,192741,1,8,1:2:0:0:
211,32,192874,1,0,3:0:0:0:
211,32,193006,2,0,L|272:18,1,45.4999979171754,2|0,3:2|0:0,0:0:0:0:
315,73,193272,22,2,B|354:102|354:102|469:74,1,152.250004646301,6|2,1:2|1:0,0:0:0:0:
512,131,193803,1,8,0:0:0:0:
512,131,193936,2,2,L|499:195,1,50.7500015487671,0|0,2:0|1:0,0:0:0:0:
435,206,194201,1,2,3:1:0:0:
487,316,194467,1,2,3:1:0:0:
379,371,194732,2,2,L|276:339,1,101.500003097534,0|0,1:0|3:0,0:1:0:0:
209,373,195130,1,2,3:1:0:0:
98,322,195396,86,2,B|85:249|85:249|79:240|79:240|63:147,1,152.250004646301,0|2,1:2|1:0,0:0:0:0:
5,126,195927,1,8,0:0:0:0:
5,126,196060,1,2,3:1:0:0:
92,4,196325,1,2,3:1:0:0:
202,78,196591,6,0,L|263:90,2,50.7500015487671,8|8|8,0:1|1:0|1:0,0:0:0:0:
245,167,196989,1,8,0:1:0:0:
266,170,197122,1,8,0:1:0:0:
290,174,197254,1,8,1:2:0:0:
312,179,197387,1,8,0:0:0:0:
335,183,197520,69,0,1:0:0:0:
