osu file format v14

[General]
AudioFilename: audio.mp3
AudioLeadIn: 0
PreviewTime: 112498
Countdown: 0
SampleSet: Soft
StackLeniency: 0.2
Mode: 0
LetterboxInBreaks: 0
WidescreenStoryboard: 0

[Editor]
Bookmarks: 10617,27608,28006,28272,28537,28803,29068,29467,29732,30130,30396,30661,30927,31325,31458,31591,31856,32254,32520,32785,33051,33316,33714,33980,34378,34644,34909,35175,35573,35706,35838,36104,61591,62652,63714,64776,65838,66900,67962,69024,70086,78582,78980,79245,79511,79776,80042,80440,80706,81104,81369,81635,81900,82298,82431,82564,82829,83228,83493,83759,84024,84290,84688,84953,85352,85617,85883,86148,86546,86679,86812,87077,112564,129555,155042,172033,172431,172564,172697,172962,173228,173493,173891,174157,174555,174821,175086,175352,175750,175883,176015,176148,176679,176812,176945,177077,177210,177475,177608,178006,178073,178139,178272,178537,178670,178803,179068,179201,179334,179599,179732,179865,179998,180130,180263,180396,180529,189024,193006,193272,193670,193936,194201,194467,194732,195130,195396,195794,196060,196325,197520
DistanceSpacing: 1.4
BeatDivisor: 16
GridSize: 8
TimelineZoom: 3.599998

[Metadata]
Title:Daisan no Shinzou
TitleUnicode:第三の心臓
Artist:Harumaki Gohan
ArtistUnicode:はるまきごはん
Creator:Chills
Version:Broken Reflection
Source:
Tags:japanese electronic pop jpop j-pop vocaloid cover self-cover The Third Heart
BeatmapID:3064464
BeatmapSetID:1495201

[Difficulty]
HPDrainRate:5.6
CircleSize:4.4
OverallDifficulty:8.2
ApproachRate:9.1
SliderMultiplier:2
SliderTickRate:1

[Events]
//Background and Video events
0,0,"bg.jpeg",0,0
Video,1495,"harumaki.mp4"
//Break Periods
//Storyboard Layer 0 (Background)
//Storyboard Layer 1 (Fail)
//Storyboard Layer 2 (Pass)
//Storyboard Layer 3 (Foreground)
//Storyboard Layer 4 (Overlay)
//Storyboard Sound Samples

[TimingPoints]
2122,530.973451327434,4,2,1,45,1,0
2122,-66.6666666666667,4,2,1,45,0,0
3714,-66.6666666666667,4,2,1,45,0,0
5175,-133.333333333333,4,2,1,45,0,0
5838,-66.6666666666667,4,2,1,45,0,0
9422,-133.333333333333,4,2,1,45,0,0
9821,-66.6666666666667,4,2,1,45,0,0
10617,-66.6666666666667,4,2,1,50,0,1
10883,-66.6666666666667,4,2,1,50,0,0
18847,-57.1428571428571,4,2,1,50,0,0
19113,-66.6666666666667,4,2,1,50,0,0
22564,-83.3333333333333,4,2,1,50,0,0
22829,-74.0740740740741,4,2,1,50,0,0
23095,-66.6666666666667,4,2,1,50,0,0
26414,-133.333333333333,4,2,1,50,0,0
26812,-66.6666666666667,4,2,1,50,0,0
27343,-50,4,2,1,50,0,0
27608,-62.5,4,1,1,60,0,0
27807,-62.5,4,2,1,5,0,0
27874,-62.5,4,2,1,60,0,0
28006,-62.5,4,1,1,60,0,0
28073,-62.5,4,2,1,5,0,0
28139,-62.5,4,2,1,60,0,0
28272,-62.5,4,1,1,60,0,0
28338,-62.5,4,2,1,5,0,0
28405,-62.5,4,2,1,60,0,0
28537,-62.5,4,1,1,60,0,0
28604,-62.5,4,2,1,5,0,0
28670,-62.5,4,2,1,60,0,0
28803,-62.5,4,1,1,60,0,0
28869,-62.5,4,2,1,5,0,0
28936,-62.5,4,2,1,60,0,0
29467,-62.5,4,1,1,60,0,0
29533,-62.5,4,2,1,5,0,0
29599,-62.5,4,2,1,60,0,0
30130,-62.5,4,1,1,60,0,0
30197,-62.5,4,2,1,5,0,0
30263,-62.5,4,2,1,60,0,0
30396,-62.5,4,1,1,60,0,0
30462,-62.5,4,2,1,5,0,0
30661,-62.5,4,2,1,60,0,0
30728,-62.5,4,2,1,5,0,0
30927,-62.5,4,2,1,60,0,0
31856,-62.5,4,1,1,60,0,0
32055,-62.5,4,2,1,5,0,0
32122,-62.5,4,2,1,60,0,0
32254,-62.5,4,1,1,60,0,0
32321,-62.5,4,2,1,5,0,0
32387,-62.5,4,2,1,60,0,0
32520,-62.5,4,1,1,60,0,0
32586,-62.5,4,2,1,5,0,0
32652,-62.5,4,2,1,60,0,0
32785,-62.5,4,1,1,60,0,0
32852,-62.5,4,2,1,5,0,0
32918,-62.5,4,2,1,60,0,0
33051,-62.5,4,1,1,60,0,0
33117,-62.5,4,2,1,5,0,0
33183,-62.5,4,2,1,60,0,0
33714,-62.5,4,1,1,60,0,0
33781,-62.5,4,2,1,5,0,0
33847,-62.5,4,2,1,60,0,0
34378,-62.5,4,1,1,60,0,0
34445,-62.5,4,2,1,5,0,0
34511,-62.5,4,2,1,60,0,0
34644,-62.5,4,1,1,60,0,0
34710,-62.5,4,2,1,5,0,0
34909,-62.5,4,2,1,60,0,0
34975,-62.5,4,2,1,5,0,0
35175,-62.5,4,2,1,60,0,0
36104,-62.5,4,2,1,60,0,1
37697,-62.5,4,2,1,50,0,0
37829,-100,4,2,1,50,0,0
38228,-66.6666666666667,4,2,1,50,0,0
39821,-100,4,2,1,50,0,0
40352,-66.6666666666667,4,2,1,50,0,0
50971,-66.6666666666667,4,2,1,55,0,0
51104,-62.5,4,2,1,55,0,0
52564,-133.333333333333,4,2,1,55,0,0
53095,-133.333333333333,4,2,1,50,0,0
56679,-80,4,2,1,50,0,0
56812,-100,4,2,1,50,0,0
57343,-100,4,2,1,50,0,0
59467,-200,4,2,1,50,0,0
61325,-200,4,2,1,50,0,0
61591,-57.1428571428571,4,2,2,65,0,0
62520,-133.333333333333,4,2,2,65,0,0
62785,-57.1428571428571,4,2,1,65,0,0
62918,-57.1428571428571,4,2,2,65,0,0
64644,-133.333333333333,4,2,2,65,0,0
64909,-57.1428571428571,4,2,1,65,0,0
65042,-57.1428571428571,4,2,2,65,0,0
65440,-57.1428571428571,4,2,2,65,0,0
65506,-57.1428571428571,4,2,2,65,0,0
65838,-57.1428571428571,4,2,1,65,0,0
70086,-50,4,2,2,70,0,1
74334,-50,4,2,1,70,0,1
78582,-62.5,4,1,2,60,0,0
78781,-62.5,4,2,1,5,0,0
78847,-62.5,4,2,1,60,0,0
78980,-62.5,4,1,1,60,0,0
79046,-62.5,4,2,1,5,0,0
79113,-62.5,4,2,1,60,0,0
79245,-62.5,4,1,1,60,0,0
79312,-62.5,4,2,1,5,0,0
79378,-62.5,4,2,1,60,0,0
79511,-62.5,4,1,1,60,0,0
79577,-62.5,4,2,1,5,0,0
79644,-62.5,4,2,1,60,0,0
79776,-62.5,4,1,1,60,0,0
79843,-62.5,4,2,1,5,0,0
79909,-62.5,4,2,1,60,0,0
80440,-62.5,4,1,1,60,0,0
80506,-62.5,4,2,1,5,0,0
80573,-62.5,4,2,1,60,0,0
81104,-62.5,4,1,1,60,0,0
81170,-62.5,4,2,1,5,0,0
81237,-62.5,4,2,1,60,0,0
81369,-62.5,4,1,1,60,0,0
81436,-62.5,4,2,1,5,0,0
81635,-62.5,4,2,1,60,0,0
81701,-62.5,4,2,1,5,0,0
81900,-62.5,4,2,1,60,0,0
82829,-62.5,4,1,1,60,0,0
83029,-62.5,4,2,1,5,0,0
83095,-62.5,4,2,1,60,0,0
83228,-62.5,4,1,1,60,0,0
83294,-62.5,4,2,1,5,0,0
83360,-62.5,4,2,1,60,0,0
83493,-62.5,4,1,1,60,0,0
83560,-62.5,4,2,1,5,0,0
83626,-62.5,4,2,1,60,0,0
83759,-62.5,4,1,1,60,0,0
83825,-62.5,4,2,1,5,0,0
83891,-62.5,4,2,1,60,0,0
84024,-62.5,4,1,1,60,0,0
84091,-62.5,4,2,1,5,0,0
84157,-62.5,4,2,1,60,0,0
84688,-62.5,4,1,1,60,0,0
84754,-62.5,4,2,1,5,0,0
84821,-62.5,4,2,1,60,0,0
85352,-62.5,4,1,1,60,0,0
85418,-62.5,4,2,1,5,0,0
85484,-62.5,4,2,1,60,0,0
85617,-62.5,4,1,1,60,0,0
85683,-62.5,4,2,1,5,0,0
85883,-62.5,4,2,1,60,0,0
85949,-62.5,4,2,1,5,0,0
86148,-62.5,4,2,1,60,0,0
87077,-66.6666666666667,4,2,1,50,0,1
87343,-66.6666666666667,4,2,1,50,0,0
90794,-100,4,2,1,50,0,0
91325,-66.6666666666667,4,2,1,50,0,0
101945,-62.5,4,2,1,55,0,0
103537,-133.333333333333,4,2,1,55,0,0
104068,-133.333333333333,4,2,1,50,0,0
107652,-80,4,2,1,50,0,0
107785,-100,4,2,1,50,0,0
110440,-200,4,2,1,50,0,0
112298,-200,4,2,1,50,0,0
112564,-50,4,2,2,70,0,1
116812,-50,4,2,1,70,0,1
120130,-50,4,2,2,70,0,1
120927,-50,4,2,2,70,0,0
121060,-50,4,2,2,70,0,1
125307,-50,4,2,1,70,0,1
129555,-80,4,2,1,50,0,0
131281,-80,4,2,2,50,0,0
131414,-80,4,2,1,50,0,0
132874,-80,4,2,2,50,0,0
133006,-80,4,2,1,50,0,0
133405,-80,4,2,2,50,0,0
133537,-80,4,2,1,50,0,0
137122,-80,4,2,2,50,0,0
137254,-80,4,2,1,50,0,0
138316,-83.3333333333333,4,2,1,50,0,0
138714,-83.3333333333333,4,2,2,50,0,0
140042,-83.3333333333333,4,2,1,50,0,0
141369,-83.3333333333333,4,2,2,50,0,0
142298,-83.3333333333333,4,2,1,50,0,0
142962,-83.3333333333333,4,2,2,50,0,0
143095,-83.3333333333333,4,2,1,50,0,0
143228,-83.3333333333333,4,2,2,50,0,0
143360,-83.3333333333333,4,2,1,50,0,0
144024,-83.3333333333333,4,2,2,50,0,0
144157,-83.3333333333333,4,2,1,50,0,0
145086,-83.3333333333333,4,2,2,50,0,0
145219,-83.3333333333333,4,2,1,50,0,0
145620,-83.3333333333333,4,2,2,50,0,0
145750,-83.3333333333333,4,2,1,50,0,0
147210,-83.3333333333333,4,2,2,50,0,0
147608,-83.3333333333333,4,2,1,50,0,0
148272,-83.3333333333333,4,2,2,50,0,0
148405,-83.3333333333333,4,2,1,50,0,0
149865,-83.3333333333333,4,2,2,50,0,0
149998,-83.3333333333333,4,2,1,50,0,0
150396,-83.3333333333333,4,2,2,50,0,0
150529,-83.3333333333333,4,2,1,50,0,0
151458,-83.3333333333333,4,2,2,50,0,0
151591,-83.3333333333333,4,2,1,50,0,0
151723,-83.3333333333333,4,2,2,50,0,0
151856,-83.3333333333333,4,2,1,50,0,0
152520,-83.3333333333333,4,2,2,50,0,0
152652,-83.3333333333333,4,2,1,50,0,0
152918,-500,4,2,1,50,0,0
152951,-500,4,2,2,5,0,0
153449,-500,4,2,3,10,0,0
153582,-500,4,2,4,20,0,0
153714,-500,4,2,3,30,0,0
153847,-500,4,2,4,40,0,0
153980,-500,4,2,3,50,0,0
154113,-500,4,2,4,60,0,0
154245,-500,4,2,3,70,0,0
154378,-500,4,2,3,40,0,0
154511,-200,4,2,3,50,0,0
155042,-50,4,2,2,70,0,1
159290,-50,4,2,1,70,0,1
163405,-50,4,2,1,70,0,0
163537,-50,4,2,2,70,0,1
167785,-50,4,2,1,70,0,1
172033,-100,4,2,1,60,0,0
172431,-50,4,2,1,60,0,0
172564,-50,4,2,1,75,0,1
172697,-50,4,1,1,75,0,1
172763,-50,4,2,1,5,0,1
172829,-50,4,2,1,75,0,1
172962,-50,4,1,1,75,0,1
173029,-50,4,2,1,5,0,1
173095,-50,4,2,1,75,0,1
173228,-50,4,1,1,75,0,1
173294,-50,4,2,1,5,0,1
173360,-50,4,2,1,75,0,1
173891,-50,4,1,1,75,0,1
173958,-50,4,2,1,5,0,1
174024,-50,4,2,1,75,0,1
174555,-50,4,1,1,75,0,1
174622,-50,4,2,1,5,0,1
174688,-50,4,2,1,75,0,1
174821,-50,4,1,1,75,0,1
174887,-50,4,2,1,5,0,1
175086,-50,4,2,1,75,0,1
175152,-50,4,2,1,5,0,1
175352,-50,4,2,1,60,0,1
176679,-50,4,2,2,75,0,1
177210,-50,4,2,1,75,0,1
177475,-50,4,2,2,75,0,1
177608,-50,4,2,1,75,0,1
178139,-50,4,2,2,80,0,1
178405,-100,4,2,1,75,0,1
178670,-100,4,2,2,90,0,1
178936,-66.6666666666667,4,2,1,75,0,1
179201,-66.6666666666667,4,2,2,100,0,1
179467,-50,4,2,1,75,0,1
180396,-50,4,2,1,50,0,0
180529,-50,4,2,1,75,0,1
186635,-50,4,2,1,75,0,1
189024,-66.6666666666667,4,2,1,45,0,0
193272,-66.6666666666667,4,1,1,60,0,0
193471,-66.6666666666667,4,2,1,5,0,0
193537,-66.6666666666667,4,2,1,60,0,0
193670,-66.6666666666667,4,1,1,60,0,0
193737,-66.6666666666667,4,2,1,5,0,0
193803,-66.6666666666667,4,2,1,60,0,0
193936,-66.6666666666667,4,1,1,60,0,0
194002,-66.6666666666667,4,2,1,5,0,0
194068,-66.6666666666667,4,2,1,60,0,0
194201,-66.6666666666667,4,1,1,60,0,0
194268,-66.6666666666667,4,2,1,5,0,0
194334,-66.6666666666667,4,2,1,60,0,0
194467,-66.6666666666667,4,2,2,60,0,0
194599,-66.6666666666667,4,2,1,60,0,0
195130,-66.6666666666667,4,1,1,60,0,0
195197,-66.6666666666667,4,2,1,5,0,0
195263,-66.6666666666667,4,2,1,60,0,0
195794,-66.6666666666667,4,1,1,60,0,0
195860,-66.6666666666667,4,2,1,5,0,0
195927,-66.6666666666667,4,2,1,60,0,0
196060,-66.6666666666667,4,1,1,60,0,0
196126,-66.6666666666667,4,2,1,5,0,0
196192,-66.6666666666667,4,2,1,60,0,0
196325,-66.6666666666667,4,1,1,60,0,0
196391,-66.6666666666667,4,2,1,5,0,0
196458,-66.6666666666667,4,2,1,60,0,0
197520,-1000,4,2,1,50,0,0

[Colours]
Combo1 : 253,196,196
Combo2 : 133,186,250
Combo3 : 128,207,255
Combo4 : 254,148,112
Combo5 : 247,128,128
Combo6 : 184,149,255
Combo7 : 240,203,254

[HitObjects]
31,13,2122,6,0,B|116:-9|96:64|180:47,1,150.000005722046,2|0,1:2|0:0,0:0:0:0:
267,46,2520,2,0,B|266:28|250:11|250:11|255:28|256:50,1,75.0000028610231,0|8,0:0|0:0,0:0:0:0:
86,195,2785,2,0,B|87:177|103:160|103:160|98:177|97:199,1,75.0000028610231,0|0,1:2|0:0,0:0:0:0:
266,266,3051,2,0,L|183:283,1,75.0000028610231,0|0,1:2|0:0,0:0:0:0:
102,313,3316,1,2,3:2:0:0:
14,329,3449,1,0,3:0:0:0:
9,301,3582,1,0,3:0:0:0:
99,293,3714,2,0,L|110:370,1,75.0000028610231,8|0,3:2|1:2,0:0:0:0:
75,120,3980,2,0,L|86:197,1,75.0000028610231
31,13,4245,6,0,B|116:-9|96:64|180:47,1,150.000005722046,0|0,1:2|0:0,0:0:0:0:
267,46,4644,2,0,B|266:28|250:11|250:11|255:28|256:50,1,75.0000028610231,0|8,0:0|0:0,0:0:0:0:
86,195,4909,2,0,B|87:177|103:160|103:160|98:177|97:199,1,75.0000028610231
266,266,5175,2,0,L|186:282,1,75.0000028610231,0|2,0:0|1:2,0:0:0:0:
372,153,5573,1,0,3:0:0:0:
366,180,5706,1,0,3:0:0:0:
454,177,5838,2,0,L|469:89,1,75.0000028610231,8|0,3:2|1:2,0:0:0:0:
421,346,6104,2,0,L|436:258,1,75.0000028610231
481,13,6369,86,0,B|396:-9|416:64|332:47,1,150.000005722046,2|0,1:2|0:0,0:0:0:0:
261,3,6768,2,0,B|251:18|254:41|254:41|260:24|272:6,1,75.0000028610231,0|8,0:0|0:0,0:0:0:0:
290,122,7033,2,0,B|299:137|296:160|296:160|278:125,2,75.0000028610231,0|0|0,1:2|0:0|1:2,0:0:0:0:
477,173,7564,1,2,3:2:0:0:
441,100,7697,1,0,3:0:0:0:
464,96,7829,1,0,3:0:0:0:
454,177,7962,2,0,L|367:187,3,75.0000028610231,8|0|0|0,3:2|1:2|0:0|0:0,0:0:0:0:
481,13,8493,6,0,B|396:-9|416:64|332:47,1,150.000005722046,0|0,1:2|0:0,0:0:0:0:
261,3,8891,2,0,B|251:18|254:41|254:41|260:24|272:6,1,75.0000028610231,0|8,0:0|0:0,0:0:0:0:
290,122,9157,2,0,B|299:137|296:160|296:160|290:143|278:125,1,75.0000028610231,0|0,0:0|3:0,0:0:0:0:
454,177,9422,2,0,L|376:185,1,75.0000028610231,0|2,3:2|1:2,0:0:0:0:
262,239,9821,2,0,B|252:254|255:277|255:277|261:260|273:242,2,75.0000028610231,0|0|8,3:0|3:0|0:0,0:0:0:0:
418,282,10219,2,0,L|325:292,1,75.0000028610231,0|0,1:2|3:2,0:0:0:0:
170,298,10484,1,0,3:0:0:0:
21,355,10617,86,0,B|59:341|92:352|92:352|90:341|90:341|106:376|153:389,1,150.000005722046,2|0,1:2|0:0,0:0:0:0:
161,371,11015,1,0,0:0:0:0:
25,186,11148,2,0,P|35:224|41:263,1,75.0000028610231,8|0,0:0|1:2,0:0:0:0:
200,164,11414,1,0,0:0:0:0:
179,148,11546,1,0,1:2:0:0:
115,195,11679,2,0,P|125:233|131:272,2,75.0000028610231,0|2|0,0:0|3:2|3:0,0:0:0:0:
18,47,12077,2,0,B|95:22|80:92|168:68,1,150.000005722046,0|0,3:0|1:2,0:0:0:0:
241,101,12475,2,0,P|246:63|256:27,1,75.0000028610231,0|0,3:0|3:0,0:0:0:0:
491,29,12741,6,0,B|453:43|420:32|420:32|422:43|422:43|406:8|359:-5,1,150.000005722046,0|0,1:2|0:0,0:0:0:0:
354,15,13139,1,0,0:0:0:0:
463,203,13272,1,8,0:0:0:0:
481,192,13405,2,0,P|475:154|465:118,2,75.0000028610231
275,103,13936,86,0,P|284:139|290:176,1,75.0000028610231,2|0,1:2|3:0,0:0:0:0:
234,249,14201,1,0,3:0:0:0:
299,290,14334,2,0,B|318:281|326:263|326:263|342:277|373:278,3,75.0000028610231,8|0|0|0,3:2|1:2|3:2|3:2,0:0:0:0:
512,343,14865,6,0,B|488:323|440:335|440:335|435:329|435:329|420:367|366:374,1,150.000005722046,2|0,1:2|0:0,0:0:0:0:
366,359,15263,1,0,0:0:0:0:
499,233,15396,2,0,P|504:196|514:153,1,75.0000028610231,8|0,0:0|1:2,0:0:0:0:
409,125,15661,1,0,0:0:0:0:
425,141,15794,2,0,P|416:177|411:214,1,75.0000028610231,0|0,1:2|0:0,0:0:0:0:
318,197,16060,2,0,P|330:119|348:48,1,150.000005722046,2|0,3:2|3:0,0:0:0:0:
255,32,16458,2,0,P|246:68|241:105,1,75.0000028610231,8|0,3:2|1:2,0:0:0:0:
26,206,16723,1,0,3:2:0:0:
11,187,16856,1,0,3:2:0:0:
99,141,16989,86,0,B|89:156|92:179|92:179|98:162|110:144,1,75.0000028610231,0|0,1:2|0:0,0:0:0:0:
188,162,17254,2,0,B|178:177|181:200|181:200|187:183|199:165,1,75.0000028610231
11,28,17520,2,0,B|84:8|72:82|151:60,1,150.000005722046,8|0,0:0|0:0,0:0:0:0:
166,39,17918,1,0,1:0:0:0:
282,184,18051,2,0,B|272:199|275:222|275:222|281:205|293:187,1,75.0000028610231,0|2,0:0|1:2,0:0:0:0:
45,310,18316,1,0,3:0:0:0:
122,252,18449,2,0,B|131:267|128:290|128:290|122:273|110:255,1,75.0000028610231,0|8,3:0|3:2,0:0:0:0:
45,310,18714,1,0,1:2:0:0:
152,369,18847,2,0,P|217:354|294:343,1,131.250001251698,0|0,3:0|3:0,0:0:0:0:
373,372,19113,6,0,B|381:338|350:311|350:311|357:308|357:308|350:266|382:242,1,150.000005722046,2|0,1:2|0:0,0:0:0:0:
404,250,19511,1,0,0:0:0:0:
490,187,19644,1,8,0:0:0:0:
471,177,19776,2,0,P|463:139|453:100,2,75.0000028610231,0|0|0,1:0|0:0|1:0,0:0:0:0:
240,44,20175,2,0,P|280:42|300:4,1,75.0000028610231,0|2,0:0|0:0,0:0:0:0:
304,119,20440,1,0,3:0:0:0:
315,134,20573,2,0,P|355:132|375:94,1,75.0000028610231,0|8,3:0|3:2,0:0:0:0:
163,12,20838,2,0,P|155:49|145:89,1,75.0000028610231,0|0,1:0|3:0,0:0:0:0:
8,167,21104,1,0,3:0:0:0:
26,150,21237,86,0,B|108:126|88:193|171:179,2,150.000005722046,0|0|8,1:0|0:0|0:0,0:0:0:0:
66,69,21900,1,0,0:0:0:0:
188,269,22166,2,0,P|205:196|231:125,1,150.000005722046,0|2,0:0|1:2,0:0:0:0:
4,373,22564,2,0,P|2:352|18:370,1,59.9999981689454,0|0,3:0|3:0,0:0:0:0:
104,326,22829,2,0,P|110:302|120:328,1,67.5000002574921,8|0,3:2|1:0,0:0:0:0:
213,366,23095,2,0,P|229:341|230:375,2,75.0000028610231,0|0|2,3:0|3:0|1:2,0:0:0:0:
464,208,23626,6,0,P|455:244|449:281,1,75.0000028610231
299,291,23891,1,8,0:0:0:0:
242,239,24024,2,0,B|319:238|289:307|383:306,2,150.000005722046,0|0|2,1:0|1:0|0:0,0:0:0:0:
222,249,24688,1,0,3:0:0:0:
293,164,24821,2,0,P|286:125|276:82,1,75.0000028610231,0|8,3:0|3:2,0:0:0:0:
376,156,25086,1,0,1:0:0:0:
385,145,25219,2,0,P|378:106|368:63,1,75.0000028610231,0|0,3:0|3:0,0:0:0:0:
482,39,25484,86,0,P|408:29|318:11,1,150.000005722046,0|0,1:0|0:0,0:0:0:0:
245,32,25883,2,0,B|235:47|238:70|238:70|244:53|256:35,1,75.0000028610231,0|8,0:0|0:0,0:0:0:0:
134,79,26148,2,0,B|132:96|146:115|146:115|143:97|145:76,1,75.0000028610231,0|0,1:0|0:0,0:0:0:0:
71,171,26414,6,0,B|78:187|100:196|100:196|88:182|79:162,1,75.0000028610231,0|2,1:0|1:2,0:0:0:0:
0,227,26812,86,0,P|8:263|13:300,1,75.0000028610231,0|0,3:0|3:0,0:0:0:0:
150,371,27077,2,0,P|155:333|163:297,1,75.0000028610231,8|0,3:2|1:0,0:0:0:0:
176,285,27276,37,0,3:0:0:0:
190,276,27343,2,0,B|250:289|250:289|263:316|263:316|323:327,1,150,0|0,3:0|0:0,0:0:0:0:
443,324,27608,86,2,B|453:266|453:266|342:244,1,160,0|0,1:0|3:0,0:0:0:0:
344,234,27940,1,0,3:0:0:0:
338,222,28006,2,2,L|323:132,1,80,0|8,3:0|0:0,0:0:0:0:
449,60,28272,2,2,L|461:139,1,80,0|0,1:0|0:0,0:0:0:0:
233,163,28537,2,2,B|189:166|189:166|178:126,1,80,0|0,1:0|0:0,0:0:0:0:
244,61,28803,2,2,B|263:21|263:21|303:31,1,80,0|0,3:0|3:0,0:0:0:0:
324,143,29068,2,2,B|348:179|348:179|319:209,2,80,0|8|0,3:0|0:0|1:0,0:1:0:0:
152,34,29467,2,2,L|61:50,1,80,0|0,3:0|3:0,0:0:0:0:
64,57,29666,1,0,3:0:0:0:
56,66,29732,6,2,B|44:134|44:134|46:144|46:144|31:228,1,160,0|0,1:0|3:0,0:1:0:0:
83,377,30130,2,2,L|69:290,1,80,0|8,3:0|0:0,0:0:0:0:
171,309,30396,2,2,L|185:233,1,60,0|0,3:0|3:0,0:0:0:0:
273,272,30661,2,2,L|307:213,1,40,0|0,3:0|3:0,0:1:0:0:
486,356,30927,1,0,1:0:0:0:
486,356,30993,1,0,3:0:0:0:
486,356,31060,1,0,3:0:0:0:
407,366,31192,1,0,3:0:0:0:
352,306,31325,1,8,3:2:0:0:
375,229,31458,1,0,1:0:0:0:
457,197,31591,2,0,L|442:285,1,80,2|2,1:2|0:0,0:0:0:0:
494,11,31856,86,2,B|474:106|474:106|405:94,1,160,0|0,1:0|3:0,0:0:0:0:
399,81,32188,1,0,3:0:0:0:
390,70,32254,2,2,L|297:83,1,80,0|8,3:0|0:0,0:0:0:0:
134,24,32520,2,2,L|220:9,1,80,0|0,1:0|0:0,0:0:0:0:
172,193,32785,2,2,B|161:209|161:209|152:146,1,80,0|0,0:0|0:0,0:0:0:0:
24,70,33051,2,2,B|15:52|15:52|74:76,1,80,0|0,3:0|3:0,0:0:0:0:
213,11,33316,2,2,B|232:12|232:12|182:51,2,80,0|8|0,3:0|0:0|1:0,0:1:0:0:
52,166,33714,2,2,L|62:254,1,80,0|0,3:0|3:0,0:0:0:0:
51,258,33914,1,0,3:0:0:0:
41,269,33980,6,2,B|29:328|29:328|143:355,1,160,0|0,1:0|3:0,0:1:0:0:
280,323,34378,2,2,L|191:304,1,80,0|8,3:0|0:0,0:0:0:0:
381,288,34644,2,2,L|317:248,1,60,0|0,1:0|3:0,0:0:0:0:
483,293,34909,2,2,L|436:234,1,40,0|0,1:0|3:0,0:1:0:0:
258,213,35175,1,0,1:0:0:0:
258,213,35241,1,0,3:0:0:0:
258,213,35307,1,0,3:0:0:0:
331,181,35440,1,2,0:0:0:0:
353,103,35573,1,10,0:0:0:0:
299,43,35706,1,2,1:2:0:0:
281,56,35838,2,0,L|181:75,1,80,2|0,3:2|3:0,0:0:0:0:
490,27,36104,69,2,1:2:0:0:
9,364,37697,85,8,0:0:0:0:
21,373,37829,2,0,L|127:345,1,100,0|0,1:0|0:0,0:0:0:0:
307,238,38228,6,0,B|274:246|258:281|258:281|260:270|260:270|227:281|189:267,1,150.000005722046,0|0,1:0|0:0,0:0:0:0:
176,252,38626,1,0,0:0:0:0:
69,284,38759,1,8,0:0:0:0:
81,268,38891,2,0,P|71:228|60:193,1,75.0000028610231,0|0,1:0|0:0,0:0:0:0:
185,137,39157,2,0,B|100:148|136:80|35:97,1,150.000005722046,0|2,1:0|1:2,0:0:0:0:
35,109,39489,1,0,3:0:0:0:
35,109,39555,1,0,3:0:0:0:
169,58,39688,1,0,3:0:0:0:
161,48,39821,2,0,P|167:20|175:-4,3,50,8|0|0|0,3:2|1:0|3:0|3:0,0:0:0:0:
390,159,40352,86,0,B|357:150|341:115|341:115|343:126|343:126|310:115|272:129,1,150.000005722046,2|0,1:2|0:0,0:0:0:0:
260,145,40750,1,0,0:0:0:0:
185,226,40883,1,8,0:0:0:0:
174,243,41015,2,0,P|209:235|259:226,1,75.0000028610231,0|0,1:0|0:0,0:0:0:0:
313,316,41281,2,0,P|276:323|239:330,1,75.0000028610231,0|0,1:0|0:0,0:0:0:0:
97,167,41546,1,2,3:2:0:0:
111,152,41679,2,0,P|146:144|196:135,1,75.0000028610231,0|0,3:0|3:0,0:0:0:0:
275,33,41945,2,0,B|355:2|346:77|416:48,1,150.000005722046,8|0,3:2|3:0,0:0:0:0:
434,60,42343,1,0,3:0:0:0:
458,203,42475,6,0,B|458:177|478:167|478:167|473:187|475:203,1,75.0000028610231,0|0,1:0|0:0,0:0:0:0:
360,185,42741,2,0,B|360:159|380:149|380:149|375:169|377:185,1,75.0000028610231
196,313,43006,2,0,P|266:295|349:282,1,150.000005722046,8|0,0:0|0:0,0:0:0:0:
453,320,43405,2,0,P|412:323|393:358,2,75.0000028610231,0|0|2,0:0|0:0|1:2,0:0:0:0:
254,160,43803,2,0,B|254:134|274:124|274:124|269:144|271:160,1,75.0000028610231,0|0,3:0|3:0,0:0:0:0:
448,91,44068,1,10,3:2:0:0:
376,69,44201,1,2,1:2:0:0:
303,39,44334,1,2,3:2:0:0:
284,47,44467,1,2,3:2:0:0:
205,26,44599,86,0,B|181:6|133:18|133:18|128:12|128:12|113:50|59:57,1,150.000005722046,2|0,1:2|0:0,0:0:0:0:
59,49,44998,1,0,0:0:0:0:
125,147,45130,1,8,0:0:0:0:
149,157,45263,2,0,P|183:147|227:141,2,75.0000028610231,0|0|0,1:0|0:0|1:0,0:0:0:0:
49,243,45661,2,0,B|29:235|17:218|17:218|33:228|56:230,1,75.0000028610231,0|2,0:0|3:2,0:0:0:0:
245,358,45927,2,0,B|264:347|276:330|276:330|260:340|237:342,1,75.0000028610231,0|0,3:0|3:0,0:0:0:0:
187,240,46192,2,0,P|221:230|265:224,1,75.0000028610231,8|0,3:2|1:0,0:0:0:0:
493,322,46458,1,2,3:2:0:0:
464,248,46591,1,2,3:2:0:0:
483,334,46723,6,0,B|459:314|411:326|411:326|406:320|406:320|391:358|337:365,1,150.000005722046,0|0,1:0|0:0,0:0:0:0:
334,350,47122,1,0,0:0:0:0:
359,241,47254,1,8,0:0:0:0:
373,225,47387,2,0,P|366:185|353:143,2,75.0000028610231,0|0|0,1:0|0:0|1:0,0:0:0:0:
372,14,47785,2,0,B|388:26|395:46|395:46|382:32|361:23,1,75.0000028610231,0|2,0:0|1:2,0:0:0:0:
214,105,48051,2,0,B|197:117|190:137|190:137|203:123|224:114,1,75.0000028610231,0|0,3:0|3:0,0:0:0:0:
472,189,48316,2,0,P|465:149|452:107,1,75.0000028610231,8|0,3:2|1:0,0:0:0:0:
204,21,48582,1,2,3:2:0:0:
230,26,48714,1,2,3:2:0:0:
180,20,48847,86,0,B|96:25|133:84|44:83,1,150.000005722046,0|0,1:0|0:0,0:0:0:0:
31,65,49245,1,0,0:0:0:0:
99,165,49378,1,8,0:0:0:0:
112,157,49511,2,0,P|134:193|127:227,1,75.0000028610231,0|0,1:0|0:0,0:0:0:0:
163,356,49776,1,0,1:0:0:0:
154,346,49909,2,0,P|114:337|70:332,1,75.0000028610231,0|2,0:0|3:2,0:0:0:0:
335,258,50175,1,0,3:0:0:0:
272,294,50307,2,0,P|235:286|188:280,1,75.0000028610231,0|8,3:0|3:2,0:0:0:0:
419,375,50573,2,0,P|429:300|449:222,1,150.000005722046,0|0,1:0|3:0,0:0:0:0:
251,107,50971,5,8,0:1:0:0:
324,165,51104,2,0,L|412:149,1,80,8|0,0:1|0:0,0:0:0:0:
395,24,51369,2,0,L|483:8,1,80,8|0,0:1|0:0,0:0:0:0:
184,169,51635,1,8,0:1:0:0:
251,107,51768,1,8,0:1:0:0:
369,242,51900,2,0,L|457:226,1,80,8|0,0:1|0:0,0:0:0:0:
216,364,52166,2,0,L|304:348,1,80,8|0,0:1|0:0,0:0:0:0:
41,290,52431,1,8,0:1:0:0:
133,333,52564,2,0,L|126:292,3,37.5000014305115,8|0|0|0,0:1|3:0|3:0|3:0,0:0:0:0:
41,290,53095,86,0,P|26:209|15:136,1,150.000005722046,4|0,1:2|3:0,0:0:0:0:
14,48,53891,1,0,1:0:0:0:
101,85,54157,2,0,B|137:59|184:79|173:125|245:115,1,150.000005722046,0|8,0:0|0:0,0:0:0:0:
371,142,54953,1,0,0:0:0:0:
353,128,55086,1,0,0:0:0:0:
327,121,55219,2,0,P|280:127|247:196,2,112.500004291535,0|0|0,1:0|1:0|1:0,0:0:0:0:
226,27,56281,2,0,L|309:41,1,75.0000028610231,0|0,0:0|1:0,0:0:0:0:
378,36,56679,2,0,L|374:3,1,31.25,0|0,1:0|3:0,0:0:0:0:
388,49,56812,2,0,L|445:58,3,50,8|0|0|0,0:0|3:0|3:0|3:0,0:0:0:0:
500,149,57343,6,0,P|450:152|389:164,1,100,2|0,1:2|0:0,0:0:0:0:
310,227,57741,2,0,L|324:123,1,100,0|0,1:0|0:0,0:0:0:0:
114,258,58139,2,0,P|163:249|213:245,2,100,2|0|0,1:2|0:0|0:0,0:0:0:0:
290,289,58803,1,0,0:0:0:0:
302,275,58936,2,0,L|309:215,3,50,10|0|0|0,0:0|3:0|3:0|3:0,0:0:0:0:
289,374,59467,2,0,L|303:262,1,100,2|0,3:2|3:0,0:0:0:0:
256,192,60130,12,0,61325,1:0:0:0:
468,303,61591,54,0,B|422:280|391:315|388:309|384:365|309:359,1,175.00000166893,4|0,1:0|0:0,0:0:0:0:
130,232,61989,2,0,B|174:210|205:244|208:238|212:293|286:287,1,175.00000166893,2|0,1:2|0:0,0:0:0:0:
349,234,62387,1,2,1:2:0:0:
285,175,62520,2,0,L|243:167,1,37.5000014305115,0|2,0:0|0:0,0:0:0:0:
314,98,62785,1,2,0:0:0:0:
285,25,62918,2,0,B|286:-20|286:-20|304:25,1,87.500000834465,0|2,1:0|1:2,0:0:0:0:
85,46,63183,2,0,P|127:37|171:30,1,87.500000834465,8|0,0:0|3:0,0:0:0:0:
178,40,63383,1,0,3:0:0:0:
189,49,63449,2,0,P|181:92|176:140,1,87.500000834465,0|0,3:0|3:0,0:0:0:0:
79,230,63714,38,0,P|33:227|9:180,2,87.500000834465,2|0|0,1:2|0:0|0:0,0:0:0:0:
114,313,64113,2,0,B|208:291|178:378|288:344,1,175.00000166893,2|0,1:2|0:0,0:0:0:0:
294,264,64511,1,2,1:2:0:0:
276,347,64644,2,0,L|268:388,1,37.5000014305115,0|2,0:0|0:0,0:0:0:0:
384,291,64909,2,0,B|429:290|429:290|384:272,1,87.500000834465,2|0,0:0|1:0,0:0:0:0:
294,264,65175,1,2,1:2:0:0:
387,193,65307,2,0,P|377:150|368:107,1,87.500000834465,8|2,0:0|1:2,0:0:0:0:
379,96,65506,1,0,3:0:0:0:
390,84,65573,1,2,1:2:0:0:
459,13,65706,1,0,0:0:0:0:
351,0,65838,54,0,B|249:-16|290:63|181:38,1,175.00000166893,6|2,1:2|0:0,0:0:0:0:
121,8,66237,1,2,1:2:0:0:
119,109,66369,2,0,P|75:116|33:125,1,87.500000834465,2|0,0:0|0:0,0:0:0:0:
225,188,66635,1,2,1:2:0:0:
127,268,66768,2,0,B|126:245|111:227|111:227|139:233|149:257,1,87.500000834465,2|0,0:0|0:0,0:0:0:0:
1,315,67033,1,2,0:0:0:0:
20,336,67166,2,0,P|60:339|106:348,1,87.500000834465,0|2,1:2|1:2,0:0:0:0:
255,366,67431,2,0,B|256:343|271:325|271:325|243:331|233:355,1,87.500000834465,8|2,0:0|3:2,0:0:0:0:
357,333,67630,1,0,3:0:0:0:
357,333,67697,2,0,L|373:241,1,87.500000834465,2|2,3:2|0:0,0:0:0:0:
337,131,67962,37,2,1:2:0:0:
458,101,68095,1,2,0:0:0:0:
320,125,68228,1,2,0:0:0:0:
467,188,68360,1,2,1:2:0:0:
306,120,68493,2,0,P|260:132|201:142,1,87.500000834465,2|0,0:0|0:0,0:0:0:0:
6,24,68759,1,2,1:2:0:0:
82,69,68891,1,2,0:0:0:0:
93,59,69024,54,0,B|93:34|93:34|108:57,3,43.7500004172325,0|0|8|8,3:0|3:0|0:1|0:1,0:0:0:0:
114,146,69290,2,0,L|129:233,1,87.500000834465,8|8,1:0|1:0,0:0:0:0:
111,327,69555,2,0,B|126:345|151:352|151:352|171:333|173:302,1,87.500000834465,8|0,0:0|0:0,0:0:0:0:
212,206,69821,1,8,0:1:0:0:
40,246,69953,1,8,0:1:0:0:
236,197,70086,86,0,B|278:188|311:237|311:237|320:230|320:230|352:279|406:261,1,200,4|0,1:0|0:0,0:0:0:0:
478,227,70484,1,2,1:2:0:0:
507,355,70617,2,0,B|483:337|479:314|479:314|467:334|439:343,1,100,8|0,0:0|0:0,0:0:0:0:
388,173,70883,2,0,P|418:137|475:154,1,100,2|0,1:2|0:0,0:0:0:0:
438,43,71148,6,0,B|342:27|371:104|282:81,1,150,2|0,0:0|0:0,0:0:0:0:
284,72,71414,1,0,1:0:0:0:
202,149,71546,1,2,1:2:0:0:
17,21,71679,2,0,B|40:38|44:61|44:61|56:41|84:32,1,100,8|0,0:0|3:0,0:0:0:0:
137,92,71878,1,0,3:0:0:0:
137,92,71945,2,0,P|126:139|118:192,1,100,0|0,3:0|0:0,0:0:0:0:
95,295,72210,86,0,P|55:265|1:263,1,100,2|0,1:2|0:0,0:0:0:0:
22,349,72475,1,0,0:0:0:0:
224,333,72608,2,0,P|217:284|184:246,2,100,2|8|0,1:2|0:0|0:0,0:0:0:0:
266,197,73006,2,0,P|316:186|383:176,1,100,2|0,1:2|0:0,0:0:0:0:
501,91,73272,6,0,B|416:103|440:32|354:47,1,150,2|0,0:0|0:0,0:0:0:0:
345,58,73537,1,0,1:0:0:0:
267,10,73670,1,2,1:2:0:0:
223,91,73803,1,8,0:0:0:0:
364,178,73936,1,0,1:0:0:0:
246,314,74068,2,0,P|196:303|129:293,1,100,2|0,0:3|0:0,0:0:0:0:
307,381,74334,86,0,B|342:386|366:349|366:349|368:360|368:360|403:340|433:359,1,150,4|0,1:2|0:0,0:0:0:0:
450,371,74599,1,2,0:0:0:0:
346,266,74732,1,0,1:0:0:0:
494,116,74865,2,0,P|472:176|454:260,1,150,10|0,0:0|0:0,0:0:0:0:
464,276,75130,1,2,1:2:0:0:
417,66,75263,6,0,P|447:27|495:27,2,100,2|0|0,0:0|0:0|0:0,0:0:0:0:
444,181,75661,1,0,1:0:0:0:
326,124,75794,1,0,1:0:0:0:
271,242,75927,2,0,P|222:241|193:203,1,100,8|0,0:0|3:0,0:0:0:0:
227,132,76126,1,0,3:0:0:0:
227,132,76192,2,0,P|221:79|208:23,1,100,2|2,3:2|0:0,0:0:0:0:
0,31,76458,86,0,B|25:27|45:6|45:6|49:33|70:44,1,100,2|0,1:2|0:0,0:0:0:0:
130,125,76723,1,2,0:0:0:0:
114,209,76856,2,0,B|89:205|69:184|69:184|65:211|44:222,2,100,2|8|0,1:2|0:0|0:0,0:0:0:0:
268,344,77254,2,0,P|241:306|193:311,1,100,2|0,1:2|0:0,0:0:0:0:
2,375,77520,5,2,0:0:0:0:
59,304,77652,1,8,0:1:0:0:
59,304,77719,1,8,0:1:0:0:
59,304,77785,1,8,1:0:0:0:
135,359,77918,1,8,1:0:0:0:
208,213,78051,1,8,0:0:0:0:
338,326,78183,1,8,0:1:0:0:
338,326,78250,1,8,0:1:0:0:
338,326,78316,1,8,0:1:0:0:
401,257,78449,1,8,0:1:0:0:
493,301,78582,54,2,B|511:205|511:205|442:193,1,160,4|0,1:0|3:1,0:0:0:0:
436,187,78914,1,0,3:0:0:0:
424,179,78980,2,2,L|406:90,1,80,0|8,1:0|0:0,0:0:0:0:
273,176,79245,2,2,L|252:254,1,80,0|0,1:0|0:0,0:0:0:0:
164,47,79511,2,2,B|231:31|231:31|221:45,1,80,0|0,1:0|0:0,0:0:0:0:
195,149,79776,2,2,B|174:215|174:215|168:199,1,80,0|0,3:0|3:0,0:0:0:0:
83,118,80042,2,2,B|35:67|35:67|52:69,2,80,0|8|0,3:0|0:0|1:0,0:1:0:0:
0,260,80440,2,2,L|86:247,1,80,0|0,3:0|3:0,0:0:0:0:
92,255,80639,1,0,3:0:0:0:
108,263,80706,6,2,B|93:343|93:343|181:356,1,160,0|0,1:0|0:0,0:1:0:0:
338,311,81104,2,2,L|246:297,1,80,0|8,1:0|0:0,0:0:0:0:
424,282,81369,2,2,L|380:222,1,60,0|0,3:0|3:0,0:0:0:0:
501,335,81635,2,2,L|510:270,1,40,0|0,3:0|3:0,0:1:0:0:
248,379,81900,1,0,1:0:0:0:
248,379,81967,1,0,3:0:0:0:
248,379,82033,1,0,3:0:0:0:
258,298,82166,1,0,3:0:0:0:
274,218,82298,1,8,3:2:0:0:
291,138,82431,1,0,1:0:0:0:
306,61,82564,2,0,B|335:37|335:37|377:42,1,80,2|2,1:2|0:0,0:0:0:0:
144,200,82829,86,2,B|94:190|94:190|113:76,1,160,0|0,1:0|3:0,0:0:0:0:
128,72,83161,1,0,3:0:0:0:
143,63,83228,2,2,L|44:81,1,80,0|8,3:0|0:0,0:0:0:0:
231,213,83493,2,2,L|318:225,1,80,0|0,1:0|0:0,0:0:0:0:
82,369,83759,2,2,B|58:360|58:360|4:387,1,80,0|0,1:0|0:0,0:0:0:0:
120,270,84024,2,2,B|139:253|139:253|143:193,1,80,0|0,3:0|3:0,0:0:0:0:
201,329,84290,2,2,B|205:354|205:354|255:387,2,80,0|8|0,3:0|0:0|1:0,0:1:0:0:
414,262,84688,2,2,L|329:252,1,80,0|0,3:0|3:0,0:0:0:0:
322,238,84887,1,0,3:0:0:0:
311,226,84953,6,2,B|342:154|342:154|430:176,1,160,0|0,1:0|0:0,0:1:0:0:
503,18,85352,2,2,L|413:-4,1,80,0|8,3:0|0:0,0:0:0:0:
473,102,85617,2,2,L|414:85,1,60,0|0,1:0|3:0,0:0:0:0:
459,184,85883,2,2,L|412:170,1,40,0|0,1:0|3:0,0:1:0:0:
257,58,86148,1,2,1:2:0:0:
257,58,86214,1,2,3:2:0:0:
257,58,86281,1,2,3:2:0:0:
169,31,86414,1,2,3:2:0:0:
133,110,86546,1,10,0:0:0:0:
53,78,86679,1,2,1:2:0:0:
38,89,86812,2,0,L|13:177,1,80,2|2,0:0|0:0,0:0:0:0:
190,272,87077,54,0,B|105:236|120:329|39:296,1,150.000005722046,2|0,1:2|0:0,0:0:0:0:
40,282,87475,1,0,0:0:0:0:
162,357,87608,2,0,P|197:361|236:368,1,75.0000028610231,8|0,0:0|1:0,0:0:0:0:
365,276,87874,1,0,0:0:0:0:
345,263,88006,2,0,P|304:271|269:281,1,75.0000028610231,0|0,1:0|0:0,0:0:0:0:
375,168,88272,2,0,P|334:176|299:186,2,75.0000028610231,2|0|0,3:2|3:0|3:0,0:0:0:0:
236,368,88670,2,0,P|272:358|308:350,1,75.0000028610231,8|0,3:2|1:0,0:0:0:0:
492,344,88936,1,0,3:0:0:0:
477,368,89068,1,0,3:0:0:0:
418,294,89201,6,0,B|427:274|444:265|444:265|436:278|433:304,1,75.0000028610231,0|0,1:0|0:0,0:0:0:0:
458,179,89467,2,0,B|473:163|492:161|492:161|480:171|469:194,1,75.0000028610231
381,60,89732,1,8,0:0:0:0:
370,75,89865,2,0,P|398:97|436:94,1,75.0000028610231
287,119,90130,2,0,P|216:130|128:156,1,150.000005722046,0|2,0:0|1:2,0:0:0:0:
128,165,90462,1,0,3:0:0:0:
128,165,90529,1,0,3:0:0:0:
226,217,90661,1,0,3:0:0:0:
235,234,90794,2,0,P|229:264|225:295,3,50,8|0|0|0,3:2|1:0|3:0|3:0,0:0:0:0:
56,384,91325,86,0,B|89:375|105:340|105:340|103:351|103:351|136:340|174:354,1,150.000005722046,2|0,1:2|0:0,0:0:0:0:
187,371,91723,1,0,0:0:0:0:
134,263,91856,2,0,P|138:226|147:174,1,75.0000028610231,8|0,0:0|1:0,0:0:0:0:
54,159,92122,1,0,0:0:0:0:
35,172,92254,2,0,P|28:210|24:246,1,75.0000028610231,0|0,1:0|0:0,0:0:0:0:
77,57,92520,2,0,P|35:64|-8:74,2,75.0000028610231,2|0|0,3:2|3:0|3:0,0:0:0:0:
99,35,92918,1,8,3:2:0:0:
194,89,93051,1,0,1:0:0:0:
209,71,93183,2,0,P|213:34|177:5,1,75.0000028610231,0|0,3:0|3:0,0:0:0:0:
278,195,93449,6,0,B|278:169|258:159|258:159|263:179|261:195,1,75.0000028610231,0|0,1:0|0:0,0:0:0:0:
376,174,93714,2,0,B|376:148|356:138|356:138|361:158|359:174,1,75.0000028610231
301,287,93980,1,8,0:0:0:0:
282,298,94113,2,0,P|243:287|193:280,1,75.0000028610231
477,157,94378,2,0,B|477:131|457:121|457:121|462:141|460:157,2,75.0000028610231,0|0|2,0:0|0:0|1:2,0:0:0:0:
368,17,94776,2,0,B|447:-11|429:63|516:45,1,150.000005722046,0|10,3:0|3:2,0:0:0:0:
374,106,95175,1,2,1:2:0:0:
292,90,95307,1,2,3:2:0:0:
251,16,95440,1,2,3:2:0:0:
237,29,95573,86,0,B|200:15|167:26|167:26|169:15|169:15|153:50|120:59,1,150.000005722046,2|0,1:2|0:0,0:0:0:0:
98,44,95971,1,0,0:0:0:0:
17,122,96104,1,8,0:0:0:0:
37,133,96237,2,0,P|44:167|51:210,2,75.0000028610231,0|0|0,1:0|0:0|1:0,0:0:0:0:
177,176,96635,2,0,P|169:210|163:253,1,75.0000028610231,0|2,0:0|3:2,0:0:0:0:
29,341,96900,1,0,3:0:0:0:
52,322,97033,1,0,3:0:0:0:
133,367,97166,1,8,3:2:0:0:
152,349,97298,2,0,B|198:333|255:336|255:336|232:351|215:373,1,150.000005722046,0|2,1:0|3:2,0:0:0:0:
436,339,97697,6,0,P|361:344|336:268,1,150.000005722046,0|0,1:0|0:0,0:0:0:0:
350,273,98095,1,0,0:0:0:0:
443,227,98228,1,8,0:0:0:0:
461,214,98360,2,0,P|453:171|442:127,2,75.0000028610231,0|0|0,1:0|0:0|1:0,0:0:0:0:
297,168,98759,2,0,P|303:131|312:94,1,75.0000028610231,0|2,0:0|1:2,0:0:0:0:
489,30,99024,1,0,3:0:0:0:
466,49,99157,1,0,3:0:0:0:
385,4,99290,1,8,3:2:0:0:
369,24,99422,2,0,P|329:18|284:8,1,75.0000028610231,0|2,1:0|3:2,0:0:0:0:
149,117,99688,1,2,3:2:0:0:
167,105,99821,86,0,B|251:110|214:169|303:168,1,150.000005722046,2|0,1:2|0:0,0:0:0:0:
318,157,100219,1,0,0:0:0:0:
242,251,100352,1,8,0:0:0:0:
226,265,100484,2,0,P|232:304|242:341,1,75.0000028610231,0|0,1:0|0:0,0:0:0:0:
85,289,100750,1,0,1:0:0:0:
71,273,100883,2,0,P|77:234|87:197,1,75.0000028610231,0|2,0:0|3:2,0:0:0:0:
63,12,101148,1,0,3:0:0:0:
5,67,101281,2,0,P|14:103|20:140,1,75.0000028610231,0|8,3:0|3:2,0:0:0:0:
294,100,101546,2,0,P|218:90|138:76,1,150.000005722046,0|0,1:0|3:0,0:0:0:0:
243,241,101945,5,8,0:1:0:0:
305,179,102077,2,0,L|293:95,1,80,8|0,0:1|0:0,0:0:0:0:
145,77,102343,2,0,L|157:157,1,80,8|0,0:1|0:0,0:0:0:0:
328,320,102608,1,8,0:1:0:0:
243,241,102741,1,8,0:1:0:0:
387,131,102874,2,0,L|375:47,1,80,8|0,0:1|0:0,0:0:0:0:
500,117,103139,2,0,L|512:197,1,80,8|0,0:1|0:0,0:0:0:0:
328,320,103405,1,8,0:1:0:0:
417,267,103537,2,0,L|411:316,3,37.5000014305115,8|0|0|0,3:1|3:0|3:0|3:0,0:0:0:0:
474,354,104068,86,0,P|397:334|317:318,1,150.000005722046,4|0,1:2|3:0,0:0:0:0:
283,241,104865,1,0,1:0:0:0:
359,192,105130,2,0,P|325:135|252:163,1,150.000005722046,0|8,0:0|0:0,0:0:0:0:
192,74,105927,1,0,3:0:0:0:
218,79,106060,1,0,3:0:0:0:
242,82,106192,2,0,L|257:169,2,75.0000028610231,0|0|0,1:0|0:0|0:0,0:0:0:0:
101,10,106989,1,0,1:0:0:0:
115,87,107254,2,0,L|128:165,1,75.0000028610231,0|0,0:0|1:0,0:0:0:0:
47,234,107652,2,0,L|41:198,1,31.25,0|0,1:0|3:0,0:0:0:0:
67,242,107785,2,0,L|77:305,3,50,8|0|0|0,3:2|3:0|3:0|3:0,0:0:0:0:
136,354,108316,6,0,P|190:354|215:298,1,100,2|0,1:2|0:0,0:0:0:0:
300,290,108714,2,0,L|314:182,1,100,0|0,1:0|0:0,0:0:0:0:
479,285,109113,2,0,P|430:288|400:250,2,100,2|0|0,1:2|0:0|0:0,0:0:0:0:
303,125,109776,1,0,0:0:0:0:
319,141,109909,2,0,L|312:190,3,50,10|0|0|0,0:0|3:0|3:0|3:0,0:0:0:0:
332,41,110440,2,0,L|318:143,1,100,2|0,3:2|3:0,0:0:0:0:
256,192,111104,12,0,112298,1:0:0:0:
15,24,112564,38,0,B|57:15|90:64|90:64|99:57|99:57|131:106|185:88,1,200,4|0,1:0|0:0,0:0:0:0:
247,57,112962,1,2,1:2:0:0:
77,157,113095,2,0,B|62:177|70:208|70:208|76:183|105:158,1,100,8|0,0:0|0:0,0:0:0:0:
270,246,113360,2,0,P|225:235|166:224,1,100,2|0,1:2|0:0,0:0:0:0:
0,344,113626,6,0,B|81:327|57:403|156:382,1,150,2|0,0:0|0:0,0:0:0:0:
153,368,113891,1,0,1:0:0:0:
103,283,114024,1,2,1:2:0:0:
259,329,114157,2,0,B|274:349|265:380|265:380|260:355|231:330,1,100,8|2,0:0|0:0,0:0:0:0:
340,315,114356,1,2,0:0:0:0:
340,315,114422,2,0,P|379:279|427:290,1,100,2|2,0:0|0:0,0:0:0:0:
501,216,114688,86,0,P|453:208|392:195,1,100,2|0,1:2|0:0,0:0:0:0:
281,177,114953,1,0,0:0:0:0:
457,121,115086,2,0,P|409:113|348:100,2,100,2|8|0,1:2|0:0|1:0,0:0:0:0:
201,171,115484,2,0,P|199:223|251:250,1,100,2|0,1:2|0:0,0:0:0:0:
427,26,115750,6,0,P|354:15|267:-2,1,150,2|0,0:0|0:0,0:0:0:0:
258,14,116015,1,0,1:0:0:0:
202,87,116148,1,2,1:2:0:0:
116,46,116281,1,8,0:0:0:0:
2,170,116414,1,0,1:0:0:0:
135,266,116546,2,0,P|180:256|239:248,1,100,2|0,1:3|0:0,0:0:0:0:
137,368,116812,86,0,B|102:373|78:336|78:336|76:347|76:347|41:327|11:346,1,150,4|0,1:2|0:0,0:0:0:0:
0,357,117077,1,2,0:0:0:0:
54,252,117210,1,2,1:2:0:0:
2,170,117343,2,0,P|47:148|47:89,1,100,10|0,0:0|0:0,0:0:0:0:
10,36,117608,1,2,1:2:0:0:
116,16,117741,6,0,B|144:26|155:45|155:45|156:21|180:-7,1,100,2|0,0:0|0:0,0:0:0:0:
242,154,118006,2,0,P|192:147|144:138,1,100,2|0,0:0|1:0,0:0:0:0:
403,161,118272,1,2,1:2:0:0:
349,228,118405,2,0,B|330:249|329:273|329:273|318:254|290:244,1,100,8|2,0:0|3:2,0:0:0:0:
203,235,118604,1,0,3:0:0:0:
203,235,118670,2,0,P|210:287|221:340,1,100,2|2,3:2|3:2,0:0:0:0:
336,108,118936,86,0,B|351:88|342:56|342:56|337:82|308:107,1,100,2|0,1:2|0:0,0:0:0:0:
186,76,119201,1,2,0:0:0:0:
264,24,119334,1,2,1:2:0:0:
435,144,119467,2,0,B|450:124|441:92|441:92|436:118|407:143,1,100,10|0,0:0|0:0,0:0:0:0:
388,215,119732,1,2,1:2:0:0:
503,356,119865,2,0,P|446:288|345:314,1,200,2|8,0:0|0:1,0:0:0:0:
293,361,120197,5,8,0:1:0:0:
293,361,120263,1,8,1:0:0:0:
244,223,120396,1,8,1:0:0:0:
105,305,120529,1,8,1:2:0:0:
69,232,120661,1,0,1:0:0:0:
6,287,120794,1,8,0:1:0:0:
170,371,120927,1,8,0:1:0:0:
244,223,121060,86,4,B|263:177|222:139|222:139|233:135|233:135|215:89|258:44,1,200,4|0,1:0|0:0,0:0:0:0:
316,108,121458,1,2,1:2:0:0:
167,26,121591,2,0,B|146:47|123:49|123:49|141:63|147:92,1,100,8|0,0:0|0:0,0:0:0:0:
353,30,121856,2,0,P|401:36|466:49,1,100,2|0,1:2|0:0,0:0:0:0:
502,192,122122,6,0,B|409:175|439:247|368:238,1,150,2|0,0:0|0:0,0:0:0:0:
347,226,122387,1,0,1:0:0:0:
387,140,122520,1,2,1:2:0:0:
465,305,122652,2,0,B|470:332|489:346|489:346|466:348|445:370,1,100,8|2,0:0|0:0,0:0:0:0:
379,324,122852,1,2,0:0:0:0:
379,324,122918,2,0,P|327:333|280:344,1,100,2|2,0:0|0:0,0:0:0:0:
141,248,123183,86,0,P|161:200|215:192,1,100,2|0,1:2|0:0,0:0:0:0:
266,255,123449,1,0,0:0:0:0:
73,321,123582,2,0,P|37:283|48:231,2,100,2|8|0,1:2|0:0|1:0,0:0:0:0:
100,118,123980,2,0,P|47:107|-9:99,1,100,2|0,1:2|0:0,0:0:0:0:
113,29,124245,6,0,B|198:17|174:88|260:73,1,150,2|0,0:0|0:0,0:0:0:0:
266,60,124511,1,0,1:0:0:0:
342,11,124644,1,2,1:2:0:0:
382,87,124776,1,8,0:0:0:0:
279,178,124909,1,0,1:0:0:0:
407,284,125042,2,0,P|454:272|510:263,1,100,2|0,1:3|0:0,0:0:0:0:
341,368,125307,86,0,B|312:386|277:366|277:366|275:377|275:377|251:340|216:345,1,150,4|0,1:2|0:0,0:0:0:0:
195,354,125573,1,2,0:0:0:0:
299,279,125706,1,0,1:0:0:0:
104,384,125838,2,0,P|90:310|74:237,1,150,10|0,0:0|0:0,0:0:0:0:
91,223,126104,1,2,1:2:0:0:
166,88,126237,6,0,P|141:47|86:51,2,100,2|0|0,0:0|0:0|0:0,0:0:0:0:
0,197,126635,1,0,1:0:0:0:
95,132,126768,1,0,1:0:0:0:
174,239,126900,2,0,P|222:227|290:215,1,100,8|0,0:0|3:0,0:0:0:0:
346,261,127099,1,0,3:0:0:0:
346,261,127166,2,0,P|354:317|322:343,1,100,2|2,3:2|3:2,0:0:0:0:
262,121,127431,86,0,B|256:100|267:76|267:76|241:96|241:121,1,100,2|0,1:2|0:0,0:0:0:0:
360,182,127697,1,2,0:0:0:0:
444,173,127829,2,0,B|444:151|427:130|427:130|457:143|464:167,2,100,2|8|0,1:2|0:0|0:0,0:0:0:0:
190,187,128228,2,0,P|221:221|277:213,1,100,2|0,1:2|0:0,0:0:0:0:
104,52,128493,5,2,0:0:0:0:
37,115,128626,1,8,0:1:0:0:
37,115,128692,1,8,0:1:0:0:
37,115,128759,1,8,1:0:0:0:
115,180,128891,1,8,1:0:0:0:
25,304,129024,1,10,0:0:0:0:
174,325,129157,1,2,1:2:0:0:
104,263,129290,1,8,0:1:0:0:
262,332,129422,1,8,0:1:0:0:
325,176,129555,6,0,B|356:163|356:163|320:165,1,62.5,2|2,1:2|0:0,0:0:0:0:
457,254,129821,2,0,L|384:236,1,62.5,0|0,3:0|0:0,0:0:0:0:
487,174,130086,2,0,L|414:156,1,62.5,8|0,3:2|3:0,0:0:0:0:
512,93,130352,2,0,L|439:75,1,62.5,0|0,0:0|3:0,0:0:0:0:
380,38,130617,1,0,0:0:0:0:
451,78,130750,2,0,L|320:45,1,125,0|0,3:0|0:0,0:0:0:0:
198,10,131148,2,0,L|269:30,2,62.5,8|2|0,3:2|1:2|0:0,0:0:0:0:
248,180,131546,1,0,3:0:0:0:
325,176,131679,86,0,B|356:163|356:163|320:165,1,62.5,2|2,1:2|0:0,0:0:0:0:
457,254,131945,2,0,L|384:236,1,62.5,0|0,3:0|0:0,0:0:0:0:
487,174,132210,2,0,L|414:156,1,62.5,8|0,3:2|3:0,0:0:0:0:
512,93,132475,2,0,L|439:75,1,62.5,0|0,0:0|3:0,0:0:0:0:
380,38,132741,1,0,0:0:0:0:
451,78,132874,2,0,L|385:61,1,62.5,2|0,1:2|0:0,0:0:0:0:
179,22,133139,1,0,3:0:0:0:
198,10,133272,2,0,L|269:30,3,62.5,8|2|0|0,0:0|1:2|0:0|3:0,0:0:0:0:
20,56,133803,6,0,B|19:25|19:25|34:54,1,62.5,0|0,1:0|0:0,0:0:0:0:
116,117,134068,2,0,L|101:189,1,62.5,0|0,3:0|0:0,0:0:0:0:
203,133,134334,2,0,L|188:205,1,62.5,8|0,3:2|3:0,0:0:0:0:
286,154,134599,2,0,L|271:226,1,62.5,0|0,0:0|3:0,0:0:0:0:
98,256,134865,2,0,L|113:328,2,62.5,0|0|0,0:0|3:0|0:0,0:0:0:0:
15,223,135263,1,0,3:0:0:0:
4,235,135396,2,0,L|19:307,2,62.5,8|0|0,3:2|1:0|3:0,0:0:0:0:
37,125,135794,1,0,0:0:0:0:
20,56,135927,86,0,B|19:25|19:25|34:54,1,62.5,2|2,1:2|0:0,0:0:0:0:
116,117,136192,2,0,L|101:189,1,62.5,0|0,3:0|0:0,0:0:0:0:
203,133,136458,2,0,L|188:205,1,62.5,8|0,3:2|3:0,0:0:0:0:
286,154,136723,2,0,L|271:226,1,62.5,0|0,0:0|3:0,0:0:0:0:
98,256,136989,2,0,L|113:328,2,62.5,0|2|0,0:0|1:2|0:0,0:0:0:0:
15,223,137387,1,0,3:0:0:0:
4,235,137520,2,0,L|19:307,1,62.5,8|0,3:2|1:0,0:0:0:0:
192,272,137785,2,0,L|207:344,1,62.5,0|2,0:0|0:0,0:0:0:0:
464,325,138051,5,2,1:2:0:0:
448,310,138183,1,2,3:2:0:0:
371,326,138316,2,0,L|307:313,1,59.9999981689454,0|0,0:0|3:0,0:0:0:0:
475,213,138582,1,8,3:2:0:0:
407,243,138714,2,0,L|343:230,1,59.9999981689454,2|0,1:2|0:0,0:0:0:0:
452,146,138980,2,0,L|388:133,1,59.9999981689454,2|0,1:2|0:0,0:0:0:0:
251,221,139245,1,0,3:0:0:0:
276,204,139378,2,0,L|263:133,1,59.9999981689454,0|0,0:0|3:0,0:0:0:0:
194,271,139644,2,0,L|134:229,1,59.9999981689454,8|2,0:0|1:2,0:0:0:0:
238,348,139909,2,0,L|166:360,1,59.9999981689454,0|0,0:0|3:0,0:0:0:0:
464,325,140175,85,2,1:2:0:0:
448,310,140307,1,2,3:2:0:0:
371,326,140440,2,0,L|307:313,1,59.9999981689454,0|0,0:0|3:0,0:0:0:0:
475,213,140706,1,8,0:0:0:0:
407,243,140838,2,0,L|343:230,1,59.9999981689454,0|0,3:0|0:0,0:0:0:0:
452,146,141104,2,0,L|388:133,1,59.9999981689454,0|0,3:0|0:0,0:0:0:0:
251,221,141369,1,2,1:2:0:0:
276,204,141502,2,0,L|263:133,1,59.9999981689454,0|0,0:0|3:0,0:0:0:0:
169,120,141768,2,0,L|158:179,1,59.9999981689454,8|2,0:0|1:2,0:0:0:0:
59,159,142033,2,0,L|48:99,1,59.9999981689454,0|0,0:0|3:0,0:0:0:0:
75,263,142298,6,0,B|82:295|82:295|45:303,2,59.9999981689454,2|0|0,1:2|3:0|0:0,0:0:0:0:
85,381,142697,2,0,L|163:368,1,59.9999981689454,2|8,3:2|0:0,0:0:0:0:
214,296,142962,1,2,1:2:0:0:
231,313,143095,2,0,L|309:300,1,59.9999981689454,2|2,3:2|1:2,0:0:0:0:
416,327,143360,2,0,B|383:334|383:334|376:297,2,59.9999981689454,2|0|0,0:0|3:0|0:0,0:0:0:0:
392,147,143759,2,0,L|332:156,1,59.9999981689454,2|8,3:2|0:0,0:0:0:0:
286,228,144024,1,2,1:2:0:0:
263,217,144157,2,0,L|203:226,1,59.9999981689454,2|0,0:0|3:0,0:0:0:0:
75,263,144422,86,0,B|82:295|82:295|45:303,2,59.9999981689454,2|0|0,1:2|3:0|0:0,0:0:0:0:
85,381,144821,2,0,L|163:368,1,59.9999981689454,2|8,3:2|0:0,0:0:0:0:
214,296,145086,1,2,1:2:0:0:
231,313,145219,2,0,L|309:300,1,59.9999981689454,2|0,0:0|3:0,0:0:0:0:
416,327,145484,2,0,B|383:334|383:334|376:297,2,59.9999981689454,2|2|0,0:0|1:2|0:0,0:0:0:0:
479,256,145883,2,0,L|493:185,1,59.9999981689454,2|8,3:2|3:2,0:0:0:0:
393,151,146148,1,0,1:0:0:0:
379,137,146281,2,0,L|393:66,1,59.9999981689454,2|2,3:2|0:0,0:0:0:0:
202,38,146546,5,2,1:2:0:0:
217,27,146679,1,2,3:2:0:0:
260,124,146812,2,0,L|199:108,1,59.9999981689454,0|0,0:0|3:0,0:0:0:0:
141,174,147077,2,0,L|80:158,1,59.9999981689454,8|2,0:0|1:2,0:0:0:0:
278,248,147343,2,0,L|217:232,2,59.9999981689454,0|2|0,0:0|1:2|0:0,0:0:0:0:
131,291,147741,1,0,3:0:0:0:
111,302,147874,2,0,L|50:286,1,59.9999981689454,0|0,0:0|3:0,0:0:0:0:
219,232,148139,2,0,L|158:216,1,59.9999981689454,8|2,0:0|1:2,0:0:0:0:
201,108,148405,2,0,L|140:92,1,59.9999981689454,0|0,0:0|3:0,0:0:0:0:
202,38,148670,85,2,1:2:0:0:
217,27,148803,1,2,3:2:0:0:
260,124,148936,2,0,L|199:108,1,59.9999981689454,0|0,0:0|3:0,0:0:0:0:
141,174,149201,2,0,L|80:158,1,59.9999981689454,8|0,0:0|3:0,0:0:0:0:
278,248,149467,2,0,L|217:232,2,59.9999981689454,0|0|0,0:0|3:0|0:0,0:0:0:0:
131,291,149865,1,2,1:2:0:0:
111,302,149998,2,0,L|50:286,1,59.9999981689454,0|0,0:0|3:0,0:0:0:0:
219,232,150263,2,0,L|231:300,1,59.9999981689454,8|2,0:0|1:2,0:0:0:0:
383,156,150529,1,2,0:0:0:0:
365,144,150661,1,2,3:2:0:0:
398,231,150794,6,0,B|427:226|427:226|433:263,2,59.9999981689454,2|0|0,1:2|3:0|0:0,0:0:0:0:
497,114,151192,2,0,L|435:100,1,59.9999981689454,2|8,3:2|0:0,0:0:0:0:
362,38,151458,1,2,1:2:0:0:
383,25,151591,2,0,L|321:11,1,59.9999981689454,2|2,0:0|1:2,0:0:0:0:
244,81,151856,2,0,B|215:76|215:76|209:113,2,59.9999981689454,2|0|0,0:0|3:0|0:0,0:0:0:0:
283,194,152254,2,0,L|224:207,1,59.9999981689454,2|8,3:2|0:0,0:0:0:0:
137,151,152520,1,2,1:2:0:0:
120,141,152652,2,0,L|61:154,1,59.9999981689454,2|0,0:0|3:0,0:0:0:0:
11,14,152918,6,2,B|72:4|51:50|115:43,1,110,0|0,3:0|0:0,0:0:0:0:
194,43,154511,2,2,L|188:14,3,25,0|0|0|0,0:0|0:0|0:0|0:0,0:0:0:0:
364,79,155042,54,0,B|322:70|289:119|289:119|280:112|280:112|248:161|194:143,1,200,4|0,1:0|0:0,0:0:0:0:
130,111,155440,1,2,1:2:0:0:
273,212,155573,2,0,B|254:229|257:258|257:258|238:236|207:239,1,100,8|0,0:0|0:0,0:0:0:0:
326,339,155838,2,0,P|350:298|398:301,1,100,2|0,1:2|0:0,0:0:0:0:
504,173,156104,6,0,B|423:156|447:232|348:211,1,150,2|0,0:0|0:0,0:0:0:0:
350,201,156369,1,0,1:0:0:0:
286,124,156502,1,2,1:2:0:0:
492,55,156635,2,0,B|468:53|449:75|449:75|452:46|433:29,1,100,8|2,0:0|0:0,0:0:0:0:
358,59,156834,1,2,0:0:0:0:
358,59,156900,2,0,P|307:51|255:44,1,100,2|2,0:0|0:0,0:0:0:0:
122,91,157166,86,0,P|75:75|65:21,1,100,2|0,1:2|0:0,0:0:0:0:
171,11,157431,1,0,0:0:0:0:
202,121,157564,2,0,P|178:164|123:164,2,100,2|8|0,1:2|0:0|0:0,0:0:0:0:
8,240,157962,2,0,P|55:226|94:264,1,100,2|0,1:2|0:0,0:0:0:0:
273,380,158228,6,0,P|202:366|113:352,1,150,2|0,0:0|0:0,0:0:0:0:
108,366,158493,1,0,1:0:0:0:
170,293,158626,1,2,1:2:0:0:
91,255,158759,1,8,0:0:0:0:
214,155,158891,1,0,1:0:0:0:
283,283,159024,2,0,P|328:273|387:265,1,100,2|0,1:3|0:0,0:0:0:0:
506,203,159290,86,0,B|489:173|448:174|448:174|452:163|452:163|413:185|385:164,1,150,4|0,1:2|0:0,0:0:0:0:
376,149,159555,1,2,0:0:0:0:
437,64,159688,1,2,1:2:0:0:
336,7,159821,2,0,P|284:16|225:29,1,100,10|0,0:0|0:0,0:0:0:0:
15,106,160086,1,2,1:2:0:0:
132,28,160219,6,0,B|147:48|139:79|139:79|133:54|104:29,1,100,2|0,1:2|0:0,0:0:0:0:
266,174,160484,2,0,P|236:139|182:147,1,100,2|0,0:0|1:0,0:0:0:0:
10,228,160750,1,2,1:2:0:0:
116,236,160883,2,0,B|112:260|84:276|84:276|97:254|95:216,1,100,8|2,0:0|2:0,0:0:0:0:
16,325,161082,1,0,3:0:0:0:
16,325,161148,2,0,P|52:362|98:355,1,100,2|2,3:2|3:2,0:0:0:0:
221,245,161414,86,0,B|241:256|246:283|246:283|266:262|291:258,1,100,2|2,1:2|0:0,0:0:0:0:
394,269,161679,1,2,0:0:0:0:
316,341,161812,1,2,1:2:0:0:
245,130,161945,2,0,B|265:141|270:168|270:168|290:147|315:143,1,100,10|0,0:0|0:0,0:0:0:0:
445,97,162210,1,2,1:2:0:0:
392,16,162343,1,2,0:0:0:0:
300,64,162475,6,0,B|298:37|298:37|307:65,3,50,0|0|8|8,3:2|3:2|3:1|3:1,3:2:0:0:
205,11,162741,1,8,0:1:0:0:
132,107,162874,1,8,0:1:0:0:
29,38,163006,1,8,1:2:0:0:
119,26,163139,1,0,1:0:0:0:
63,164,163272,1,8,0:1:0:0:
201,192,163405,1,8,0:1:0:0:
196,329,163537,86,4,B|245:337|272:288|272:288|279:298|279:298|320:270|368:299,1,200,4|0,1:0|0:0,0:0:0:0:
435,364,163936,1,2,1:2:0:0:
340,148,164068,2,0,B|325:168|333:199|333:199|339:174|368:149,1,100,8|0,0:0|0:0,0:0:0:0:
334,60,164334,2,0,P|286:66|260:106,1,100,2|0,1:2|0:0,0:0:0:0:
501,252,164599,6,0,B|408:235|438:307|367:298,1,150,2|0,0:0|0:0,0:0:0:0:
351,283,164865,1,0,1:0:0:0:
268,230,164998,1,2,1:2:0:0:
120,384,165130,2,0,B|105:364|113:333|113:333|119:358|148:383,1,100,8|0,0:0|0:0,0:0:0:0:
196,329,165329,1,2,0:0:0:0:
196,329,165396,2,0,P|248:338|295:349,1,100,2|2,0:0|0:0,0:0:0:0:
150,198,165661,86,0,P|98:207|51:218,1,100,2|0,1:2|0:0,0:0:0:0:
5,147,165927,1,0,0:0:0:0:
199,98,166060,2,0,P|147:107|100:118,2,100,2|8|0,1:2|0:0|0:0,0:0:0:0:
14,54,166458,2,0,P|43:14|98:17,1,100,2|0,1:2|0:0,0:0:0:0:
224,181,166723,6,0,B|309:191|283:120|370:134,1,150,2|0,0:0|0:0,0:0:0:0:
373,143,166989,1,0,1:0:0:0:
352,57,167122,1,2,1:2:0:0:
439,32,167254,1,8,0:0:0:0:
512,179,167387,1,0,1:0:0:0:
400,277,167520,2,0,P|351:264|302:256,1,100,2|0,1:3|0:0,0:0:0:0:
99,204,167785,86,0,B|134:209|158:172|158:172|160:183|160:183|195:163|224:181,1,150,4|0,1:2|0:0,0:0:0:0:
235,194,168051,1,2,0:0:0:0:
179,267,168183,1,0,1:0:0:0:
299,345,168316,2,0,P|224:355|151:369,1,150,10|0,0:0|0:0,0:0:0:0:
136,361,168582,1,2,1:2:0:0:
26,245,168714,6,0,P|50:204|98:203,2,100,2|0|0,0:0|0:0|0:0,0:0:0:0:
95,286,169113,1,0,1:0:0:0:
13,137,169245,1,0,1:0:0:0:
224,32,169378,2,0,P|175:19|126:10,1,100,8|0,0:0|3:0,0:0:0:0:
47,34,169577,1,0,3:0:0:0:
47,34,169644,2,0,P|70:85|111:89,1,100,2|2,3:2|3:2,0:0:0:0:
260,174,169909,86,0,B|240:185|235:212|235:212|215:191|190:187,1,100,2|0,1:2|0:0,0:0:0:0:
336,345,170175,1,2,0:0:0:0:
394,293,170307,2,0,B|414:304|419:331|419:331|439:310|464:306,2,100,2|8|8,1:2|0:0|0:1,0:0:0:0:
318,266,170639,1,8,0:1:0:0:
318,266,170706,1,8,1:1:0:0:
422,151,170838,1,8,0:1:0:0:
327,78,170971,6,0,P|275:84|218:94,1,100,2|8,0:0|0:1,0:0:0:0:
169,51,171170,1,8,0:1:0:0:
169,51,171237,1,8,1:1:0:0:
267,1,171369,1,8,1:0:0:0:
331,166,171502,1,8,0:0:0:0:
450,54,171635,1,8,0:1:0:0:
450,54,171701,1,8,0:1:0:0:
450,54,171768,1,8,0:1:0:0:
512,151,171900,1,8,0:1:0:0:
398,255,172033,70,2,B|448:267|448:267|456:266|456:266|500:276,1,100,4|0,1:3|0:0,0:1:0:0:
376,272,172431,2,2,L|443:289,1,50,0|0,3:0|0:0,0:1:0:0:
285,251,172564,1,12,1:0:0:0:
207,293,172697,2,2,B|157:310|157:310|126:274,1,100,0|0,2:0|1:0,0:0:0:0:
51,166,172962,6,2,B|38:99|38:99|29:137,1,100,0|0,2:0|0:0,0:0:0:0:
158,9,173228,2,2,B|221:31|221:31|194:4,1,100,0|0,2:0|1:0,0:0:0:0:
236,166,173493,2,2,B|184:209|184:209|221:199,2,100,0|8|0,1:0|0:0|3:0,0:1:0:0:
301,124,173825,1,0,3:0:0:0:
301,124,173891,2,2,L|413:144,1,100,0|0,1:0|3:0,0:0:0:0:
472,66,174091,85,0,3:0:0:0:
472,66,174157,2,2,B|401:52|401:52|410:8,2,100,0|0|0,1:0|0:0|0:0,0:1:0:0:
313,218,174555,2,2,L|214:200,1,100,0|8,1:0|0:0,0:0:0:0:
386,291,174821,2,2,L|307:319,1,75,0|0,1:0|0:0,0:0:0:0:
511,308,175086,2,2,L|467:358,1,50,0|0,1:0|0:0,0:1:0:0:
188,296,175352,5,0,3:2:0:0:
188,296,175418,1,0,3:0:0:0:
188,296,175484,1,0,1:0:0:0:
86,339,175617,1,0,1:0:0:0:
0,269,175750,1,8,3:2:0:0:
30,163,175883,1,0,1:0:0:0:
136,136,176015,2,2,L|118:248,1,100,0|2,1:0|1:0,0:1:0:0:
78,41,176281,86,0,B|214:20|214:20|227:90,1,200,4|0,1:2|3:0,0:0:0:0:
242,160,176613,1,0,3:0:0:0:
242,160,176679,1,2,1:0:0:0:
321,110,176812,1,8,0:0:0:0:
364,192,176945,1,2,0:1:0:0:
259,299,177077,1,2,1:0:0:0:
375,379,177210,6,0,B|416:368|416:368|424:373|424:373|470:357,1,100,2|0,0:1|0:0,0:1:0:0:
199,343,177475,1,2,0:1:0:0:
325,250,177608,2,2,B|366:239|366:239|374:244|374:244|426:227,2,100,0|0|8,1:0|1:0|0:0,0:1:0:0:
495,77,178006,1,0,3:0:0:0:
495,77,178073,1,0,3:0:0:0:
495,77,178139,1,2,0:1:0:0:
418,140,178272,1,2,0:1:0:0:
254,30,178405,86,0,B|264:53|264:53|263:25,1,50,0|0,1:0|0:0,0:0:0:0:
340,98,178670,1,2,0:1:0:0:
221,167,178803,1,2,1:0:0:0:
69,24,178936,6,0,B|83:59|83:59|85:22,1,75.0000028610231,8|0,0:0|0:0,0:0:0:0:
151,112,179201,1,2,1:0:0:0:
0,208,179334,1,2,0:1:0:0:
115,317,179467,86,0,B|142:315|142:315|114:324,3,50,0|0|8|8,3:2|3:2|3:1|3:1,3:2:0:0:
62,266,179732,1,8,1:0:0:0:
192,362,179865,1,8,1:0:0:0:
268,224,179998,1,8,0:1:0:0:
407,311,180130,1,8,0:1:0:0:
510,183,180263,2,0,B|457:190|457:190|406:155,1,100,8|0,1:0|0:0,0:0:0:0:
260,11,180529,86,0,B|324:0|324:0|339:-3|371:-6|392:18|396:40|396:40|403:82,1,200,4|2,1:1|0:0,0:0:0:0:
335,138,180927,1,2,1:2:0:0:
175,56,181060,1,8,0:0:0:0:
119,124,181192,1,2,3:2:0:0:
0,66,181325,2,0,P|32:36|88:37,1,100,0|2,1:0|0:0,0:0:0:0:
44,277,181591,38,0,P|37:227|27:178,1,100,0|2,3:0|0:0,0:0:0:0:
177,312,181856,1,0,1:0:0:0:
240,253,181989,1,0,1:0:0:0:
308,359,182122,2,0,P|354:346|409:335,1,100,8|0,0:0|3:0,0:0:0:0:
485,374,182321,1,0,3:0:0:0:
485,374,182387,1,0,3:0:0:0:
380,239,182520,1,0,3:0:0:0:
502,164,182652,54,0,B|518:105|458:93|458:93|397:80,1,150,2|0,1:2|0:0,0:0:0:0:
386,97,182918,1,2,0:0:0:0:
181,187,183051,2,0,P|203:225|270:234,2,100,2|8|2,1:2|0:0|0:0,0:0:0:0:
261,48,183449,2,0,P|211:34|162:27,1,100,0|2,1:0|0:0,0:0:0:0:
38,0,183714,37,0,0:0:0:0:
83,69,183847,1,2,3:2:0:0:
163,27,183980,1,0,1:0:0:0:
45,152,184113,1,0,1:0:0:0:
155,253,184245,2,0,P|201:244|258:238,1,100,8|0,0:0|1:0,0:0:0:0:
326,288,184445,1,0,3:0:0:0:
326,288,184511,1,0,1:0:0:0:
201,173,184644,1,0,3:0:0:0:
68,283,184776,54,0,P|90:321|157:330,2,100,4|0|0,1:2|0:0|3:0,0:0:0:0:
201,173,185175,2,0,P|249:165|304:158,1,100,2|8,1:2|0:0,0:0:0:0:
491,136,185440,1,2,0:0:0:0:
427,216,185573,2,0,P|415:267|407:327,1,100,0|2,1:0|0:0,0:0:0:0:
377,24,185838,38,0,P|388:75|397:135,2,100,0|2|0,3:0|3:2|1:0,0:0:0:0:
494,16,186237,1,0,1:0:0:0:
294,88,186369,2,0,P|241:76|180:65,1,100,8|0,0:0|3:0,0:0:0:0:
139,131,186568,1,0,3:0:0:0:
139,131,186635,1,2,3:2:0:0:
54,76,186768,1,2,3:2:0:0:
48,229,186900,54,0,P|94:221|149:214,1,100,2|0,1:2|0:0,0:0:0:0:
232,176,187166,1,2,0:0:0:0:
89,307,187298,2,0,P|135:299|190:292,2,100,2|8|2,1:2|0:0|0:0,0:0:0:0:
132,384,187697,2,0,P|178:376|233:369,1,100,0|2,1:0|0:0,0:0:0:0:
474,325,187962,37,0,3:0:0:0:
344,246,188095,1,8,0:1:0:0:
344,246,188161,1,8,0:1:0:0:
344,246,188228,1,8,1:0:0:0:
424,127,188360,1,8,1:0:0:0:
405,47,188493,1,10,1:2:0:0:
491,44,188626,1,2,1:2:0:0:
511,127,188759,1,8,0:1:0:0:
343,157,188891,1,8,0:1:0:0:
307,16,189024,22,0,B|218:-6|246:61|159:47,1,150.000005722046,4|0,1:0|0:0,0:0:0:0:
83,52,189422,2,0,B|83:34|88:17|88:17|72:34|71:52,1,75.0000028610231,0|8,1:2|0:0,0:0:0:0:
247,186,189688,2,0,B|246:168|230:151|230:151|235:168|236:190,1,75.0000028610231,0|0,0:0|1:0,0:0:0:0:
165,286,189953,2,0,L|81:301,1,75.0000028610231
9,311,190219,1,2,3:2:0:0:
191,369,190352,1,0,1:0:0:0:
209,348,190484,1,0,1:0:0:0:
287,295,190617,2,0,L|298:372,1,75.0000028610231,8|0,3:2|1:2,0:0:0:0:
142,132,190883,2,0,L|152:206,1,75.0000028610231
307,16,191148,6,0,B|218:-6|246:61|159:47,1,150.000005722046,0|0,1:2|0:0,0:0:0:0:
83,52,191546,2,0,B|83:34|88:17|88:17|72:34|71:52,1,75.0000028610231,0|8,1:2|0:0,0:0:0:0:
247,186,191812,2,0,B|246:168|230:151|230:151|235:168|236:190,1,75.0000028610231,0|0,0:0|1:0,0:0:0:0:
165,286,192077,2,0,L|81:301,1,75.0000028610231
9,311,192343,2,0,L|18:261,2,37.5000014305115,2|0|0,3:2|3:0|1:0,0:0:0:0:
209,348,192608,1,0,1:0:0:0:
287,295,192741,2,0,L|298:372,1,75.0000028610231,8|0,1:2|3:0,0:0:0:0:
403,237,192940,1,0,3:0:0:0:
403,237,193006,2,0,L|413:311,1,75.0000028610231,2|0,3:2|0:0,0:0:0:0:
366,126,193272,22,2,B|424:117|424:117|443:148|443:148|511:138,1,150.000005722046,6|0,1:2|0:0,0:0:0:0:
376,42,193670,2,2,B|354:8|354:8|353:55,1,75.0000028610231,0|8,1:2|0:0,0:0:0:0:
285,221,193936,2,2,B|306:187|306:187|307:234,1,75.0000028610231,0|0,2:0|1:0,0:0:0:0:
103,48,194201,2,2,B|114:109|114:109|124:90,1,75.0000028610231,0|0,2:0|0:0,0:0:0:0:
194,74,194467,1,2,0:1:0:0:
271,26,194599,1,0,1:0:0:0:
265,9,194732,2,2,B|206:-11|206:-11|218:6,2,75.0000028610231,0|8|0,1:0|3:2|3:0,0:1:0:0:
201,178,195130,2,2,B|247:137|247:137|226:138,1,75.0000028610231,0|0,2:0|3:0,0:0:0:0:
366,126,195329,85,0,3:0:0:0:
366,126,195396,2,2,B|424:117|424:117|443:148|443:148|511:138,1,150.000005722046,0|0,1:2|0:0,0:1:0:0:
376,42,195794,2,2,B|354:8|354:8|353:55,1,75.0000028610231,0|8,1:2|0:0,0:0:0:0:
285,221,196060,2,2,B|306:187|306:187|307:234,1,75.0000028610231,0|0,2:0|1:0,0:0:0:0:
106,47,196325,2,2,L|120:128,1,75.0000028610231,0|0,2:0|3:0,0:0:0:0:
203,74,196591,5,8,0:1:0:0:
203,74,196657,1,8,0:1:0:0:
203,74,196723,1,8,1:0:0:0:
47,157,196856,1,8,1:0:0:0:
135,268,196989,1,8,0:1:0:0:
35,310,197122,1,8,0:1:0:0:
100,384,197254,1,8,1:2:0:0:
122,378,197387,1,8,0:0:0:0:
143,371,197520,69,0,1:0:0:0:
