osu file format v14

[General]
AudioFilename: audio.mp3
AudioLeadIn: 0
PreviewTime: 46651
Countdown: 0
SampleSet: Soft
StackLeniency: 0.3
Mode: 0
LetterboxInBreaks: 0
WidescreenStoryboard: 0

[Editor]
DistanceSpacing: 0.1
BeatDivisor: 7
GridSize: 32
TimelineZoom: 1.9

[Metadata]
Title:Strawberry Shower
TitleUnicode:ストロベリーシャワー
Artist:Haruki Mori
ArtistUnicode:母里治樹
Creator:Snowy Wind
Version:Serenity
Source:グリザイアの果実
Tags:vn visual novel eroge galgame video game the fruit of grisaia no kajitsu 入巣 蒔菜 Irisu Makina instrumental ambient elements garden ost bgm background music orchestral
BeatmapID:3331058
BeatmapSetID:1631873

[Difficulty]
HPDrainRate:3
CircleSize:6
OverallDifficulty:5.2
ApproachRate:7
SliderMultiplier:1.5
SliderTickRate:1

[Events]
//Background and Video events
0,0,"makinaaa.jpg",0,0
//Break Periods
//Storyboard Layer 0 (Background)
//Storyboard Layer 1 (Fail)
//Storyboard Layer 2 (Pass)
//Storyboard Layer 3 (Foreground)
//Storyboard Layer 4 (Overlay)
//Storyboard Sound Samples

[TimingPoints]
1286,731.707317073171,4,2,1,45,1,0
6407,-200,4,2,1,45,0,0
7139,-100,4,2,1,45,0,0
15920,-100,4,2,1,45,0,0
21042,-200,4,2,1,45,0,0
21773,-100,4,2,1,45,0,0
43725,-125,4,2,1,45,0,0
45188,-100,4,2,1,45,0,0
46651,-133.333333333333,4,2,1,40,0,0
47292,-133.333333333333,4,2,1,5,0,0
47383,-100,4,2,1,48,0,0
48023,-111.111111111111,4,2,1,5,0,0
48115,-90.9090909090909,4,2,1,55,0,0
70066,-90.9090909090909,4,2,1,51,0,0
70432,-90.9090909090909,4,2,1,52,0,0
70798,-90.9090909090909,4,2,1,53,0,0
71164,-90.9090909090909,4,2,1,54,0,0
71529,-90.9090909090909,4,2,1,55,0,0
95676,-90.9090909090909,4,2,1,50,0,0
96407,-90.9090909090909,4,2,1,45,0,0
97139,-90.9090909090909,4,2,1,40,0,0
97871,-90.9090909090909,4,2,1,35,0,0
98603,-90.9090909090909,4,2,1,30,0,0
99334,-90.9090909090909,4,2,1,25,0,0
100066,-90.9090909090909,4,2,1,20,0,0
100798,-90.9090909090909,4,2,1,15,0,0
101529,-90.9090909090909,4,2,1,10,0,0
102261,-90.9090909090909,4,2,1,5,0,0

[Colours]
Combo1 : 38,68,119
Combo2 : 105,94,198
Combo3 : 247,171,188
Combo4 : 204,74,129
Combo5 : 225,181,143
Combo6 : 247,238,180

[HitObjects]
77,21,1286,6,0,P|87:87|98:171,1,150,2|0,0:0|0:0,0:0:0:0:
53,230,2383,1,2,0:0:0:0:
83,298,2749,1,2,0:0:0:0:
156,306,3115,1,2,0:0:0:0:
199,246,3481,1,2,0:0:0:0:
168,178,3846,1,2,0:0:0:0:
199,246,4212,6,0,P|260:284|334:254,1,150,2|0,0:0|0:0,0:0:0:0:
328,259,5310,1,0,0:0:0:0:
250,79,6407,6,0,L|264:148,1,65.625,2|2,0:0|0:0,0:0:0:0:
275,153,7139,6,0,P|285:79|297:-11,1,150,2|0,0:0|0:0,0:0:0:0:
321,75,8237,1,2,0:0:0:0:
396,88,8603,1,2,0:0:0:0:
444,21,8968,1,2,0:0:0:0:
396,88,9334,1,2,0:0:0:0:
433,162,9700,1,2,0:0:0:0:
378,223,10066,6,0,B|372:243|366:263|366:263|379:311|399:372,1,150,2|0,0:0|0:0,0:0:0:0:
397,366,11164,1,0,0:0:0:0:
323,351,11529,2,0,L|248:361,1,75,2|0,0:0|0:0,0:0:0:0:
162,280,12261,2,0,L|237:291,1,75,2|0,0:0|0:0,0:0:0:0:
94,364,12993,6,0,P|56:301|69:229,1,150,2|0,0:0|0:0,0:0:0:0:
122,176,14090,1,2,0:0:0:0:
126,170,14456,2,0,P|124:132|112:97,1,75,2|0,0:0|0:0,0:0:0:0:
5,0,15554,22,0,L|64:9,1,56.25,2|2,0:0|0:0,0:0:0:0:
75,20,15920,2,0,L|224:-1,1,150,2|0,0:0|0:0,0:0:0:0:
296,16,17017,1,2,0:0:0:0:
292,22,17383,1,2,0:2:0:0:
441,14,18481,5,2,0:0:0:0:
460,86,18846,2,0,P|471:155|481:239,2,150,2|0|0,0:0|0:0|0:0,0:0:0:0:
480,234,21042,6,0,P|476:262|472:307,1,65.625,2|2,0:0|0:0,0:0:0:0:
483,315,21773,6,0,P|410:301|347:339,1,150,2|0,0:0|0:0,0:0:0:0:
347,338,22871,1,0,0:0:0:0:
424,368,23237,1,0,0:0:0:0:
250,147,24700,6,0,P|176:157|102:167,1,150,2|0,0:0|0:0,0:0:0:0:
55,227,25798,1,2,0:0:0:0:
26,157,26164,1,2,0:0:0:0:
72,97,26529,1,2,0:0:0:0:
145,107,26895,1,2,0:0:0:0:
213,79,27261,2,0,P|232:82|274:88,1,56.25,2|2,0:0|0:0,0:0:0:0:
280,70,27627,6,0,L|363:58,1,75,2|0,0:0|0:0,0:0:0:0:
263,152,28359,2,0,L|179:140,1,75,2|0,0:0|0:0,0:0:0:0:
311,200,29090,1,2,0:0:0:0:
354,59,29822,1,2,0:0:0:0:
364,243,30554,22,0,P|438:242|492:193,1,150,2|0,0:0|0:0,0:0:0:0:
451,256,31651,1,2,0:0:0:0:
468,329,32017,1,2,0:0:0:0:
413,380,32383,1,2,0:0:0:0:
334,354,32749,1,2,0:0:0:0:
252,370,33115,1,2,0:0:0:0:
334,354,33481,6,0,P|344:279|355:202,1,150,2|0,0:0|0:0,0:0:0:0:
386,137,34578,1,0,0:0:0:0:
311,144,34944,2,0,P|275:137|241:117,1,75
200,55,35676,1,2,0:0:0:0:
130,83,36042,1,2,0:0:0:0:
179,158,36407,6,0,P|188:237|200:313,1,150,2|0,0:0|0:0,0:0:0:0:
133,342,37505,1,2,0:0:0:0:
131,334,37871,2,0,P|125:298|120:257,1,75,2|0,0:0|0:0,0:0:0:0:
7,201,38968,5,2,0:0:0:0:
43,135,39334,2,0,P|114:120|178:157,1,150,2|0,0:0|0:0,0:0:0:0:
236,204,40432,1,2,0:0:0:0:
242,208,40798,2,0,P|280:206|315:194,1,75,2|0,0:0|0:0,0:0:0:0:
272,35,41895,5,2,0:0:0:0:
330,82,42261,2,0,P|322:138|313:198,2,112.5,2|0|0,0:0|0:0|0:0,0:0:0:0:
407,107,43725,2,0,P|402:61|393:5,2,90,2|0|0,0:0|0:0|0:0,0:0:0:0:
438,181,45188,1,2,0:0:0:0:
437,180,46651,22,0,B|393:196|393:196|336:181,1,98.4375037550928,2|0,0:0|0:0,0:0:0:0:
331,171,47383,6,0,P|269:163|234:215,1,131.25,2|0,0:0|0:0,0:0:0:0:
225,232,48115,6,0,P|182:235|143:220,2,82.5000025177003,6|0|8,3:2|0:0|0:0,0:0:0:0:
195,158,49212,1,2,0:0:0:0:
195,158,49395,1,0,0:0:0:0:
195,158,49578,1,0,0:0:0:0:
149,224,49944,1,0,0:0:0:0:
99,168,50310,2,0,L|104:122,1,41.2500012588501,10|0,0:0|0:0,0:0:0:0:
153,98,50676,2,0,L|147:52,1,41.2500012588501,2|0,0:0|0:0,0:0:0:0:
119,10,51042,6,0,P|80:6|37:0,2,82.5000025177003,2|0|8,0:0|0:0|0:0,0:0:0:0:
192,0,52139,1,2,0:0:0:0:
246,61,52505,2,0,P|251:103|236:144,1,82.5000025177003,2|0,0:0|0:0,0:0:0:0:
170,188,53237,1,2,0:0:0:0:
220,298,53603,5,0,0:0:0:0:
220,298,53786,1,0,0:0:0:0:
220,298,53968,2,0,P|275:245|342:289,1,165.000005035401,2|8,3:2|0:0,0:0:0:0:
405,336,55066,2,0,P|411:295|416:254,1,82.5000025177003
358,195,55798,2,0,P|325:169|281:171,2,82.5000025177003,2|10|2,0:0|0:0|0:0,0:0:0:0:
431,111,56895,22,0,P|473:105|514:99,2,82.5000025177003,2|0|8,0:0|0:0|0:0,0:0:0:0:
439,210,57993,1,0,0:0:0:0:
373,73,58359,2,0,L|381:13,2,55.0000016784668,2|2|2,0:0|0:0|0:0,0:0:0:0:
329,124,59090,2,0,L|322:173,1,41.2500012588501,10|0,0:0|0:0,0:0:0:0:
290,66,59456,2,0,L|298:0,1,61.8750018882752,0|2,0:0|0:0,0:0:0:0:
314,14,59822,6,0,B|265:35|265:35|148:4,1,165.000005035401,6|8,3:2|0:0,0:0:0:0:
88,53,60920,1,2,0:0:0:0:
145,122,61286,1,0,0:0:0:0:
145,122,61469,1,0,0:0:0:0:
145,122,61652,1,0,0:0:0:0:
79,173,62017,2,0,P|39:167|-1:161,1,82.5000025177003,8|0,0:0|0:0,0:0:0:0:
140,228,62749,6,0,B|167:224|190:218|190:218|180:276|173:344,1,165.000005035401,2|8,0:0|0:0,0:0:0:0:
220,384,63846,1,0,0:0:0:0:
112,358,64212,2,0,P|70:363|28:369,1,82.5000025177003,2|0,0:0|0:0,0:0:0:0:
174,330,64944,2,0,P|209:312|260:324,1,82.5000025177003,10|0,0:0|0:0,0:0:0:0:
330,351,65676,6,0,P|272:323|284:230,2,165.000005035401,2|8|0,3:2|0:0|0:0,0:0:0:0:
406,382,67505,2,0,P|412:362|414:342,1,41.2500012588501,2|0,0:0|0:0,0:0:0:0:
449,283,67871,2,0,P|440:264|426:249,1,41.2500012588501,10|0,0:0|0:0,0:0:0:0:
399,197,68237,2,0,P|379:190|359:188,1,41.2500012588501,2|0,0:0|0:0,0:0:0:0:
280,233,68603,6,0,P|240:236|205:211,1,82.5000025177003,2|0,0:0|0:0,0:0:0:0:
160,144,69334,2,0,L|169:77,2,55.0000016784668,10|2|2,0:0|0:0|0:0,0:0:0:0:
107,208,70066,21,2,0:0:0:0:
139,292,70432,1,0,0:0:0:0:
236,307,70798,1,10,0:0:0:0:
302,223,71164,1,0,0:0:0:0:
416,176,71529,6,0,P|460:173|499:192,2,82.5000025177003,6|0|8,3:2|0:0|0:0,0:0:0:0:
358,235,72627,1,2,0:0:0:0:
358,235,72810,1,0,0:0:0:0:
358,235,72993,1,0,0:0:0:0:
338,156,73359,1,0,0:0:0:0:
381,85,73725,2,0,L|385:43,1,41.2500012588501,10|0,0:0|0:0,0:0:0:0:
328,54,74091,2,0,L|311:16,1,41.2500012588501,2|0,0:0|0:0,0:0:0:0:
257,62,74456,6,0,P|217:61|184:84,2,82.5000025177003,2|0|8,0:0|0:0|0:0,0:0:0:0:
308,117,75554,1,2,0:0:0:0:
264,187,75920,2,0,P|230:210|190:208,1,82.5000025177003,2|0,0:0|0:0,0:0:0:0:
120,164,76651,1,10,0:0:0:0:
34,280,77017,5,0,0:0:0:0:
34,280,77200,1,0,0:0:0:0:
34,280,77383,2,0,P|25:216|10:114,1,165.000005035401,2|8,3:2|0:0,0:0:0:0:
43,192,78481,2,0,P|78:208|123:204,1,82.5000025177003,2|0,0:0|0:0,0:0:0:0:
172,151,79212,2,0,P|166:110|160:69,2,82.5000025177003,2|10|2,0:0|0:0|0:0,0:0:0:0:
238,238,80310,6,0,L|226:319,2,82.5000025177003,2|0|8,0:0|0:0|0:0,0:0:0:0:
306,191,81407,2,0,L|299:144,1,41.2500012588501
259,100,81773,1,2,0:0:0:0:
259,100,81956,1,0,0:0:0:0:
259,100,82139,1,0,0:0:0:0:
327,53,82505,2,0,P|367:45|404:60,1,82.5000025177003,10|0,0:0|0:0,0:0:0:0:
483,153,83237,22,0,P|413:142|404:60,1,165.000005035401,6|8,3:2|0:0,0:0:0:0:
385,140,84334,1,2,0:0:0:0:
415,226,84700,1,0,0:0:0:0:
415,226,84883,1,0,0:0:0:0:
415,226,85066,1,0,0:0:0:0:
382,301,85432,2,0,P|342:296|289:287,1,82.5000025177003,8|0,2:0|0:0,0:0:0:0:
230,248,86164,6,0,B|204:244|172:239|172:239|133:262|77:295,1,165.000005035401,2|8,0:0|0:0,0:0:0:0:
34,361,87261,1,2,0:0:0:0:
0,285,87627,2,0,P|3:242|27:206,1,82.5000025177003,2|0,0:0|0:0,0:0:0:0:
102,185,88359,2,0,P|98:142|74:106,1,82.5000025177003,10|0,0:0|0:0,0:0:0:0:
145,1,89090,6,0,P|203:51|170:132,1,165.000005035401,2|8,3:2|0:0,0:0:0:0:
104,143,90188,1,2,0:0:0:0:
161,204,90554,1,0,0:0:0:0:
161,204,90737,1,0,0:0:0:0:
161,204,90920,1,0,0:0:0:0:
241,184,91286,1,8,0:0:0:0:
298,243,91651,2,0,L|359:232,1,61.8750018882752,2|2,0:0|0:0,0:0:0:0:
372,242,92017,6,0,P|346:172|415:119,1,165.000005035401,2|10,0:0|0:0,0:0:0:0:
474,157,93115,1,0,0:0:0:0:
434,47,93481,2,0,L|440:2,2,41.2500012588501,2|0|0,0:0|0:0|0:0,0:0:0:0:
359,137,94212,5,8,0:0:0:0:
329,144,94394,1,0,0:0:0:0:
299,136,94577,1,0,0:0:0:0:
277,115,94760,1,0,0:0:0:0:
268,86,94944,5,6,3:2:0:0:
256,192,95036,12,0,102261,0:0:0:0:
