osu file format v14

[General]
AudioFilename: audio.mp3
AudioLeadIn: 0
PreviewTime: 46651
Countdown: 0
SampleSet: Soft
StackLeniency: 0.3
Mode: 0
LetterboxInBreaks: 0
WidescreenStoryboard: 1

[Editor]
DistanceSpacing: 1.3
BeatDivisor: 4
GridSize: 32
TimelineZoom: 1.9

[Metadata]
Title:Strawberry Shower
TitleUnicode:ストロベリーシャワー
Artist:Haruki Mori
ArtistUnicode:母里治樹
Creator:Snowy Wind
Version:Normal
Source:グリザイアの果実
Tags:vn visual novel eroge galgame video game the fruit of grisaia no kajitsu 入巣 蒔菜 Irisu Makina instrumental ambient elements garden ost bgm background music orchestral
BeatmapID:3404870
BeatmapSetID:1631873

[Difficulty]
HPDrainRate:3
CircleSize:4
OverallDifficulty:4
ApproachRate:5
SliderMultiplier:1.4
SliderTickRate:1

[Events]
//Background and Video events
0,0,"makinaaa.jpg",0,0
//Break Periods
//Storyboard Layer 0 (Background)
//Storyboard Layer 1 (Fail)
//Storyboard Layer 2 (Pass)
//Storyboard Layer 3 (Foreground)
//Storyboard Layer 4 (Overlay)
//Storyboard Sound Samples

[TimingPoints]
1286,731.707317073171,4,2,1,45,1,0
7139,-100,4,2,1,45,0,0
15920,-100,4,2,1,45,0,0
21590,-100,4,2,1,5,0,0
21773,-100,4,2,1,45,0,0
30371,-100,4,2,1,5,0,0
30554,-100,4,2,1,45,0,0
46651,-100,4,2,1,40,0,0
47200,-100,4,2,1,5,0,0
47383,-100,4,2,1,48,0,0
47932,-100,4,2,1,5,0,0
48115,-95.2380952380952,4,2,1,55,0,0
53786,-95.2380952380952,4,2,1,5,0,0
53968,-95.2380952380952,4,2,1,55,0,0
59639,-95.2380952380952,4,2,1,5,0,0
59822,-95.2380952380952,4,2,1,55,0,0
65493,-95.2380952380952,4,2,1,5,0,0
65676,-95.2380952380952,4,2,1,55,0,0
70066,-95.2380952380952,4,2,1,51,0,0
70432,-95.2380952380952,4,2,1,52,0,0
70798,-95.2380952380952,4,2,1,53,0,0
71346,-95.2380952380952,4,2,1,5,0,0
71529,-95.2380952380952,4,2,1,55,0,0
77200,-95.2380952380952,4,2,1,5,0,0
77383,-95.2380952380952,4,2,1,55,0,0
83054,-95.2380952380952,4,2,1,5,0,0
83237,-95.2380952380952,4,2,1,55,0,0
85981,-95.2380952380952,4,2,1,5,0,0
86164,-95.2380952380952,4,2,1,55,0,0
88907,-95.2380952380952,4,2,1,5,0,0
89090,-95.2380952380952,4,2,1,55,0,0
95676,-95.2380952380952,4,2,1,50,0,0
96407,-95.2380952380952,4,2,1,45,0,0
97139,-95.2380952380952,4,2,1,40,0,0
97871,-95.2380952380952,4,2,1,35,0,0
98603,-95.2380952380952,4,2,1,30,0,0
99334,-95.2380952380952,4,2,1,25,0,0
100066,-95.2380952380952,4,2,1,20,0,0
100798,-95.2380952380952,4,2,1,15,0,0
101529,-95.2380952380952,4,2,1,10,0,0
102261,-95.2380952380952,4,2,1,5,0,0

[Colours]
Combo1 : 38,68,119
Combo2 : 105,94,198
Combo3 : 247,171,188
Combo4 : 204,74,129
Combo5 : 225,181,143
Combo6 : 247,238,180

[HitObjects]
424,367,1286,6,0,P|355:373|288:352,1,140,2|0,0:0|0:0,0:0:0:0:
217,286,2383,1,2,0:0:0:0:
276,217,2749,2,0,P|271:183|262:142,1,70,2|2,0:0|0:0,0:0:0:0:
284,59,3481,1,2,0:0:0:0:
204,15,3846,1,2,0:0:0:0:
137,76,4212,2,0,B|97:99|43:85|26:45|26:45|-7:73|-3:120,1,210,2|0,0:0|0:0,0:0:0:0:
0,326,6407,2,0,L|80:312,1,70,2|0,0:0|0:0,0:0:0:0:
141,370,7139,6,0,B|164:330|164:330|144:217,1,140,2|0,0:0|0:0,0:0:0:0:
186,154,8237,1,2,0:0:0:0:
250,218,8603,2,0,P|286:210|327:204,1,70,2|2,0:0|0:0,0:0:0:0:
395,254,9334,1,2,0:0:0:0:
475,212,9700,1,2,0:0:0:0:
472,122,10066,2,0,B|442:72|376:77|376:77|329:110|267:91,1,210,2|0,0:0|0:0,0:0:0:0:
200,55,11529,2,0,P|165:54|118:76,1,70,2|0,0:0|0:0,0:0:0:0:
79,139,12261,1,2,0:0:0:0:
38,316,12993,6,0,B|104:338|104:338|169:291,1,140,2|0,0:0|0:0,0:0:0:0:
211,221,14090,1,2,0:0:0:0:
267,292,14456,2,0,P|301:293|333:279,1,70,2|0,0:0|0:0,0:0:0:0:
408,138,15554,1,2,0:0:0:0:
331,89,15920,6,0,P|267:99|189:114,1,140,2|0,0:0|0:0,0:0:0:0:
146,191,17017,1,2,0:0:0:0:
184,273,17383,1,2,0:0:0:0:
449,341,18481,1,2,0:0:0:0:
480,256,18846,6,0,B|503:209|467:150|409:150|409:150|422:119|411:80,1,210,2|0,0:0|0:0,0:0:0:0:
345,32,20310,1,0,0:0:0:0:
223,133,21042,2,0,L|110:113,1,105,2|0,0:0|0:0,0:0:0:0:
84,85,21773,6,0,P|99:153|108:225,1,140,2|0,0:0|0:0,0:0:0:0:
63,301,22871,1,0,0:0:0:0:
149,328,23237,1,0,0:0:0:0:
512,322,24700,6,0,P|469:269|384:294,1,140,2|0,0:0|0:0,0:0:0:0:
340,341,25798,1,2,0:0:0:0:
290,264,26164,2,0,L|303:187,1,70,2|2,0:0|0:0,0:0:0:0:
387,165,26895,1,2,0:0:0:0:
379,74,27261,1,2,0:0:0:0:
291,47,27627,6,0,P|256:56|212:55,1,70,2|0,0:0|0:0,0:0:0:0:
140,14,28359,2,0,P|65:19|37:89,1,140,2|2,0:0|0:0,0:0:0:0:
109,124,29456,1,0,0:0:0:0:
144,207,29822,2,0,P|136:254|121:312,1,105,2|0,0:2|0:0,0:0:0:0:
82,333,30554,6,0,B|130:311|130:311|238:336,1,140,2|0,0:0|0:0,0:0:0:0:
291,379,31651,1,2,0:0:0:0:
324,294,32017,2,0,L|404:308,1,70,2|2,0:0|0:0,0:0:0:0:
479,335,32749,1,2,0:2:0:0:
508,248,33115,1,2,0:2:0:0:
491,158,33481,6,0,P|421:158|350:181,1,140,2|0,0:0|0:0,0:0:0:0:
280,231,34578,1,0,0:0:0:0:
243,147,34944,2,0,P|212:134|167:138,1,70
110,71,35676,1,2,0:0:0:0:
46,135,36042,1,2,0:0:0:0:
69,223,36407,6,0,B|99:262|99:262|195:286,1,140,2|0,0:0|0:0,0:0:0:0:
258,341,37505,1,2,0:0:0:0:
326,281,37871,2,0,L|404:267,1,70,2|0,0:0|0:0,0:0:0:0:
430,90,38968,1,2,0:0:0:0:
346,53,39334,6,0,B|260:73|260:73|202:44,1,140,2|0,0:0|0:0,0:0:0:0:
135,2,40432,1,2,0:0:0:0:
67,62,40798,2,0,P|65:102|78:139,1,70,2|0,0:0|0:0,0:0:0:0:
106,309,41895,1,2,0:0:0:0:
185,352,42261,6,0,B|272:372|325:307|325:307|294:237|319:180,1,280,2|0,0:0|0:0,0:0:0:0:
89,76,45188,1,2,0:0:0:0:
452,81,46651,6,0,L|343:100,1,105,2|0,0:0|0:0,0:0:0:0:
319,134,47383,2,0,L|203:110,1,105,2|0,0:0|0:0,0:0:0:0:
175,87,48115,6,0,P|146:152|168:237,1,146.999995513916,6|8,3:2|0:0,0:0:0:0:
137,317,49212,2,0,B|114:349|114:349|163:381|227:362,1,146.999995513916,2|0,0:0|0:0,0:0:0:0:
299,315,50310,1,10,0:0:0:0:
376,371,50676,1,2,0:0:0:0:
451,312,51042,6,0,P|441:235|423:155,1,146.999995513916,2|8,0:0|0:0,0:0:0:0:
451,74,52139,1,2,0:0:0:0:
382,7,52505,2,0,P|345:4|298:20,1,73.4999977569581,2|0,0:0|0:0,0:0:0:0:
214,3,53237,2,0,P|181:45|197:108,1,110.249996635437,2|0,0:0|0:0,0:0:0:0:
226,128,53968,6,0,L|253:271,1,146.999995513916,2|8,3:2|0:0,0:0:0:0:
218,361,55066,2,0,P|180:363|134:345,1,73.4999977569581
76,287,55798,2,0,P|38:285|-8:303,2,73.4999977569581,2|10|2,0:0|0:0|0:0,0:0:0:0:
152,229,56895,6,0,P|150:151|90:107,1,146.999995513916,2|8,0:0|0:0,0:0:0:0:
17,61,57993,1,0,0:0:0:0:
91,0,58359,2,0,L|169:14,1,73.4999977569581,2|0,0:0|0:0,0:0:0:0:
235,75,59090,2,0,L|346:52,1,110.249996635437,10|0,0:0|0:0,0:0:0:0:
386,32,59822,6,0,P|409:97|440:169,1,146.999995513916,6|8,3:2|0:0,0:0:0:0:
488,251,60920,2,0,B|497:265|514:286|514:286|406:271,1,146.999995513916,10|0,0:0|0:0,0:0:0:0:
324,310,62017,2,0,L|243:324,1,73.4999977569581,8|0,0:0|0:0,0:0:0:0:
165,364,62749,6,0,P|88:373|51:294,1,146.999995513916,2|8,0:0|0:0,0:0:0:0:
109,247,63846,1,0,0:0:0:0:
40,181,64212,2,0,P|38:143|53:105,1,73.4999977569581,2|0,0:0|0:0,0:0:0:0:
142,83,64944,2,0,P|196:61|253:96,1,110.249996635437,10|0,0:0|0:0,0:0:0:0:
270,118,65676,6,0,P|278:184|289:271,2,146.999995513916,2|8|0,3:2|0:0|0:0,0:0:0:0:
337,50,67505,1,2,0:0:0:0:
416,102,67871,2,0,L|428:176,1,73.4999977569581,10|2,0:0|0:0,0:0:0:0:
355,237,68603,6,0,P|281:236|210:217,1,146.999995513916,2|10,0:0|0:0,0:0:0:0:
230,124,69700,1,0,0:0:0:0:
170,49,70066,2,0,L|84:63,1,73.4999977569581,2|0,0:0|0:0,0:0:0:0:
5,87,70798,2,0,P|49:130|49:204,1,110.249996635437,10|0,0:0|0:0,0:0:0:0:
35,218,71529,6,0,P|109:224|183:246,1,146.999995513916,6|8,3:2|0:0,0:0:0:0:
257,190,72627,2,0,B|292:203|329:188|329:188|367:187|397:216,1,146.999995513916,2|0,0:0|0:0,0:0:0:0:
426,304,73725,1,10,0:0:0:0:
360,372,74090,1,2,0:0:0:0:
276,324,74456,6,0,P|207:330|129:349,1,146.999995513916,2|8,0:0|0:0,0:0:0:0:
41,380,75554,1,2,0:0:0:0:
5,291,75920,2,0,P|6:254|19:209,1,73.4999977569581,2|0,0:0|0:0,0:0:0:0:
102,180,76651,2,0,P|102:124|79:65,1,110.249996635437,10|0,0:0|0:0,0:0:0:0:
53,35,77383,6,0,P|125:47|207:62,1,146.999995513916,2|8,3:2|0:0,0:0:0:0:
277,6,78481,2,0,P|289:42|291:85,1,73.4999977569581,2|0,0:0|0:0,0:0:0:0:
330,164,79212,2,0,P|363:179|399:186,2,73.4999977569581,2|10|2,0:0|0:0|0:0,0:0:0:0:
241,200,80310,6,0,P|169:209|92:227,1,146.999995513916,2|8,0:0|0:0,0:0:0:0:
45,306,81407,1,0,0:0:0:0:
123,360,81773,2,0,P|160:366|198:373,1,73.4999977569581,2|0,0:0|0:0,0:0:0:0:
285,340,82505,2,0,P|338:330|403:321,1,110.249996635437,10|0,0:0|0:0,0:0:0:0:
441,313,83237,6,0,P|435:276|394:165,1,146.999995513916,6|8,3:2|0:0,0:0:0:0:
428,82,84334,2,0,P|376:33|303:42,1,146.999995513916,2|0,0:0|0:0,0:0:0:0:
248,118,85432,2,0,P|196:128|138:82,1,110.249996635437,8|0,0:0|0:0,0:0:0:0:
114,65,86164,6,0,B|94:111|94:111|114:214,1,146.999995513916,2|8,0:0|0:0,0:0:0:0:
83,297,87261,1,2,0:0:0:0:
157,358,87627,2,0,P|196:360|230:343,1,73.4999977569581,2|0,0:0|0:0,0:0:0:0:
320,365,88359,2,0,P|342:318|304:251,1,110.249996635437,10|0,0:0|0:0,0:0:0:0:
290,230,89090,6,0,P|218:215|141:203,1,146.999995513916,2|8,3:2|0:0,0:0:0:0:
62,155,90188,2,0,P|116:113|206:126,1,146.999995513916,2|0,0:2|0:2,0:0:0:0:
280,82,91286,1,8,0:2:0:0:
364,125,91651,1,2,0:0:0:0:
305,201,92017,6,0,P|312:280|334:354,1,146.999995513916,2|10,0:0|0:0,0:0:0:0:
418,384,93115,1,0,0:0:0:0:
494,326,93481,2,0,P|498:291|472:233,1,73.4999977569581,2|0,0:0|0:0,0:0:0:0:
422,184,94212,2,0,P|418:149|444:91,1,73.4999977569581,8|0,0:0|0:0,0:0:0:0:
495,43,94944,5,12,3:2:0:0:
256,192,95127,12,0,102261,0:0:0:0:
