osu file format v14

[General]
AudioFilename: audio.mp3
AudioLeadIn: 0
PreviewTime: 59187
Countdown: 0
SampleSet: Soft
StackLeniency: 0.7
Mode: 0
LetterboxInBreaks: 0
WidescreenStoryboard: 1

[Editor]
DistanceSpacing: 1
BeatDivisor: 2
GridSize: 4
TimelineZoom: 1.4

[Metadata]
Title:17 Sai (TV Size)
TitleUnicode:17才 (TV Size)
Artist:Haruka to Miyuki
ArtistUnicode:ハルカトミユキ
Creator:GfMRT
Version:Normal
Source:色づく世界の明日から
Tags:17sai juunana jyuunana sai iroduku irozuku sekai no ashita kara anime opening japanese jpop pop
BeatmapID:1835735
BeatmapSetID:877030

[Difficulty]
HPDrainRate:3.8
CircleSize:3.7
OverallDifficulty:4.1
ApproachRate:5
SliderMultiplier:1.05
SliderTickRate:1

[Events]
//Background and Video events
Video,-272,"OP (1).mp4"
0,0,"3.jpg",0,0
//Break Periods
//Storyboard Layer 0 (Background)
//Storyboard Layer 1 (Fail)
//Storyboard Layer 2 (Pass)
//Storyboard Layer 3 (Foreground)
//Storyboard Layer 4 (Overlay)
//Storyboard Sound Samples

[TimingPoints]
531,447.761194029851,4,2,2,50,1,0
14859,-100,4,2,1,30,0,0
43516,-100,4,2,1,50,0,0
50680,-100,4,2,1,60,0,0
55829,-100,4,2,1,70,0,0
56613,-100,4,2,1,5,0,0
56725,-100,4,2,1,70,0,0
57732,-100,4,2,1,5,0,0
57844,-100,4,2,1,70,0,0
59187,-100,4,2,1,70,0,0
59635,-100,4,2,2,85,0,1
88292,-100,4,2,1,85,0,0
88404,-100,4,2,2,20,0,0
88516,-100,4,2,2,20,0,0

[Colours]
Combo1 : 52,202,239
Combo2 : 38,253,135
Combo3 : 21,255,250
Combo4 : 183,255,102
Combo5 : 51,142,255
Combo6 : 156,128,255

[HitObjects]
386,171,531,6,0,P|423:133|427:81,1,105,2|0,0:0|0:0,0:0:0:0:
322,88,1427,2,0,L|210:98,1,105,0|0,3:0|0:0,0:0:0:0:
113,111,2322,1,2,0:0:0:0:
21,162,2769,1,0,0:0:0:0:
115,209,3218,2,0,P|116:249|113:301,2,78.75,0|0|0,3:0|3:0|3:0,0:0:0:0:
166,196,4114,6,0,P|232:192|292:194,1,105,2|0,0:0|0:0,0:0:0:0:
375,197,5009,2,0,P|365:249|324:282,1,105,0|0,3:0|0:0,0:0:0:0:
222,297,5904,1,2,0:0:0:0:
117,294,6351,1,0,0:0:0:0:
15,268,6800,2,0,P|14:308|17:360,2,78.75,0|0|0,3:0|3:0|3:0,0:0:0:0:
26,216,7696,6,0,P|58:175|108:173,1,105,10|8,0:0|0:0,0:0:0:0:
189,239,8591,2,0,P|193:291|188:344,1,105,0|0,3:0|0:0,0:0:0:0:
292,351,9486,1,10,0:0:0:0:
299,246,9933,1,8,0:0:0:0:
390,192,10382,2,0,P|440:200|466:242,2,78.75,0|8|8,3:0|0:0|0:0,0:0:0:0:
352,155,11277,6,0,P|337:105|333:35,1,105,10|8,0:0|0:0,0:0:0:0:
429,12,12173,2,0,P|444:62|448:132,1,105,0|0,3:0|0:0,0:0:0:0:
458,219,13068,1,10,0:0:0:0:
452,323,13516,1,8,0:0:0:0:
351,353,13964,2,0,L|289:356,2,52.5,2|0|8,0:0|3:0|0:0,0:0:0:0:
365,248,14860,6,0,P|356:216|324:147,1,105,6|0,0:0|0:0,0:0:0:0:
225,155,15755,1,0,0:0:0:0:
225,155,16203,1,8,0:0:0:0:
206,258,16651,2,0,P|214:289|246:358,1,105,0|0,3:0|0:0,0:0:0:0:
351,353,17546,1,8,0:0:0:0:
351,353,17994,1,8,0:0:0:0:
451,321,18442,6,0,P|450:246|421:165,2,157.5,0|8|8,3:0|0:0|0:0,0:0:0:0:
351,353,20233,2,0,P|282:349|218:342,1,105,0|0,3:0|0:0,0:0:0:0:
166,277,21129,2,0,L|159:211,2,52.5,8|0|8,0:0|3:0|0:0,0:0:0:0:
86,345,22024,6,0,P|41:336|27:266,1,105,2|0,0:0|0:0,0:0:0:0:
64,191,22920,1,0,0:0:0:0:
64,191,23367,1,8,0:0:0:0:
160,224,23815,2,0,P|205:215|219:145,1,105,0|0,3:0|0:0,0:0:0:0:
182,70,24711,1,8,0:0:0:0:
182,70,25158,1,8,0:0:0:0:
85,110,25606,6,0,P|82:192|76:274,2,157.5,0|8|8,3:0|0:0|0:0,0:0:0:0:
6,40,27397,2,0,P|40:12|114:7,1,105,0|0,3:0|0:0,0:0:0:0:
182,70,28293,1,8,0:0:0:0:
190,174,28740,2,0,L|194:241,1,52.5,8|0,0:0|3:0,0:0:0:0:
200,278,29188,6,0,B|255:267|255:267|333:272,1,105,2|0,0:0|0:0,0:0:0:0:
410,294,30084,1,0,0:0:0:0:
410,294,30532,1,8,0:0:0:0:
469,207,30979,2,0,B|414:196|414:196|336:201,1,105,0|0,3:0|0:0,0:0:0:0:
259,223,31875,1,8,0:0:0:0:
259,223,32323,1,8,0:0:0:0:
203,134,32770,6,0,P|214:73|236:30,1,105,0|0,3:0|0:0,0:0:0:0:
285,35,33442,2,0,P|306:82|314:134,1,105,8|0,0:0|0:0,0:0:0:0:
309,186,34114,1,8,0:0:0:0:
297,290,34561,2,0,L|306:356,2,52.5,0|0|8,3:0|0:0|0:0,0:0:0:0:
192,275,35457,1,8,0:0:0:0:
204,171,35905,1,0,3:0:0:0:
309,186,36351,6,0,P|360:183|420:172,1,105,2|0,0:0|0:0,0:0:0:0:
512,133,37248,1,0,3:0:0:0:
512,133,37696,1,0,0:0:0:0:
486,31,38143,2,0,P|434:21|381:18,1,105,8|0,0:0|3:0,0:0:0:0:
280,31,39039,1,0,0:0:0:0:
280,31,39487,1,8,0:0:0:0:
178,4,39934,6,0,B|161:61|200:102|200:102|157:156|181:221,1,210,4|0,0:0|3:0,0:0:0:0:
249,274,41278,1,0,0:0:0:0:
283,174,41726,2,0,P|307:96|275:35,1,105,4|8,0:0|0:0,0:0:0:0:
208,28,42621,2,0,L|134:37,1,52.5,0|0,3:0|3:0,0:0:0:0:
109,60,43069,2,0,L|35:69,1,52.5,0|0,3:0|3:0,0:0:0:0:
9,90,43517,6,0,P|10:146|26:204,1,105,6|0,0:0|3:0,0:0:0:0:
38,243,44188,1,0,3:0:0:0:
141,222,44636,1,0,3:0:0:0:
237,262,45084,6,0,P|249:312|249:365,2,105,8|0|0,0:0|3:0|3:0,0:0:0:0:
308,185,46427,2,0,L|379:166,1,52.5,0|0,3:0|3:0,0:0:0:0:
409,187,46875,6,0,B|424:266|454:352,1,157.5,8|0,0:0|3:0,0:0:0:0:
411,375,47770,2,0,B|335:348|245:331,1,157.5,8|0,0:0|3:0,0:0:0:0:
243,283,48666,2,0,B|303:230|363:161,1,157.5,0|0,3:0|3:0,0:0:0:0:
445,120,49785,2,0,L|460:183,1,52.5,8|0,0:0|3:0,0:0:0:0:
464,223,50233,2,0,L|449:286,1,52.5,8|0,0:0|3:0,0:0:0:0:
423,318,50681,6,0,P|355:326|279:308,1,105,6|0,0:0|3:0,0:0:0:0:
270,301,51352,1,0,3:0:0:0:
273,196,51800,1,0,3:0:0:0:
168,183,52248,2,0,P|150:103|151:54,2,105,8|0|8,0:0|3:0|0:0,0:0:0:0:
317,126,53815,5,0,3:0:0:0:
317,126,54039,2,0,B|315:217|275:294,1,157.5,2|0,0:0|3:0,0:0:0:0:
248,318,54934,1,8,0:0:0:0:
150,278,55382,2,0,L|137:193,1,52.5,8|0,0:0|0:0,0:0:0:0:
98,195,55830,2,0,P|106:114|175:153,1,157.5,4|0,0:0|0:0,0:0:0:0:
203,159,56726,2,0,P|281:163|390:157,1,157.5,0|0,3:0|0:0,0:0:0:0:
365,55,57845,5,4,2:0:0:0:
266,18,58293,2,0,L|273:94,1,52.5,8|8,2:0|0:0,0:0:0:0:
280,227,59188,6,0,L|273:303,1,52.5,0|0,3:0|3:0,0:0:0:0:
268,331,59636,2,0,L|116:317,1,105,6|0,0:0|3:0,0:0:0:0:
110,316,60308,1,8,0:0:0:0:
121,211,60755,1,8,0:0:0:0:
44,138,61203,6,0,P|93:102|142:106,1,105,4|0,0:0|0:0,0:0:0:0:
183,136,61875,1,8,0:0:0:0:
183,136,62099,2,0,P|173:182|158:216,1,52.5,8|2,0:0|0:0,0:0:0:0:
79,237,62770,6,0,L|91:314,2,52.5,8|8|2,0:0|0:0|0:0,0:0:0:0:
44,138,63666,2,0,L|56:61,1,52.5,0|8,3:0|0:0,0:0:0:0:
135,21,64337,1,8,0:0:0:0:
218,85,64785,1,0,3:0:0:0:
218,85,65009,6,0,L|307:66,2,52.5,2|0|0,0:0|0:0|3:0,0:0:0:0:
146,162,65905,2,0,L|57:143,2,52.5,2|0|0,0:0|0:0|3:0,0:0:0:0:
198,253,66800,6,0,P|250:237|305:253,1,105,6|0,0:0|3:0,0:0:0:0:
343,276,67472,1,8,0:0:0:0:
366,378,67920,1,8,0:0:0:0:
447,311,68367,6,0,P|465:251|473:186,1,105,4|0,0:0|0:0,0:0:0:0:
462,161,69039,1,8,0:0:0:0:
462,161,69263,2,0,L|380:169,1,52.5,8|2,0:0|0:0,0:0:0:0:
322,108,69934,6,0,L|240:100,2,52.5,8|8|2,0:0|0:0|0:0,0:0:0:0:
416,61,70830,2,0,L|498:53,1,52.5,0|8,3:0|0:0,0:0:0:0:
462,161,71502,1,8,0:0:0:0:
357,172,71949,2,0,P|303:123|297:20,1,157.5,2|0,0:0|3:0,0:0:0:0:
327,5,72845,5,0,3:0:0:0:
327,5,73069,2,0,P|372:11|419:6,2,78.75,2|8|8,0:0|0:0|0:0,0:0:0:0:
274,0,73964,2,0,P|271:56|260:123,1,105,6|0,0:0|3:0,0:0:0:0:
322,192,74860,6,0,P|367:198|414:193,2,78.75,2|8|8,0:0|0:0|0:0,0:0:0:0:
269,187,75755,2,0,P|266:243|255:310,1,105,2|0,0:0|3:0,0:0:0:0:
165,339,76651,6,0,P|120:345|73:340,2,78.75,2|8|8,0:0|0:0|0:0,0:0:0:0:
214,320,77546,2,0,B|209:264|209:264|223:196,1,105,2|8,0:0|0:0,0:0:0:0:
239,167,78218,2,0,P|220:110|178:115,1,105,12|0,0:0|0:0,0:0:0:0:
141,140,78890,1,0,3:0:0:0:
141,140,79114,2,0,L|157:312,1,157.5,8|0,0:0|3:0,0:0:0:0:
160,353,80009,5,8,0:0:0:0:
160,353,80233,2,0,P|115:359|68:354,2,78.75,2|8|8,0:0|0:0|0:0,0:0:0:0:
204,324,81129,2,0,P|258:310|317:310,1,105,6|0,0:0|3:0,0:0:0:0:
394,251,82024,6,0,P|439:257|486:252,2,78.75,2|8|8,0:0|0:0|0:0,0:0:0:0:
350,222,82920,2,0,P|295:208|236:208,1,105,2|0,0:0|3:0,0:0:0:0:
156,153,83815,6,0,P|111:147|64:152,2,78.75,2|8|8,0:0|0:0|0:0,0:0:0:0:
174,103,84711,2,0,P|256:44|334:105,1,210,2|0,0:0|0:0,0:0:0:0:
355,203,86054,6,0,L|349:295,2,52.5,8|8|2,0:0|0:0|0:0,0:0:0:0:
432,131,86949,1,8,0:0:0:0:
332,100,87397,2,0,P|304:62|256:44,2,78.75,2|0|6,0:0|3:0|0:0,0:0:0:0:
334,152,88293,5,2,0:0:0:0:
256,192,88516,12,0,89635,0:0:0:0:
