osu file format v14

[General]
AudioFilename: audio.mp3
AudioLeadIn: 0
PreviewTime: 74042
Countdown: 1
SampleSet: Soft
StackLeniency: 0.7
Mode: 0
LetterboxInBreaks: 0
WidescreenStoryboard: 1

[Editor]
Bookmarks: 1378,27456,49428,101611,123583,145554,197492,222178,238635,260578,281149,301721
DistanceSpacing: 1
BeatDivisor: 4
GridSize: 32
TimelineZoom: 3.299998

[Metadata]
Title:Noraneko Heart (Epsilon Remix)
TitleUnicode:野良猫ハート (Epsilon Remix)
Artist:Haruka Sora, Kotorii Yuuka, Kamishiro Misaki, Kiritani Hana
ArtistUnicode:遥そら、小鳥居夕花、神代岬、桐谷華
Creator:Lasse
Version:Collab
Source:ノラと皇女と野良猫ハート
Tags:skystar collab amamiya yuko eroge opening harukaze oujo hato to 黒木 未知 パトリシア・オブ・エンド 夕莉 シャチ 明日原 ユウキ kuroki michi patricia of end yuuri shachi asuhara yuuki
BeatmapID:1702151
BeatmapSetID:811434

[Difficulty]
HPDrainRate:6
CircleSize:4.1
OverallDifficulty:8
ApproachRate:9
SliderMultiplier:1.92
SliderTickRate:1

[Events]
//Background and Video events
0,0,"BG.jpg",0,0
//Break Periods
//Storyboard Layer 0 (Background)
//Storyboard Layer 1 (Fail)
//Storyboard Layer 2 (Pass)
//Storyboard Layer 3 (Foreground)
//Storyboard Sound Samples

[TimingPoints]
7,342.857142857143,4,2,1,30,1,0
7,-100,4,2,1,30,0,0
2749,-100,4,2,1,40,0,0
3435,-100,4,2,1,44,0,0
4121,-100,4,2,1,48,0,0
4807,-100,4,2,1,52,0,0
4978,-100,4,2,1,56,0,0
5321,-100,4,2,1,60,0,0
5492,-100,4,2,1,70,0,0
27092,-66.6666666666667,4,2,99,90,0,0
27349,-66.6666666666667,4,2,99,5,0,0
27435,-90.9090909090909,4,2,2,70,0,0
38107,-90.9090909090909,4,2,2,40,0,0
38407,-90.9090909090909,4,2,1,70,0,0
48178,-100,4,2,1,66,0,0
48349,-111.111111111111,4,2,1,62,0,0
48521,-125,4,2,1,58,0,0
48692,-66.6666666666667,4,2,99,90,0,0
49035,-66.6666666666667,4,2,1,40,0,0
49378,-133.333333333333,4,2,2,74,0,0
49721,-66.6666666666667,4,2,2,74,0,0
50064,-133.333333333333,4,2,2,74,0,0
50407,-66.6666666666667,4,2,2,74,0,0
50749,-133.333333333333,4,2,2,74,0,0
50771,-133.333333333333,4,2,1,20,0,0
50835,-133.333333333333,4,2,2,35,0,0
50921,-133.333333333333,4,2,1,45,0,0
51007,-133.333333333333,4,2,2,52,0,0
51092,-133.333333333333,4,2,1,60,0,0
51178,-133.333333333333,4,2,2,80,0,0
51221,-133.333333333333,4,2,1,90,0,0
51264,-133.333333333333,4,2,1,74,0,0
51435,-66.6666666666667,4,2,2,74,0,0
52121,-133.333333333333,4,2,2,74,0,0
52807,-66.6666666666667,4,2,2,74,0,0
53492,-100,4,2,2,74,0,0
54864,-133.333333333333,4,2,2,74,0,0
56921,-66.6666666666667,4,2,2,74,0,0
57607,-133.333333333333,4,2,2,74,0,0
60007,-66.6666666666667,4,2,2,74,0,0
60349,-90.9090909090909,4,2,2,74,0,0
63092,-66.6666666666667,4,2,2,74,0,0
63435,-90.9090909090909,4,2,2,74,0,0
63628,-90.9090909090909,4,2,1,5,0,0
63692,-90.9090909090909,4,2,2,15,0,0
63778,-90.9090909090909,4,2,1,70,0,0
63864,-90.9090909090909,4,2,2,80,0,0
63949,-90.9090909090909,4,2,2,74,0,0
65492,-90.9090909090909,4,2,99,90,0,0
65664,-90.9090909090909,4,2,2,70,0,0
65835,-90.9090909090909,4,2,1,72,0,0
71149,-66.6666666666667,4,2,2,74,0,0
72521,-66.6666666666667,4,2,2,76,0,0
73207,-100,4,2,2,76,0,0
73249,-100,4,2,2,40,0,0
73549,-100,4,2,2,76,0,0
73721,-66.6666666666667,4,2,99,90,0,0
73892,-66.6666666666667,4,2,1,30,0,0
74064,-83.3333333333333,4,2,2,80,0,1
74492,-66.6666666666667,4,2,2,80,0,1
76807,-83.3333333333333,4,2,2,80,0,1
77321,-66.6666666666667,4,2,2,80,0,1
78864,-83.3333333333333,4,2,2,80,0,1
79207,-66.6666666666667,4,2,2,80,0,1
79549,-83.3333333333333,4,2,2,80,0,1
80578,-66.6666666666667,4,2,2,80,0,1
82292,-83.3333333333333,4,2,2,80,0,1
83492,-66.6666666666667,4,2,2,80,0,1
85035,-83.3333333333333,4,2,2,80,0,1
85549,-66.6666666666667,4,2,2,80,0,1
87778,-83.3333333333333,4,2,2,80,0,1
88292,-66.6666666666667,4,2,2,80,0,1
90521,-83.3333333333333,4,2,1,76,0,0
98749,-83.3333333333333,4,2,1,70,0,0
98835,-83.3333333333333,4,2,99,5,0,0
99092,-66.6666666666667,4,2,2,72,0,0
99178,-66.6666666666667,4,2,99,5,0,0
99435,-55.5555555555556,4,2,2,74,0,0
99521,-55.5555555555556,4,2,99,5,0,0
99778,-47.6190476190476,4,2,2,76,0,0
99864,-47.6190476190476,4,2,99,5,0,0
100121,-133.333333333333,4,2,2,70,0,0
100292,-133.333333333333,4,2,2,50,0,0
100807,-66.6666666666667,4,2,99,90,0,0
101149,-66.6666666666667,4,2,2,60,0,0
101492,-100,4,2,2,70,0,0
123092,-66.6666666666667,4,2,99,90,0,0
123264,-66.6666666666667,4,2,2,60,0,0
123435,-90.9090909090909,4,2,2,70,0,0
134107,-90.9090909090909,4,2,2,50,0,0
134407,-90.9090909090909,4,2,1,70,0,0
144007,-90.9090909090909,4,2,1,66,0,0
144178,-90.9090909090909,4,2,1,62,0,0
144349,-90.9090909090909,4,2,1,58,0,0
144521,-90.9090909090909,4,2,1,54,0,0
144692,-66.6666666666667,4,2,99,90,0,0
145035,-66.6666666666667,4,2,1,40,0,0
145378,-200,4,2,2,50,0,0
145464,-200,4,2,2,20,0,0
146064,-200,4,2,2,50,0,0
146578,-66.6666666666667,4,2,2,60,0,0
146749,-83.3333333333333,4,2,2,74,0,0
147092,-125,4,2,2,74,0,0
147435,-76.9230769230769,4,2,2,74,0,0
147778,-142.857142857143,4,2,2,74,0,0
148121,-166.666666666667,4,2,2,74,0,0
148464,-142.857142857143,4,2,2,74,0,0
148807,-66.6666666666667,4,2,2,74,0,0
149321,-83.3333333333333,4,2,2,74,0,0
149492,-100,4,2,2,74,0,0
149664,-100,4,2,2,70,0,0
150007,-100,4,2,2,74,0,0
150349,-100,4,2,2,62,0,0
150521,-100,4,2,2,74,0,0
150864,-133.333333333333,4,2,2,74,0,0
152235,-100,4,2,2,74,0,0
152921,-66.6666666666667,4,2,2,74,0,0
153607,-133.333333333333,4,2,2,74,0,0
156007,-66.6666666666667,4,2,2,74,0,0
156349,-90.9090909090909,4,2,2,74,0,0
159092,-66.6666666666667,4,2,2,74,0,0
159778,-83.3333333333333,4,2,2,74,0,0
161835,-90.9090909090909,4,2,1,72,0,0
166292,-90.9090909090909,4,2,1,64,0,0
166978,-90.9090909090909,4,2,1,64,0,0
167149,-133.333333333333,4,2,1,72,0,0
167235,-133.333333333333,4,2,1,5,0,0
168521,-133.333333333333,4,2,1,50,0,0
168607,-133.333333333333,4,2,1,5,0,0
169207,-133.333333333333,4,2,99,30,0,0
169721,-66.6666666666667,4,2,99,60,0,0
169978,-66.6666666666667,4,2,99,5,0,0
170064,-142.857142857143,4,2,62,70,0,0
170149,-142.857142857143,4,2,99,20,0,0
171949,-142.857142857143,4,2,1,30,0,0
172292,-142.857142857143,4,2,1,42,0,0
172464,-142.857142857143,4,2,1,44,0,0
172635,-142.857142857143,4,2,1,46,0,0
172807,-142.857142857143,4,2,1,50,0,0
172892,-142.857142857143,4,2,1,20,0,0
174692,-142.857142857143,4,2,1,30,0,0
174864,-142.857142857143,4,2,1,38,0,0
175035,-142.857142857143,4,2,1,40,0,0
175207,-142.857142857143,4,2,1,42,0,0
175378,-142.857142857143,4,2,1,44,0,0
175549,-142.857142857143,4,2,1,50,0,0
175635,-142.857142857143,4,2,1,20,0,0
176407,-142.857142857143,4,2,1,30,0,0
176749,-142.857142857143,4,2,1,40,0,0
176835,-142.857142857143,4,2,1,20,0,0
177264,-142.857142857143,4,2,1,30,0,0
177607,-142.857142857143,4,2,1,40,0,0
177949,-142.857142857143,4,2,1,30,0,0
178292,-142.857142857143,4,2,1,40,0,0
178464,-142.857142857143,4,2,1,30,0,0
178635,-142.857142857143,4,2,1,32,0,0
178807,-142.857142857143,4,2,1,34,0,0
178978,-142.857142857143,4,2,1,36,0,0
179149,-142.857142857143,4,2,1,38,0,0
179492,-142.857142857143,4,2,1,46,0,0
179578,-142.857142857143,4,2,1,20,0,0
180007,-142.857142857143,4,2,1,40,0,0
180349,-142.857142857143,4,2,1,42,0,0
180521,-142.857142857143,4,2,1,20,0,0
180692,-66.6666666666667,4,2,1,64,0,0
180949,-66.6666666666667,4,2,99,5,0,0
181035,-100,4,2,2,68,0,0
184635,-100,4,2,2,70,0,0
184978,-100,4,2,2,72,0,0
185321,-100,4,2,2,74,0,0
186007,-100,4,2,2,70,0,0
186521,-83.3333333333333,4,2,2,76,0,0
194921,-100,4,2,2,76,0,0
196121,-76.9230769230769,4,2,2,76,0,0
196292,-76.9230769230769,4,2,2,70,0,0
196978,-90.9090909090909,4,2,2,64,0,0
197492,-200,4,2,2,56,0,0
197749,-200,4,2,99,5,0,0
197835,-66.6666666666667,4,2,2,72,0,0
199892,-83.3333333333333,4,2,2,72,0,0
202121,-66.6666666666667,4,2,2,72,0,0
202464,-83.3333333333333,4,2,2,72,0,0
202678,-83.3333333333333,4,2,2,60,0,0
202807,-83.3333333333333,4,2,2,72,0,0
202849,-83.3333333333333,4,2,2,60,0,0
202978,-83.3333333333333,4,2,2,74,0,0
203664,-66.6666666666667,4,2,2,74,0,0
205721,-83.3333333333333,4,2,2,74,0,0
207092,-83.3333333333333,4,2,2,76,0,0
208635,-83.3333333333333,4,2,2,74,0,0
208978,-83.3333333333333,4,2,2,72,0,0
209835,-133.333333333333,4,2,2,70,0,0
210007,-133.333333333333,4,2,2,60,0,0
210864,-66.6666666666667,4,2,99,90,0,0
211121,-66.6666666666667,4,2,99,5,0,0
211207,-100,4,2,3,62,0,0
213949,-100,4,2,3,64,0,0
216349,-100,4,2,3,66,0,0
216692,-100,4,2,3,68,0,0
218064,-100,4,2,3,70,0,0
218749,-100,4,2,3,72,0,0
219435,-100,4,2,3,74,0,0
219778,-100,4,2,3,76,0,0
220121,-100,4,2,3,78,0,0
220164,-100,4,2,3,76,0,0
220207,-100,4,2,3,74,0,0
220249,-100,4,2,3,72,0,0
220292,-100,4,2,3,70,0,0
220335,-100,4,2,3,68,0,0
220378,-100,4,2,3,66,0,0
220421,-100,4,2,3,64,0,0
220464,-100,4,2,3,62,0,0
220507,-100,4,2,3,60,0,0
220549,-100,4,2,3,58,0,0
220592,-100,4,2,3,56,0,0
220635,-100,4,2,3,54,0,0
220678,-100,4,2,3,52,0,0
220721,-100,4,2,3,50,0,0
220807,-200,4,2,2,56,0,0
221149,-100,4,2,2,56,0,0
221492,-100,4,2,2,60,0,0
221835,-66.6666666666667,4,2,99,90,0,0
222092,-66.6666666666667,4,2,99,5,0,0
222178,-76.9230769230769,4,2,1,80,0,1
224064,-71.4285714285714,4,2,1,80,0,1
224149,-71.4285714285714,4,2,1,60,0,1
224235,-71.4285714285714,4,2,1,80,0,1
224407,-66.6666666666667,4,2,1,80,0,1
224492,-66.6666666666667,4,2,1,60,0,1
224578,-66.6666666666667,4,2,1,80,0,1
224921,-76.9230769230769,4,2,1,80,0,1
226807,-71.4285714285714,4,2,1,80,0,1
226892,-71.4285714285714,4,2,1,60,0,1
226978,-71.4285714285714,4,2,1,80,0,1
227150,-66.6666666666667,4,2,1,80,0,1
227235,-66.6666666666667,4,2,1,60,0,1
227321,-66.6666666666667,4,2,1,80,0,1
227664,-62.5,4,2,1,80,0,1
227835,-76.9230769230769,4,2,1,80,0,1
229035,-62.5,4,2,1,80,0,1
230407,-71.4285714285714,4,2,1,80,0,1
233149,-76.9230769230769,4,2,1,76,0,0
235249,-76.9230769230769,4,2,1,60,0,0
235549,-76.9230769230769,4,2,1,76,0,0
235892,-66.6666666666667,4,2,1,70,0,0
235978,-66.6666666666667,4,2,99,5,0,0
236235,-66.6666666666667,4,2,1,72,0,0
236321,-66.6666666666667,4,2,99,5,0,0
236578,-55.5555555555556,4,2,1,74,0,0
236664,-55.5555555555556,4,2,99,5,0,0
236921,-55.5555555555556,4,2,1,76,0,0
237007,-55.5555555555556,4,2,99,5,0,0
237264,-55.5555555555556,4,2,1,76,0,0
237349,-55.5555555555556,4,2,99,5,0,0
237435,-55.5555555555556,4,2,1,74,0,0
237521,-55.5555555555556,4,2,99,5,0,0
237607,-71.4285714285714,4,2,1,72,0,0
237692,-71.4285714285714,4,2,99,5,0,0
237778,-71.4285714285714,4,2,1,70,0,0
237864,-71.4285714285714,4,2,99,5,0,0
237949,-111.111111111111,4,2,1,68,0,0
238035,-111.111111111111,4,2,1,66,0,0
238121,-111.111111111111,4,2,1,64,0,0
238207,-111.111111111111,4,2,1,62,0,0
238292,-62.5,4,2,99,90,0,0
238549,-62.5,4,2,99,5,0,0
238635,-83.3333333333333,4,2,1,76,0,0
239235,-83.3333333333333,4,2,1,68,0,0
239321,-83.3333333333333,4,2,1,76,0,0
240864,-83.3333333333333,4,2,1,60,0,0
240907,-83.3333333333333,4,2,1,64,0,0
240949,-83.3333333333333,4,2,1,68,0,0
240992,-83.3333333333333,4,2,1,72,0,0
241035,-83.3333333333333,4,2,1,76,0,0
241978,-83.3333333333333,4,2,1,68,0,0
242064,-83.3333333333333,4,2,1,76,0,0
242321,-83.3333333333333,4,2,1,68,0,0
242407,-83.3333333333333,4,2,1,76,0,0
242664,-83.3333333333333,4,2,1,68,0,0
242749,-83.3333333333333,4,2,1,76,0,0
243864,-83.3333333333333,4,2,1,68,0,0
243949,-83.3333333333333,4,2,1,76,0,0
244035,-83.3333333333333,4,2,1,68,0,0
244121,-83.3333333333333,4,2,1,76,0,0
246607,-83.3333333333333,4,2,1,68,0,0
246692,-83.3333333333333,4,2,1,76,0,0
246778,-83.3333333333333,4,2,1,68,0,0
246864,-83.3333333333333,4,2,1,76,0,0
248921,-83.3333333333333,4,2,1,72,0,0
249178,-83.3333333333333,4,2,1,60,0,0
249264,-83.3333333333333,4,2,1,68,0,0
249607,-83.3333333333333,4,2,1,76,0,0
250207,-83.3333333333333,4,2,1,68,0,0
250292,-83.3333333333333,4,2,1,76,0,0
251835,-83.3333333333333,4,2,1,60,0,0
251878,-83.3333333333333,4,2,1,64,0,0
251921,-83.3333333333333,4,2,1,68,0,0
251964,-83.3333333333333,4,2,1,72,0,0
252007,-83.3333333333333,4,2,1,76,0,0
252949,-83.3333333333333,4,2,1,68,0,0
253035,-83.3333333333333,4,2,1,76,0,0
257578,-83.3333333333333,4,2,1,68,0,0
257664,-83.3333333333333,4,2,1,76,0,0
257749,-83.3333333333333,4,2,1,68,0,0
257835,-83.3333333333333,4,2,1,74,0,0
259207,-83.3333333333333,4,2,1,72,0,0
260578,-100,4,2,1,70,0,0
280807,-66.6666666666667,4,2,99,90,0,0
281064,-66.6666666666667,4,2,99,5,0,0
281149,-100,4,2,1,64,0,0
301549,-100,4,2,1,58,0,0

[Colours]
Combo1 : 255,193,224
Combo2 : 160,200,255
Combo3 : 255,174,174
Combo4 : 255,220,150

[HitObjects]
256,192,1378,12,8,4807,0:2:0:0:
316,325,4978,6,0,B|274:344|274:344|201:310,1,96,2|0,0:2|0:2,0:0:0:0:
148,246,5321,5,2,0:2:0:0:
152,259,5407,1,2,0:2:0:0:
148,272,5492,1,6,3:2:0:0:
68,323,5664,2,0,B|31:351|31:351|68:281|62:204,1,192,2|0,0:2|0:2,0:0:0:0:
29,109,6178,1,10,3:2:0:0:
105,36,6349,2,0,B|172:76|237:52|237:52|288:97,1,192,2|0,0:2|0:2,0:0:0:0:
381,113,6864,5,2,3:2:0:0:
464,49,7035,2,0,P|441:9|396:-4,1,96,2|0,0:2|0:2,0:0:0:0:
426,220,7378,2,0,P|462:216|503:153,1,96,2|8,0:2|3:2,0:0:0:0:
447,363,7721,5,2,0:2:0:0:
377,283,7892,1,2,0:2:0:0:
271,285,8064,1,2,0:2:0:0:
201,364,8235,6,0,B|166:307|105:327|105:327|81:300|97:244,1,192,2|0,3:2|0:2,0:0:0:0:
60,176,8749,2,0,P|89:147|171:146,1,96,2|8,0:2|3:2,0:0:0:0:
44,19,9092,5,2,0:2:0:0:
113,53,9264,1,2,0:2:0:0:
189,44,9435,2,0,L|296:59,1,96,2|0,0:2|3:2,0:0:0:0:
195,228,9778,5,2,0:2:0:0:
246,171,9949,2,0,L|353:122,1,96,2|0,0:2|0:2,0:0:0:0:
304,344,10292,5,10,3:2:0:0:
326,270,10464,5,0,0:2:0:0:
403,198,10635,1,0,0:2:0:0:
506,176,10807,1,0,0:2:0:0:
451,104,10978,5,2,3:2:0:0:
491,169,11149,5,0,0:2:0:0:
492,255,11321,1,0,0:2:0:0:
443,326,11492,1,0,0:2:0:0:
313,230,11664,5,10,3:2:0:0:
389,249,11835,5,0,0:2:0:0:
401,163,12007,1,0,0:2:0:0:
363,85,12178,1,0,0:2:0:0:
257,33,12349,5,2,3:2:0:0:
204,151,12521,5,0,0:2:0:0:
126,207,12692,1,0,0:2:0:0:
29,211,12864,1,0,0:2:0:0:
161,61,13035,5,10,3:2:0:0:
221,141,13207,5,0,0:2:0:0:
251,255,13378,1,0,0:2:0:0:
204,364,13549,1,0,0:2:0:0:
112,384,13721,6,0,P|114:324|192:197,1,192,2|0,3:2|0:2,0:0:0:0:
248,188,14235,1,2,0:2:0:0:
86,292,14407,6,0,P|48:237|67:108,1,192,10|0,3:2|0:2,0:0:0:0:
82,41,14921,2,0,P|120:39|172:97,1,96,2|0,0:2|3:2,0:0:0:0:
248,188,15264,1,0,0:2:0:0:
367,106,15435,5,2,0:2:0:0:
422,174,15607,2,0,P|459:192|533:173,1,96,2|8,0:2|3:2,0:0:0:0:
364,124,15949,5,2,0:2:0:0:
411,256,16121,2,0,P|432:291|504:315,1,96,2|0,0:2|0:2,0:0:0:0:
351,137,16464,5,6,3:2:0:0:
324,239,16635,1,2,0:2:0:0:
247,312,16807,2,0,P|205:325|134:302,1,96,2|0,0:2|0:2,0:0:0:0:
102,168,17149,2,0,P|128:132|199:109,1,96,8|0,3:2|0:2,0:0:0:0:
192,217,17492,6,0,L|404:169,1,192,2|0,0:2|3:2,0:0:0:0:
489,79,18007,1,0,0:2:0:0:
355,26,18178,1,2,0:2:0:0:
443,139,18349,1,0,0:2:0:0:
449,282,18521,1,8,3:2:0:0:
291,172,18692,5,2,0:2:0:0:
196,339,18864,1,2,0:2:0:0:
67,274,19035,1,2,0:2:0:0:
29,154,19207,6,0,B|66:181|112:152|112:152|169:172|169:172|184:219,1,192,2|0,3:2|0:2,0:0:0:0:
196,339,19721,2,0,P|151:360|85:345,1,96,2|8,0:2|3:2,0:0:0:0:
56,193,20064,5,2,0:2:0:0:
106,262,20235,1,2,0:2:0:0:
87,346,20407,2,0,P|39:333|-1:279,1,96,2|0,0:2|3:2,0:0:0:0:
216,225,20749,5,2,0:2:0:0:
268,376,20921,2,0,P|278:329|310:294,1,96,2|0,0:2|0:2,0:0:0:0:
451,217,21264,5,10,3:2:0:0:
489,358,21435,5,0,0:2:0:0:
413,315,21607,1,0,0:2:0:0:
368,240,21778,1,0,0:2:0:0:
373,164,21949,5,2,3:2:0:0:
415,334,22121,5,0,0:2:0:0:
323,301,22292,1,0,0:2:0:0:
260,229,22464,1,0,0:2:0:0:
259,147,22635,5,10,3:2:0:0:
326,317,22807,5,0,0:2:0:0:
223,299,22978,1,0,0:2:0:0:
141,233,23149,1,0,0:2:0:0:
121,152,23321,5,2,3:2:0:0:
227,315,23492,5,0,0:2:0:0:
122,315,23664,1,0,0:2:0:0:
30,264,23835,1,0,0:2:0:0:
141,233,24007,5,10,3:2:0:0:
232,152,24178,5,0,0:2:0:0:
258,44,24349,1,0,0:2:0:0:
335,124,24521,1,0,0:2:0:0:
449,169,24692,6,0,P|476:174|463:120,1,96,2|0,3:2|0:2,0:0:0:0:
390,326,25035,2,0,P|376:366|418:373,1,96,10|0,0:2|0:2,0:0:0:0:
430,157,25378,6,0,P|455:146|415:108,1,96,2|0,3:2|0:2,0:0:0:0:
413,338,25721,2,0,P|414:380|455:372,1,96,10|0,0:2|0:2,0:0:0:0:
362,200,26064,6,0,B|313:201|289:249|289:249|230:233|221:159,1,192,2|8,3:2|0:2,0:0:0:0:
78,32,26578,2,0,B|100:25|106:4|106:4|129:40|121:77,1,96,2|0,0:2|0:2,0:0:0:0:
224,180,26921,5,0,3:2:0:0:
250,331,27092,2,0,B|310:351|363:302|363:302|392:361|455:395,1,216.000008239746,8|0,0:1|0:2,0:0:0:0:
498,384,27435,6,0,L|510:268,1,105.600003222656,4|0,3:2|0:2,0:0:0:0:
491,138,27778,2,0,B|441:168|441:227|441:227|393:207,1,158.400004833985,10|0,0:2|0:2,0:0:0:0:
350,141,28121,2,0,P|315:109|255:106,1,105.600003222656,2|0,0:2|3:2,0:0:0:0:
95,142,28464,1,10,0:2:0:0:
167,47,28635,5,2,0:2:0:0:
167,47,28721,1,2,0:2:0:0:
167,47,28807,2,0,L|182:162,1,105.600003222656,0|0,3:2|0:2,0:0:0:0:
136,305,29149,1,10,0:2:0:0:
122,219,29321,1,0,0:2:0:0:
211,313,29492,1,2,3:2:0:0:
147,225,29664,1,0,3:2:0:0:
266,260,29835,1,10,0:2:0:0:
172,231,30007,1,0,0:2:0:0:
225,335,30178,6,0,P|275:348|324:324,1,105.600003222656,2|0,3:2|0:2,0:0:0:0:
489,302,30521,2,0,B|454:309|454:309|419:284|426:225,1,105.600003222656,8|0,0:2|0:2,0:0:0:0:
415,149,30778,1,2,0:2:0:0:
415,149,30864,2,0,P|435:199|419:258,1,105.600003222656,2|0,0:2|3:2,0:0:0:0:
321,325,31207,1,10,0:2:0:0:
194,223,31378,5,2,0:2:0:0:
194,223,31464,1,2,0:2:0:0:
194,223,31549,2,0,L|299:211,1,105.600003222656,0|0,3:2|0:2,0:0:0:0:
151,137,31892,1,8,0:2:0:0:
116,278,32064,1,0,3:2:0:0:
61,113,32235,5,2,0:2:0:0:
116,278,32407,2,0,L|113:315,2,26.4000008056641,2|0|0,3:2|3:2|3:2,0:0:0:0:
194,223,32578,1,10,0:2:0:0:
4,191,32749,1,2,3:2:0:0:
101,191,32921,6,0,B|103:142|103:142|138:96|123:35,1,158.400004833985,0|0,3:2|0:2,0:0:0:0:
51,11,33264,1,10,0:2:0:0:
162,102,33435,2,0,B|230:93|230:93|288:125|288:125|365:114,1,211.200006445313,2|0,0:2|3:2,0:0:0:0:
512,2,33949,1,10,0:2:0:0:
449,71,34121,5,2,0:2:0:0:
449,71,34207,1,2,0:2:0:0:
449,71,34292,2,0,L|440:199,1,105.600003222656,0|0,3:2|0:2,0:0:0:0:
257,109,34635,2,0,L|249:3,1,105.600003222656,10|0,0:2|0:2,0:0:0:0:
88,156,34978,2,0,L|80:261,1,105.600003222656,2|0,0:2|3:2,0:0:0:0:
80,261,35235,1,0,3:2:0:0:
80,261,35321,1,10,0:2:0:0:
32,323,35492,1,2,0:2:0:0:
3,128,35664,6,0,B|40:113|40:113|58:150|102:161,1,105.600003222656,2|0,3:2|0:2,0:0:0:0:
215,42,36007,1,8,0:2:0:0:
123,68,36178,2,0,B|85:101|87:156|87:156|26:132|32:62,1,211.200006445313,2|0,3:2|3:2,0:0:0:0:
239,34,36692,5,8,0:2:0:0:
42,43,36864,1,0,3:2:0:0:
265,37,37035,5,8,0:2:0:0:
61,25,37207,1,0,3:2:0:0:
291,40,37378,5,8,0:2:0:0:
84,14,37549,1,0,3:2:0:0:
317,43,37721,5,8,0:2:0:0:
291,40,37807,1,8,0:2:0:0:
265,37,37892,1,0,3:2:0:0:
445,0,38064,2,0,L|479:-3,6,26.4000008056641,2|0|0|0|0|0|0,3:2|0:2|0:2|0:2|0:2|0:2|0:2,0:0:0:0:
393,55,38407,6,0,P|373:106|372:160,1,105.600003222656,6|0,3:2|0:2,0:0:0:0:
512,288,38749,2,0,P|478:245|432:217,1,105.600003222656,10|0,3:2|0:2,0:0:0:0:
349,242,39007,1,2,0:2:0:0:
349,242,39092,2,0,P|303:267|251:275,1,105.600003222656,2|0,3:2|0:2,0:0:0:0:
136,172,39435,1,10,3:2:0:0:
266,64,39607,5,2,0:2:0:0:
266,64,39692,1,2,0:2:0:0:
266,64,39778,2,0,L|273:182,1,105.600003222656,0|0,3:2|0:2,0:0:0:0:
128,274,40121,1,10,3:2:0:0:
260,193,40292,1,2,0:2:0:0:
104,270,40464,2,0,L|-1:254,1,105.600003222656,2|0,3:2|0:2,0:0:0:0:
30,153,40721,1,2,0:2:0:0:
30,153,40807,2,0,L|135:137,1,105.600003222656,10|0,3:2|0:2,0:0:0:0:
309,81,41149,6,0,B|248:56|248:56|294:122|260:195,1,211.200006445313,2|8,3:2|3:2,0:0:0:0:
104,270,41664,1,2,0:2:0:0:
134,137,41835,1,2,3:2:0:0:
247,214,42007,1,2,0:2:0:0:
114,290,42178,1,10,3:2:0:0:
278,360,42349,6,0,L|401:352,1,105.600003222656,2|0,0:2|3:2,0:0:0:0:
472,158,42692,1,2,0:2:0:0:
472,158,42778,1,2,0:2:0:0:
472,158,42864,2,0,L|459:275,1,105.600003222656,8|0,3:2|0:2,0:0:0:0:
301,122,43207,2,0,L|289:17,1,105.600003222656,2|0,3:2|0:2,0:0:0:0:
208,223,43549,1,10,3:2:0:0:
45,101,43721,5,2,0:2:0:0:
45,101,43807,1,2,0:2:0:0:
45,101,43892,2,0,L|168:84,1,105.600003222656,0|0,3:2|0:2,0:0:0:0:
370,47,44235,2,0,B|340:42|317:57|317:57|310:31|274:5,1,105.600003222656,10|0,3:2|0:2,0:0:0:0:
378,232,44578,2,0,B|408:237|431:222|431:222|438:248|474:274,1,105.600003222656,2|0,3:2|0:2,0:0:0:0:
459,262,44835,1,2,0:2:0:0:
459,262,44921,1,10,3:2:0:0:
320,349,45092,6,0,L|210:364,1,105.600003222656,2|0,0:2|3:2,0:0:0:0:
385,141,45435,2,0,L|292:77,1,105.600003222656,2|8,0:2|3:2,0:0:0:0:
396,314,45778,5,2,0:2:0:0:
477,121,45949,1,2,3:2:0:0:
330,228,46121,6,0,L|277:220,1,52.8000016113282,2|0,0:2|0:2,0:0:0:0:
231,157,46292,1,10,3:2:0:0:
400,18,46464,5,2,0:2:0:0:
400,18,46549,1,2,0:2:0:0:
400,18,46635,2,0,L|512:10,1,105.600003222656,0|0,3:2|0:2,0:0:0:0:
231,157,46978,6,0,P|187:115|166:55,1,105.600003222656,10|0,3:2|0:2,0:0:0:0:
429,182,47321,2,0,P|473:154|504:112,1,105.600003222656,2|2,3:2|0:2,0:0:0:0:
504,112,47578,1,2,0:2:0:0:
504,112,47664,1,10,3:2:0:0:
357,26,47835,6,0,L|339:131,1,105.600003222656,2|0,0:2|3:2,0:0:0:0:
318,208,48092,1,0,0:2:0:0:
307,224,48178,6,0,P|283:241|241:251,1,48,2|0,1:2|1:2,0:0:0:0:
187,240,48349,2,0,P|160:227|130:196,1,43.1999986816407,2|0,1:2|1:2,0:0:0:0:
116,147,48521,2,0,P|113:117|125:76,1,38.4,2|0,1:2|1:2,0:0:0:0:
160,43,48692,6,0,B|202:-15|202:-15|15:122,1,288.000010986329,8|2,0:1|0:2,0:0:0:0:
28,113,49378,6,0,P|66:125|115:117,1,72.0000027465821,6|0,3:2|0:2,0:0:0:0:
205,289,49721,2,2,B|140:285|112:348|112:348|68:321|78:263,1,216.000008239746,2|0,0:2|0:2,0:1:0:0:
84,244,50064,6,0,P|113:215|151:204,1,72.0000027465821,8|0,0:2|0:2,0:0:0:0:
301,217,50407,2,2,B|443:200|443:200|371:237,1,216.000008239746,2|0,0:2|0:2,0:1:0:0:
378,233,50749,6,2,P|352:279|469:317,1,216.000008239746,2|0,3:2|0:2,0:1:0:0:
472,310,51349,1,2,0:2:0:0:
475,296,51435,5,10,0:2:0:0:
424,160,51607,1,2,0:2:0:0:
283,160,51778,2,2,B|246:167|217:194|217:194|242:25,1,216.000008239746,2|0,0:2|0:2,0:1:0:0:
156,91,52121,6,2,L|141:6,1,72.0000027465821,2|0,3:2|0:2,0:1:0:0:
316,74,52464,6,2,L|301:-11,1,72.0000027465821,2|0,0:2|0:2,0:1:0:0:
237,54,52807,5,10,0:2:0:0:
338,156,52978,1,2,0:2:0:0:
203,198,53149,2,2,L|175:356,1,144.000005493164,2|0,0:2|0:2,0:1:0:0:
155,137,53492,5,0,3:2:0:0:
205,22,53664,2,2,P|192:42|191:66,1,48,2|0,0:2|0:2,0:1:0:0:
267,165,53835,2,2,P|255:144|235:131,1,48,2|0,0:2|0:2,0:1:0:0:
270,60,54007,5,2,0:2:0:0:
203,198,54178,1,10,0:2:0:0:
315,304,54349,2,0,L|318:332,4,24,0|0|0|0|2,3:2|3:2|3:2|3:2|3:2,0:0:0:0:
445,211,54692,5,2,0:2:0:0:
447,230,54778,1,2,0:2:0:0:
449,249,54864,2,0,P|400:227|379:136,1,144.000005493164,2|2,3:2|0:2,0:0:0:0:
402,34,55378,1,2,0:2:0:0:
317,52,55549,2,0,L|319:22,10,18.0000006866455,10|0|0|0|0|0|0|0|0|0|0,0:2|0:2|0:2|0:2|0:2|0:2|0:2|0:2|0:2|0:2|0:2,0:0:0:0:
232,70,56064,2,0,L|234:28,1,36.0000013732911,0|0,3:2|0:2,0:0:0:0:
140,14,56235,6,0,P|130:65|186:144,1,144.000005493164,2|2,3:2|0:2,0:0:0:0:
280,182,56749,2,0,L|277:152,2,18.0000006866455,2|0|0,0:2|0:2|0:2,0:0:0:0:
331,257,56921,6,0,P|265:218|155:228,1,144.000005493164,10|0,0:2|0:2,0:0:0:0:
29,154,57264,2,2,P|94:211|124:366,1,216.000008239746,2|0,0:2|0:2,0:1:0:0:
68,384,57607,6,0,P|56:316|95:243,1,144.000005493164,2|2,3:2|0:2,0:0:0:0:
175,181,58121,1,2,0:2:0:0:
260,199,58292,2,0,L|258:169,10,18.0000006866455,10|0|0|0|0|0|0|0|0|0|0,0:2|0:2|0:2|0:2|0:2|0:2|0:2|0:2|0:2|0:2|0:2,0:0:0:0:
345,217,58807,2,0,L|342:175,1,36.0000013732911,0|0,3:2|0:2,0:0:0:0:
437,161,58978,6,0,P|447:212|391:291,2,144.000005493164,2|0|8,3:2|3:2|0:2,0:0:0:0:
406,296,60007,6,0,P|456:221|422:98,1,216.000008239746,10|0,0:2|0:2,0:0:0:0:
364,54,60349,6,0,P|322:76|244:63,1,105.600003222656,6|0,3:2|0:2,0:0:0:0:
311,273,60692,2,2,P|332:230|402:195,1,105.600003222656,10|0,0:2|0:2,0:1:0:0:
391,331,61035,1,2,0:2:0:0:
286,363,61207,1,0,3:2:0:0:
206,305,61378,6,2,B|168:300|130:322|130:322|156:173,1,211.200006445313,10|2,0:2|3:2,0:1:0:0:
308,163,61892,1,0,3:2:0:0:
379,21,62064,2,2,P|426:55|501:46,1,105.600003222656,10|0,0:2|0:2,0:1:0:0:
314,79,62407,5,2,0:2:0:0:
430,186,62578,1,0,3:2:0:0:
425,170,62664,2,0,L|412:126,2,26.4000008056641,0|0|8,3:2|3:2|0:2,0:0:0:0:
426,328,62921,1,0,3:2:0:0:
498,125,63092,6,2,P|456:78|338:60,1,144.000005493164,2|0,3:2|0:2,0:1:0:0:
337,252,63435,1,10,0:2:0:0:
211,94,63607,2,2,B|155:107|130:159|130:159|141:51,1,211.200006445313,2|0,3:2|3:2,0:1:0:0:
281,129,64121,1,8,0:2:0:0:
177,248,64292,1,0,3:2:0:0:
41,165,64464,5,10,0:2:0:0:
238,195,64635,1,0,3:2:0:0:
99,339,64807,1,8,0:2:0:0:
294,301,64978,1,0,3:2:0:0:
163,149,65149,5,8,0:2:0:0:
174,113,65235,1,8,0:2:0:0:
199,88,65321,1,0,3:2:0:0:
235,78,65407,1,0,3:2:0:0:
271,87,65492,1,8,2:1:0:0:
81,56,65664,1,0,0:2:0:0:
20,235,65835,6,0,P|58:310|148:339,1,158.400004833985,6|0,3:2|0:2,0:0:0:0:
235,376,66178,2,0,P|239:327|195:306,1,105.600003222656,2|0,3:2|0:2,0:0:0:0:
325,211,66521,6,0,P|376:199|446:233,1,105.600003222656,2|0,3:2|0:2,0:0:0:0:
433,373,66864,1,0,3:2:0:0:
294,297,67035,2,0,B|243:262|246:201|246:201|196:145,1,158.400004833985,2|0,0:2|0:2,0:0:0:0:
138,149,67378,2,0,L|89:41,1,105.600003222656,2|0,0:2|3:2,0:0:0:0:
230,33,67721,1,2,0:2:0:0:
327,129,67892,2,0,P|327:182|266:240,1,105.600003222656,2|0,3:2|0:2,0:0:0:0:
388,354,68235,5,2,3:2:0:0:
485,228,68407,1,2,3:2:0:0:
409,89,68578,2,0,P|347:108|246:62,1,158.400004833985,2|0,3:2|0:2,0:0:0:0:
205,21,68921,2,0,P|200:72|150:58,1,105.600003222656,2|0,3:2|0:2,0:0:0:0:
41,297,69264,6,0,P|42:244|66:198,1,105.600003222656,2|0,3:2|0:2,0:0:0:0:
80,39,69607,1,2,3:2:0:0:
210,128,69778,2,0,P|306:125|363:68,1,158.400004833985,2|0,0:2|0:2,0:0:0:0:
384,15,70121,1,2,0:2:0:0:
328,163,70292,2,0,P|373:184|414:255,1,105.600003222656,2|0,3:2|0:2,0:0:0:0:
340,365,70635,6,0,P|318:379|263:379,1,52.8000016113282,2|0,3:2|0:2,0:0:0:0:
284,240,70807,2,0,P|310:241|354:273,1,52.8000016113282,2|0,0:2|0:2,0:0:0:0:
292,312,70978,1,2,3:2:0:0:
292,312,71149,6,0,B|241:315|241:315|196:276|132:276|132:276|107:236,1,216.000008239746,6|0,3:2|0:2,0:0:0:0:
110,164,71492,1,2,3:2:0:0:
249,202,71664,2,0,P|311:194|403:59,1,216.000008239746,8|0,0:2|0:2,0:0:0:0:
396,8,72007,5,2,3:2:0:0:
469,131,72178,1,0,3:2:0:0:
449,273,72349,1,8,0:2:0:0:
315,328,72521,6,0,B|318:356|346:375|346:375|326:334|324:262|366:214,1,216.000008239746,2|0,3:2|0:2,0:0:0:0:
423,194,72864,1,0,3:2:0:0:
251,233,73035,1,8,0:2:0:0:
366,110,73207,2,0,L|375:78,6,24,2|0|0|0|0|0|0,3:2|0:2|0:2|0:2|0:2|0:2|0:2,0:0:0:0:
283,121,73549,5,0,3:2:0:0:
283,121,73635,1,0,3:2:0:0:
283,121,73721,2,0,L|109:101,1,144.000005493164,8|0,2:1|0:2,0:0:0:0:
56,200,74064,6,0,P|112:189|161:216,1,115.199996484375,6|0,3:2|0:2,0:0:0:0:
175,233,74321,1,2,0:2:0:0:
180,253,74407,1,10,0:2:0:0:
276,364,74578,2,0,P|278:279|425:205,1,216.000008239746,2|0,0:2|0:2,0:0:0:0:
396,201,74921,1,2,3:2:0:0:
472,284,75092,1,10,0:2:0:0:
460,112,75264,5,2,0:2:0:0:
477,123,75349,1,2,0:2:0:0:
495,134,75435,1,0,3:2:0:0:
380,53,75607,1,2,0:2:0:0:
295,119,75778,1,10,0:2:0:0:
201,70,75949,5,2,0:2:0:0:
201,70,76035,2,0,B|160:81|141:128|141:128|66:0,1,216.000008239746,10|0,0:2|3:2,0:0:0:0:
16,155,76464,2,0,P|61:212|155:210,1,144.000005493164,8|2,0:2|0:2,0:0:0:0:
261,257,76807,6,0,P|252:198|202:151,1,115.199996484375,2|0,3:2|0:2,0:0:0:0:
152,328,77149,1,10,0:2:0:0:
350,361,77321,2,0,B|393:326|442:359|442:359|505:337|505:337|515:263,1,216.000008239746,2|0,0:2|0:2,0:0:0:0:
505,267,77664,1,2,3:2:0:0:
342,210,77835,1,10,0:2:0:0:
479,149,78007,5,2,0:2:0:0:
483,128,78092,1,10,0:2:0:0:
488,106,78178,1,0,3:2:0:0:
353,56,78349,1,2,0:2:0:0:
247,155,78521,1,8,0:2:0:0:
112,105,78692,1,2,3:2:0:0:
50,222,78864,6,0,P|58:282|108:320,1,115.199996484375,2|0,0:2|3:2,0:0:0:0:
330,362,79207,2,0,P|342:320|301:259,1,72.0000027465821,8|0,0:2|0:2,0:0:0:0:
198,325,79378,2,0,P|212:366|282:391,1,72.0000027465821,0|0,3:2|0:2,0:0:0:0:
270,322,79549,6,0,P|276:268|224:197,1,115.199996484375,6|0,3:2|0:2,0:0:0:0:
224,78,79892,1,10,0:2:0:0:
351,22,80064,2,0,P|377:69|461:96,1,115.199996484375,2|0,0:2|0:2,0:0:0:0:
478,226,80407,1,0,3:2:0:0:
333,329,80578,6,0,P|271:301|155:339,1,144.000005493164,8|0,0:2|0:2,0:0:0:0:
177,318,80835,1,2,0:2:0:0:
161,333,80921,1,2,3:2:0:0:
330,177,81092,1,2,0:2:0:0:
127,66,81264,2,0,P|76:125|82:236,1,144.000005493164,10|0,0:2|0:2,0:0:0:0:
91,256,81521,1,10,0:2:0:0:
148,299,81607,6,0,P|223:281|284:187,1,144.000005493164,2|0,0:2|3:2,0:0:0:0:
323,101,81949,2,0,P|385:69|456:76,1,144.000005493164,10|0,0:2|0:2,0:0:0:0:
403,295,82292,6,0,P|396:233|445:161,1,115.199996484375,2|0,3:2|0:2,0:0:0:0:
479,309,82635,1,10,0:2:0:0:
346,350,82807,2,0,B|300:347|280:382|280:382|219:349|241:277,1,172.799994726563,2|0,0:2|0:2,0:0:0:0:
241,284,83149,1,2,3:2:0:0:
130,373,83321,1,10,0:2:0:0:
90,131,83492,6,0,P|72:109|8:110,1,72.0000027465821,2|10,0:2|0:2,0:0:0:0:
30,173,83664,2,0,P|50:223|168:253,1,144.000005493164,0|0,3:2|0:2,0:0:0:0:
191,227,83921,1,2,0:2:0:0:
198,155,84007,2,0,B|180:121|198:92|198:92|233:120|230:170,1,144.000005493164,10|0,0:2|3:2,0:0:0:0:
442,171,84349,6,0,P|417:234|324:271,1,144.000005493164,2|0,0:2|3:2,0:0:0:0:
333,260,84564,2,0,L|316:212,3,36.0000013732911,0|0|0|8,3:2|3:2|3:2|2:2,0:0:0:0:
484,301,84864,1,0,3:2:0:0:
424,140,85035,6,0,P|377:131|293:176,1,115.199996484375,6|0,3:2|0:2,0:0:0:0:
295,165,85292,1,2,0:2:0:0:
282,184,85378,1,10,0:2:0:0:
177,65,85549,2,0,B|191:39|175:9|175:9|145:36|140:74|140:74|161:116|129:157,1,216.000008239746,2|0,0:2|0:2,0:0:0:0:
116,165,85892,1,2,3:2:0:0:
24,341,86064,2,0,B|41:377|41:377|37:323|75:281,1,144.000005493164,10|0,0:2|0:2,0:0:0:0:
135,241,86321,1,2,0:2:0:0:
201,273,86407,6,0,P|266:288|356:211,1,144.000005493164,0|0,3:2|0:2,0:0:0:0:
393,140,86749,1,10,2:2:0:0:
489,227,86921,1,2,0:2:0:0:
328,354,87092,6,0,P|295:339|281:306,1,72.0000027465821,2|0,0:2|0:2,0:0:0:0:
405,243,87264,2,0,P|421:274|415:308,1,72.0000027465821,2|0,3:2|0:2,0:0:0:0:
348,284,87435,1,8,0:2:0:0:
319,142,87607,1,2,0:2:0:0:
442,178,87778,6,0,P|434:129|484:52,1,115.199996484375,2|0,3:2|0:2,0:0:0:0:
477,55,88035,1,2,0:2:0:0:
499,48,88121,1,8,0:2:0:0:
243,79,88292,6,0,P|310:83|375:-2,1,144.000005493164,2|0,3:2|0:2,0:0:0:0:
87,24,88635,1,2,3:2:0:0:
16,168,88807,1,8,0:2:0:0:
161,75,88978,1,0,3:2:0:0:
286,189,89149,5,8,0:2:0:0:
67,252,89321,1,0,3:2:0:0:
326,354,89492,1,8,0:2:0:0:
103,340,89664,1,0,3:2:0:0:
206,144,89835,5,8,0:2:0:0:
208,115,89921,1,8,0:2:0:0:
200,87,90007,1,0,3:2:0:0:
180,65,90092,1,0,3:2:0:0:
226,82,90178,5,8,0:2:0:0:
276,80,90264,1,0,3:2:0:0:
322,59,90349,1,0,3:2:0:0:
355,22,90435,1,0,3:2:0:0:
372,59,90521,6,0,P|399:88|488:83,1,115.199996484375,4|0,3:2|0:2,0:0:0:0:
437,197,90778,1,2,0:2:0:0:
431,213,90864,2,0,P|437:252|515:296,1,115.199996484375,10|0,3:2|0:2,0:0:0:0:
353,374,91207,5,2,3:2:0:0:
271,277,91378,2,0,L|209:261,2,57.5999982421876,2|2|8,0:2|0:2|3:2,0:0:0:0:
314,157,91721,2,0,P|336:113|295:20,1,115.199996484375,2|0,0:2|3:2,0:0:0:0:
197,105,92064,1,2,0:2:0:0:
79,36,92235,1,10,3:2:0:0:
0,222,92407,5,2,0:2:0:0:
6,231,92492,1,2,0:2:0:0:
12,240,92578,2,0,P|63:246|123:185,1,115.199996484375,2|0,3:2|0:2,0:0:0:0:
187,79,92921,1,10,3:2:0:0:
335,59,93092,1,2,0:2:0:0:
476,240,93264,5,2,3:2:0:0:
351,180,93435,1,2,0:2:0:0:
363,41,93607,2,0,P|328:10|229:15,1,115.199996484375,10|0,3:2|0:2,0:0:0:0:
288,244,93949,2,0,P|241:248|177:324,1,115.199996484375,2|0,3:2|0:2,0:0:0:0:
36,88,94292,5,10,3:2:0:0:
64,220,94464,1,2,0:2:0:0:
84,229,94549,1,2,0:2:0:0:
106,225,94635,1,0,3:2:0:0:
145,52,94807,5,2,0:2:0:0:
212,202,94978,2,0,P|247:172|254:81,1,115.199996484375,10|0,3:2|0:2,0:0:0:0:
393,124,95321,2,0,P|402:78|353:2,1,115.199996484375,2|0,3:2|0:2,0:0:0:0:
503,182,95664,5,10,0:2:0:0:
467,200,95749,1,2,0:2:0:0:
445,233,95835,1,2,0:2:0:0:
441,272,95921,1,2,0:2:0:0:
458,309,96007,6,0,P|408:334|317:310,1,115.199996484375,6|0,3:2|0:2,0:0:0:0:
295,261,96264,1,2,0:2:0:0:
280,251,96349,2,0,P|330:226|421:250,1,115.199996484375,10|0,3:2|0:2,0:0:0:0:
350,329,96692,5,2,3:2:0:0:
196,355,96864,1,2,0:2:0:0:
202,333,96949,1,2,0:2:0:0:
209,311,97035,1,8,3:2:0:0:
73,378,97207,1,2,0:2:0:0:
7,184,97378,6,0,P|58:188|112:262,1,115.199996484375,6|0,3:2|0:2,0:0:0:0:
340,290,97721,2,0,P|287:311|233:296,1,115.199996484375,10|0,3:2|0:2,0:0:0:0:
213,285,97978,1,2,0:2:0:0:
197,268,98064,5,2,3:2:0:0:
161,144,98235,1,2,0:2:0:0:
281,207,98407,1,10,3:2:0:0:
304,73,98578,1,2,0:2:0:0:
415,142,98749,6,0,P|433:121|459:108,1,57.5999982421876,6|0,3:2|2:2,0:0:0:0:
459,108,99092,6,0,P|435:134|422:168,1,72.0000027465821,6|4,3:2|2:2,0:0:0:0:
422,168,99435,6,0,P|452:133|493:112,1,86.3999973632813,6|4,3:2|2:2,0:0:0:0:
487,114,99778,6,0,P|452:150|433:196,1,100.799996923828,6|4,3:2|2:2,0:0:0:0:
433,196,100121,5,4,3:2:0:0:
379,256,100292,2,0,L|388:302,2,36.0000013732911,2|0|0,0:2|0:2|0:2,0:0:0:0:
299,247,100635,1,2,0:2:0:0:
249,185,100807,2,0,B|232:170|199:176|199:176|187:124|134:116|134:116|145:58|188:36|188:36|200:57|196:76,1,288.000010986329,8|8,0:1|0:2,0:0:0:0:
196,74,101492,6,0,L|179:177,1,96,6|0,3:2|0:2,0:0:0:0:
44,247,101835,1,10,0:2:0:0:
94,165,102007,2,0,L|130:253,1,96,2|0,0:2|0:2,0:0:0:0:
276,206,102349,5,2,3:2:0:0:
180,168,102521,1,10,0:2:0:0:
290,226,102692,1,2,0:2:0:0:
247,88,102864,6,0,P|212:63|145:64,1,96,2|0,3:2|0:2,0:0:0:0:
290,226,103207,1,8,0:2:0:0:
370,149,103378,1,0,0:2:0:0:
468,333,103549,5,2,0:2:0:0:
409,229,103721,1,2,3:2:0:0:
290,226,103892,1,10,2:2:0:0:
227,328,104064,1,2,2:2:0:0:
158,232,104235,6,0,B|142:182|142:182|193:129|174:51,1,192,2|8,3:2|0:2,0:0:0:0:
55,0,104749,2,0,L|34:101,1,96,2|0,0:2|0:2,0:0:0:0:
16,241,105092,5,2,3:2:0:0:
163,159,105264,2,0,L|271:129,1,96,10|0,0:2|0:2,0:0:0:0:
327,47,105607,2,0,P|278:46|219:18,1,96,2|0,3:2|0:2,0:0:0:0:
290,231,105949,2,0,P|319:194|359:169,1,96,10|0,0:2|3:2,0:0:0:0:
512,218,106292,5,2,0:2:0:0:
398,256,106464,5,0,3:2:0:0:
360,169,106635,1,8,0:2:0:0:
405,73,106807,1,0,0:2:0:0:
498,61,106978,5,2,3:2:0:0:
411,93,107149,5,0,0:2:0:0:
320,69,107321,1,8,0:2:0:0:
254,12,107492,1,0,0:2:0:0:
135,63,107664,5,2,0:2:0:0:
243,29,107835,5,0,3:2:0:0:
310,84,108007,1,8,0:2:0:0:
335,175,108178,1,0,0:2:0:0:
262,281,108349,5,2,3:2:0:0:
195,159,108521,5,0,0:2:0:0:
111,135,108692,1,8,0:2:0:0:
38,182,108864,1,0,0:2:0:0:
50,295,109035,5,2,0:2:0:0:
57,195,109207,5,0,3:2:0:0:
117,115,109378,1,8,0:2:0:0:
223,74,109549,1,0,0:2:0:0:
337,152,109721,6,0,P|397:170|504:106,1,192,2|8,3:2|0:2,0:0:0:0:
446,200,110235,2,0,L|428:312,1,96,2|0,0:2|0:2,0:0:0:0:
284,364,110578,5,2,3:2:0:0:
268,269,110749,1,10,0:2:0:0:
284,364,110921,2,0,L|268:269,1,96,2|0,0:2|3:2,0:0:0:0:
129,321,111264,5,2,0:2:0:0:
145,226,111435,1,10,0:2:0:0:
129,321,111607,2,0,L|145:226,1,96,2|0,3:2|0:2,0:0:0:0:
213,100,111949,5,10,0:2:0:0:
248,189,112121,1,2,3:2:0:0:
272,25,112292,1,10,0:2:0:0:
120,87,112464,6,0,L|15:74,1,96,6|0,0:2|0:2,0:0:0:0:
144,226,112807,1,10,0:2:0:0:
248,189,112978,2,0,L|353:176,1,96,2|0,0:2|0:2,0:0:0:0:
497,230,113321,5,2,3:2:0:0:
440,105,113492,1,10,0:2:0:0:
489,253,113664,1,2,0:2:0:0:
343,177,113835,6,0,B|295:159|246:191|246:191|192:194|167:138,1,192,2|8,3:2|0:2,0:0:0:0:
197,50,114349,1,0,0:2:0:0:
90,19,114521,5,2,0:2:0:0:
57,159,114692,1,2,3:2:0:0:
188,258,114864,1,10,0:2:0:0:
343,177,115035,1,2,0:2:0:0:
443,297,115207,6,0,B|422:261|376:266|376:266|317:285|272:239,1,192,2|8,3:2|0:2,0:0:0:0:
315,93,115721,2,0,P|343:130|343:177,1,96,2|0,0:2|0:2,0:0:0:0:
157,169,116064,5,2,3:2:0:0:
183,84,116235,1,10,0:2:0:0:
157,169,116407,2,0,P|155:121|184:84,1,96,2|0,0:2|3:2,0:0:0:0:
272,239,116749,2,0,P|273:286|244:323,1,96,2|8,0:2|0:2,0:0:0:0:
157,169,117092,1,0,3:2:0:0:
184,84,117264,5,2,0:2:0:0:
83,212,117435,5,0,3:2:0:0:
157,169,117607,1,8,0:2:0:0:
243,165,117778,1,0,3:2:0:0:
350,209,117949,5,2,3:2:0:0:
243,314,118121,5,0,0:2:0:0:
182,253,118292,1,8,0:2:0:0:
100,227,118464,1,0,0:2:0:0:
0,252,118635,5,2,0:2:0:0:
77,383,118807,5,0,3:2:0:0:
113,305,118978,1,8,0:2:0:0:
182,253,119149,1,0,0:2:0:0:
302,231,119321,5,2,3:2:0:0:
309,364,119492,5,0,0:2:0:0:
232,322,119664,1,8,0:2:0:0:
182,253,119835,1,0,0:2:0:0:
196,145,120007,5,2,0:2:0:0:
388,124,120178,5,0,3:2:0:0:
302,231,120349,1,8,0:2:0:0:
196,145,120521,1,0,0:2:0:0:
279,21,120692,6,0,B|327:21|327:21|300:61,1,96,2|0,3:2|0:2,0:0:0:0:
93,95,121035,2,0,B|46:95|46:95|72:53,1,96,10|0,0:2|0:2,0:0:0:0:
300,61,121378,6,0,B|347:73|347:73|311:105,1,96,2|0,3:2|0:2,0:0:0:0:
103,139,121721,2,0,B|57:127|57:127|93:95,1,96,10|0,0:2|0:2,0:0:0:0:
93,94,121978,1,2,0:2:0:0:
93,94,122064,1,2,0:2:0:0:
222,170,122235,5,2,3:2:0:0:
173,56,122407,1,10,0:2:0:0:
100,230,122578,2,0,B|111:261|106:288|106:288|117:266|130:259,1,96,2|0,3:2|0:2,0:0:0:0:
416,232,122921,5,0,3:2:0:0:
290,370,123092,2,0,B|275:328|275:328|299:292|294:224,1,144.000005493164,8|0,0:1|3:2,0:0:0:0:
232,97,123435,6,0,L|116:125,1,105.600003222656,6|0,3:2|0:2,0:0:0:0:
312,18,123778,2,0,L|497:62,1,158.400004833985,10|0,0:2|0:2,0:0:0:0:
498,121,124121,2,0,P|461:161|451:232,1,105.600003222656,2|0,0:2|3:2,0:0:0:0:
410,332,124464,1,10,0:2:0:0:
291,292,124635,5,2,0:2:0:0:
286,282,124721,1,2,0:2:0:0:
281,272,124807,2,0,P|327:253|399:264,1,105.600003222656,0|0,3:2|0:2,0:0:0:0:
188,307,125149,1,8,0:2:0:0:
212,214,125321,1,0,0:2:0:0:
106,326,125492,1,2,0:2:0:0:
187,228,125664,1,0,3:2:0:0:
33,283,125835,1,8,0:2:0:0:
157,228,126007,1,0,0:2:0:0:
73,77,126178,6,0,P|42:118|48:199,1,105.600003222656,2|0,3:2|0:2,0:0:0:0:
202,107,126521,2,0,P|203:158|259:217,1,105.600003222656,10|0,0:2|0:2,0:0:0:0:
248,208,126778,1,2,0:2:0:0:
263,210,126864,1,2,0:2:0:0:
385,149,127035,1,0,3:2:0:0:
486,242,127207,1,8,0:2:0:0:
385,149,127378,6,0,L|392:96,2,52.8000016113282,2|2|0,0:2|0:2|3:2,0:0:0:0:
343,269,127721,1,2,0:2:0:0:
224,313,127892,1,10,0:2:0:0:
106,265,128064,1,2,3:2:0:0:
254,202,128235,5,2,0:2:0:0:
79,170,128407,2,0,L|75:128,2,26.4000008056641,2|0|0,3:2|3:2|3:2,0:0:0:0:
188,129,128578,1,8,0:2:0:0:
20,72,128749,1,2,3:2:0:0:
148,6,128921,6,0,P|207:50|321:45,1,158.400004833985,0|0,3:2|0:2,0:0:0:0:
346,12,129264,1,10,0:2:0:0:
453,136,129435,2,0,B|394:149|394:149|373:209|373:209|415:237|410:283,1,211.200006445313,2|0,2:2|3:2,0:0:0:0:
308,358,129949,1,10,0:2:0:0:
483,330,130121,5,2,0:2:0:0:
483,330,130207,1,2,0:2:0:0:
483,330,130292,2,0,P|445:364|358:340,1,105.600003222656,0|0,3:2|0:2,0:0:0:0:
179,252,130635,2,0,P|229:254|282:181,1,105.600003222656,10|0,0:2|0:2,0:0:0:0:
406,144,130978,2,0,P|364:113|370:23,1,105.600003222656,2|0,0:2|3:2,0:0:0:0:
355,52,131235,1,0,3:2:0:0:
360,42,131321,1,10,0:2:0:0:
479,105,131492,1,0,0:2:0:0:
465,247,131664,6,0,B|427:263|384:245|384:245|357:280|357:280|304:300,1,158.400004833985,2|0,3:2|0:2,0:0:0:0:
273,239,132007,1,10,0:2:0:0:
148,127,132178,2,0,B|204:132|237:171|237:171|278:125|340:135,1,211.200006445313,2|0,3:2|3:2,0:0:0:0:
215,29,132692,5,8,0:2:0:0:
68,91,132864,1,0,3:2:0:0:
254,107,133035,5,8,0:2:0:0:
100,176,133207,1,0,3:2:0:0:
313,179,133378,5,8,0:2:0:0:
84,277,133549,1,0,3:2:0:0:
217,187,133721,5,8,0:2:0:0:
224,212,133807,1,8,0:2:0:0:
230,237,133892,1,2,3:2:0:0:
263,353,134064,2,0,L|270:379,6,26.4000008056641,2|0|0|0|0|0|0,3:2|0:2|0:2|0:2|0:2|0:2|0:2,0:0:0:0:
242,277,134407,6,0,P|256:219|319:176,1,105.600003222656,6|0,3:2|0:2,0:0:0:0:
410,155,134749,1,10,3:2:0:0:
321,63,134921,1,2,0:2:0:0:
456,84,135092,2,0,P|486:137|479:192,1,105.600003222656,2|0,3:2|0:2,0:0:0:0:
359,263,135435,1,10,3:2:0:0:
232,184,135607,5,2,0:2:0:0:
229,168,135692,1,2,0:2:0:0:
227,152,135778,2,0,P|250:103|230:29,1,105.600003222656,2|0,3:2|0:2,0:0:0:0:
121,19,136121,1,10,3:2:0:0:
132,144,136292,1,2,0:2:0:0:
211,243,136464,2,0,P|255:264|340:228,1,105.600003222656,2|0,3:2|0:2,0:0:0:0:
319,242,136721,1,2,0:2:0:0:
329,230,136807,2,0,L|440:251,1,105.600003222656,10|0,3:2|0:2,0:0:0:0:
391,79,137149,6,0,P|445:145|464:62,1,211.200006445313,2|8,3:2|3:2,0:0:0:0:
332,18,137664,1,2,0:2:0:0:
319,154,137835,5,2,3:2:0:0:
226,283,138007,1,2,0:2:0:0:
244,117,138178,1,10,3:2:0:0:
108,14,138349,1,2,0:2:0:0:
75,201,138521,6,0,P|119:195|168:145,1,105.600003222656,2|0,3:2|0:2,0:0:0:0:
165,139,138778,1,2,0:2:0:0:
163,123,138864,1,10,3:2:0:0:
290,248,139035,1,2,0:2:0:0:
90,229,139207,6,0,P|87:155|153:56,1,158.400004833985,2|0,3:2|0:2,0:0:0:0:
187,46,139549,1,10,3:2:0:0:
350,93,139721,5,2,0:2:0:0:
353,108,139807,1,2,0:2:0:0:
356,123,139892,2,0,L|385:253,1,105.600003222656,0|0,3:2|0:2,0:0:0:0:
184,124,140235,2,0,L|213:254,1,105.600003222656,10|0,3:2|0:2,0:0:0:0:
359,138,140578,6,0,L|426:252,1,105.600003222656,2|0,3:2|0:2,0:0:0:0:
187,139,140921,2,0,L|254:253,1,105.600003222656,10|0,3:2|0:2,0:0:0:0:
362,153,141264,6,0,L|461:241,1,105.600003222656,2|0,3:2|0:2,0:0:0:0:
190,154,141607,2,0,L|289:242,1,105.600003222656,10|0,3:2|0:2,0:0:0:0:
293,244,141864,1,2,0:2:0:0:
316,264,141949,5,2,3:2:0:0:
195,305,142121,1,2,0:2:0:0:
83,244,142292,1,10,3:2:0:0:
43,123,142464,1,2,0:2:0:0:
94,7,142635,5,2,3:2:0:0:
136,172,142807,1,2,0:2:0:0:
172,28,142978,5,10,3:2:0:0:
246,170,143149,1,2,0:2:0:0:
245,22,143321,5,2,3:2:0:0:
399,114,143492,2,0,P|417:78|408:34,1,52.8000016113282,2|0,0:2|0:2,0:0:0:0:
343,61,143664,5,10,3:2:0:0:
485,4,143835,1,2,0:2:0:0:
343,61,144007,6,0,L|286:83,1,52.8000016113282,2|0,1:2|1:2,0:0:0:0:
339,146,144178,2,0,L|282:168,1,52.8000016113282,2|0,1:2|1:2,0:0:0:0:
335,231,144349,2,0,L|278:253,1,52.8000016113282,2|0,1:2|1:2,0:0:0:0:
331,316,144521,2,0,L|274:338,1,52.8000016113282,2|0,1:2|1:2,0:0:0:0:
206,369,144692,6,0,B|177:328|103:315|56:323|16:348|16:348|47:299|96:300,1,288.000010986329,8|2,0:1|0:2,0:0:0:0:
79,301,145378,6,0,P|154:289|85:238,1,192,2|2,3:2|0:2,0:0:0:0:
99,231,146578,6,0,L|48:215,1,36.0000013732911,0|0,3:2|3:2,0:0:0:0:
102,216,146664,2,0,L|51:200,1,36.0000013732911,0|0,3:2|3:2,0:0:0:0:
105,200,146749,6,0,P|161:140|242:155,1,172.799994726563,6|0,3:2|0:2,0:0:0:0:
226,227,147092,2,2,B|215:256|215:256|230:310,1,76.8,2|0,0:2|0:2,0:1:0:0:
475,163,147435,6,0,P|439:105|317:112,1,187.199991430664,10|0,0:2|0:2,0:0:0:0:
332,176,147778,2,2,B|342:200|342:200|335:255,1,67.1999979492188,2|0,0:2|0:2,0:1:0:0:
150,146,148121,6,2,L|141:51,1,86.3999973632813,2|0,3:2|0:2,0:1:0:0:
165,137,148464,2,2,L|159:71,1,67.1999979492188,2|0,0:2|0:2,0:1:0:0:
40,250,148807,5,8,0:2:0:0:
4,84,148978,1,2,0:2:0:0:
165,137,149149,2,0,L|211:129,1,36.0000013732911,0|0,3:2|3:2,0:0:0:0:
160,158,149235,2,0,L|206:150,1,36.0000013732911,0|0,3:2|3:2,0:0:0:0:
156,180,149321,2,0,L|140:247,2,57.5999982421876,2|0|0,3:2|3:2|3:2,0:0:0:0:
250,314,149664,6,2,B|224:323|224:323|205:314,1,48,2|0,0:2|0:2,0:1:0:0:
266,186,149835,2,2,B|292:177|292:177|332:196,1,48,2|0,3:2|0:2,0:1:0:0:
432,332,150007,5,2,0:2:0:0:
323,274,150178,1,8,0:2:0:0:
408,198,150349,2,0,L|412:169,1,24,2|2,0:2|0:2,0:0:0:0:
420,201,150435,2,0,L|424:172,1,24,2|2,0:2|0:2,0:0:0:0:
432,204,150521,1,2,0:2:0:0:
374,73,150692,5,2,0:2:0:0:
357,64,150778,1,2,0:2:0:0:
340,55,150864,2,0,B|255:65|293:99|208:111,1,144.000005493164,6|2,3:2|3:2,0:0:0:0:
90,81,151378,1,2,0:2:0:0:
165,45,151549,2,0,L|170:12,10,18.0000006866455,10|0|0|0|0|0|0|0|0|0|0,0:2|0:2|0:2|0:2|0:2|0:2|0:2|0:2|0:2|0:2|0:2,0:0:0:0:
210,111,152064,2,0,L|206:154,1,36.0000013732911,0|0,3:2|0:2,0:0:0:0:
123,193,152235,6,0,P|65:188|41:271,1,144,2|0,3:2|0:2,0:0:0:0:
40,271,152578,2,0,P|78:297|124:290,1,96,2|0,3:2|0:2,0:0:0:0:
193,238,152835,1,2,0:2:0:0:
213,230,152921,6,0,B|327:235|280:311|403:315,1,216.000008239746,10|0,0:2|0:2,0:0:0:0:
489,322,153264,2,0,B|433:341|433:341|362:306|414:184,1,216.000008239746,2|0,0:2|0:2,0:2:0:0:
478,163,153607,6,0,B|506:109|506:109|463:28,1,144.000005493164,2|0,3:2|3:2,0:0:0:0:
323,91,154121,1,2,0:2:0:0:
385,31,154292,2,0,L|387:1,10,18.0000006866455,10|0|0|0|0|0|0|0|0|0|0,0:2|0:2|0:2|0:2|0:2|0:2|0:2|0:2|0:2|0:2|0:2,0:0:0:0:
323,91,154807,2,0,L|326:133,1,36.0000013732911,0|0,3:2|0:2,0:0:0:0:
251,47,154978,6,0,B|180:27|178:82|109:64,2,144.000005493164,2|0|8,3:2|3:2|0:2,0:0:0:0:
251,47,156007,6,0,P|293:126|195:191,1,216.000008239746,10|0,0:2|0:2,0:0:0:0:
129,146,156349,6,0,P|83:130|28:160,1,105.600003222656,6|0,3:2|0:2,0:0:0:0:
31,231,156607,1,2,0:2:0:0:
37,245,156692,2,2,P|83:261|138:231,1,105.600003222656,10|0,0:2|0:2,0:1:0:0:
251,47,157035,5,2,0:2:0:0:
207,193,157207,1,0,3:2:0:0:
385,144,157378,2,2,P|339:122|290:138,1,105.600003222656,10|0,0:2|0:2,0:1:0:0:
251,339,157721,5,2,3:2:0:0:
207,193,157892,1,0,3:2:0:0:
385,241,158064,2,2,P|338:263|289:247,1,105.600003222656,10|0,0:2|0:2,0:1:0:0:
251,47,158407,5,2,3:2:0:0:
385,144,158578,1,0,0:2:0:0:
400,148,158664,2,0,L|415:104,2,26.4000008056641,0|0|8,3:2|3:2|0:2,0:0:0:0:
289,247,158921,1,0,3:2:0:0:
99,90,159092,6,2,B|133:99|169:82|169:82|180:117|218:131,1,144.000005493164,2|0,3:2|0:2,0:1:0:0:
389,40,159435,1,10,0:2:0:0:
389,40,159607,1,2,3:2:0:0:
218,131,159778,6,2,B|180:116|169:81|169:81|133:98|100:92,1,115.199996484375,2|0,0:2|3:2,0:1:0:0:
58,26,160121,5,8,0:2:0:0:
243,53,160292,1,0,3:2:0:0:
62,146,160464,5,8,0:2:0:0:
218,131,160635,1,0,3:2:0:0:
104,261,160807,5,8,0:2:0:0:
229,213,160978,1,0,3:2:0:0:
155,350,161149,5,8,0:2:0:0:
171,318,161235,1,8,0:2:0:0:
189,289,161321,1,0,3:2:0:0:
219,305,161407,1,0,3:2:0:0:
248,321,161492,1,8,0:2:0:0:
150,189,161664,1,0,3:2:0:0:
155,350,161835,6,0,P|212:386|239:305,1,158.400004833985,6|0,3:2|0:2,0:0:0:0:
263,243,162178,2,0,P|297:205|354:209,1,105.600003222656,2|0,3:2|0:2,0:0:0:0:
188,92,162521,2,0,P|153:53|102:54,1,105.600003222656,2|0,3:2|0:2,0:0:0:0:
0,147,162864,5,2,3:2:0:0:
146,205,163035,2,0,B|176:178|176:178|246:181|268:121,1,158.400004833985,2|0,0:2|2:2,0:0:0:0:
322,198,163378,2,0,L|326:321,1,105.600003222656,2|0,0:2|3:2,0:0:0:0:
499,197,163721,1,2,0:2:0:0:
499,197,163807,1,2,0:2:0:0:
499,197,163892,2,0,P|451:173|382:176,1,105.600003222656,0|0,3:2|0:2,0:0:0:0:
244,252,164235,5,0,3:2:0:0:
399,171,164407,1,0,3:2:0:0:
251,75,164578,6,0,B|163:59|176:113|91:86,1,158.400004833985,2|0,3:2|0:2,0:0:0:0:
23,37,164921,2,0,P|74:43|97:88,1,105.600003222656,2|0,3:2|0:2,0:0:0:0:
1,280,165264,6,0,P|-18:233|8:190,1,105.600003222656,2|0,3:2|0:2,0:0:0:0:
171,122,165607,1,2,3:2:0:0:
178,305,165778,1,2,0:2:0:0:
178,305,165864,1,2,0:2:0:0:
178,305,165949,2,0,P|147:345|96:343,1,105.600003222656,0|0,3:2|0:2,0:0:0:0:
163,212,166292,6,0,P|190:170|172:123,1,105.600003222656,2|0,3:2|0:2,0:0:0:0:
9,35,166635,2,0,P|59:42|82:87,1,105.600003222656,2|0,3:2|0:2,0:0:0:0:
1,280,166978,5,2,3:2:0:0:
171,122,167149,2,0,B|206:103|261:104|261:104|366:61|290:-59|186:23|261:104|261:104|349:116|380:215|334:280|334:280|337:234|305:185|204:185|177:267|204:343|286:338,1,864.000032958986,6|2,3:2|0:2,0:0:0:0:
271,338,169721,6,0,B|228:313|190:321|190:321|159:343|159:343|106:361|73:318,1,216.000008239746,8|0,0:1|0:2,0:0:0:0:
14,241,170064,6,0,B|51:191|111:206|111:206|187:215|260:133|202:-7|50:47|62:154|101:203|101:203|215:250|178:347|124:353|79:327|83:283,1,739.199977441407,14|2,0:2|0:2,0:0:0:0:
83,282,172292,5,2,0:2:0:0:
160,310,172464,5,2,0:2:0:0:
244,274,172635,5,2,0:2:0:0:
311,334,172807,6,0,B|369:341|397:320|425:273|428:235|428:235|413:182|366:166|366:166|377:217|428:235|428:235|463:243|490:224|490:224|508:206|477:112|399:72|334:94|334:94|338:47|293:16,1,739.199977441407,2|2,0:2|0:2,0:0:0:0:
240,7,174864,5,2,0:2:0:0:
212,84,175035,5,2,0:2:0:0:
128,53,175207,5,2,0:2:0:0:
116,148,175378,5,2,0:2:0:0:
34,61,175549,6,0,P|215:88|294:217,1,335.999989746094,2|2,0:2|0:2,0:0:0:0:
292,207,176749,6,0,P|200:184|82:220,1,201.599993847656,2|2,0:2|0:2,0:0:0:0:
98,209,177607,6,0,P|151:216|231:263,1,134.399995898438,2|2,0:2|0:2,0:0:0:0:
221,254,178292,6,0,P|168:264|146:278,1,67.1999979492188,2|0,0:2|0:2,0:0:0:0:
64,363,178635,5,2,0:2:0:0:
81,287,178807,1,2,0:2:0:0:
63,211,178978,1,2,0:2:0:0:
85,137,179149,1,2,0:2:0:0:
67,60,179492,6,0,P|156:95|233:18,1,201.599993847656,2|2,0:2|0:2,0:0:0:0:
229,32,180349,2,0,L|220:120,1,67.1999979492188,2|0,0:2|0:2,0:0:0:0:
68,182,180692,6,0,B|122:152|122:152|167:153|193:171|174:178|228:192|269:169,1,216.000008239746,10|0,0:2|0:2,0:0:0:0:
315,99,181035,5,4,3:2:0:0:
303,337,181378,1,8,0:2:0:0:
293,80,181892,5,0,3:2:0:0:
281,318,182064,1,8,0:2:0:0:
271,61,182407,5,0,3:2:0:0:
259,299,182749,1,8,0:2:0:0:
249,42,183264,5,0,3:2:0:0:
237,280,183435,1,8,0:2:0:0:
227,23,183778,5,0,3:2:0:0:
215,261,184121,1,8,0:2:0:0:
298,145,184292,1,0,3:2:0:0:
83,140,184635,5,8,3:2:0:0:
320,162,184807,1,8,0:2:0:0:
204,98,184978,5,0,3:2:0:0:
397,235,185149,1,8,0:2:0:0:
328,121,185321,5,0,3:2:0:0:
427,336,185492,1,8,0:2:0:0:
191,314,185664,1,0,3:2:0:0:
443,304,186007,5,0,3:2:0:0:
292,122,186178,1,8,0:2:0:0:
210,343,186349,1,0,3:2:0:0:
314,256,186521,6,0,B|360:223|360:223|303:208,1,115.199996484375,6|0,3:2|0:2,0:0:0:0:
303,208,186778,1,2,0:2:0:0:
303,208,186864,1,10,0:2:0:0:
164,329,187035,2,0,B|169:385|169:385|210:343,1,115.199996484375,2|0,0:2|0:2,0:0:0:0:
177,162,187378,2,0,B|126:138|126:138|141:194,1,115.199996484375,2|8,3:2|0:2,0:0:0:0:
299,302,187721,5,2,0:2:0:0:
299,302,187807,1,2,0:2:0:0:
299,302,187892,2,0,B|355:296|355:296|313:254,1,115.199996484375,0|0,3:2|0:2,0:0:0:0:
84,279,188235,5,10,0:2:0:0:
141,194,188407,1,2,0:2:0:0:
278,174,188578,2,0,P|297:119|274:52,1,115.199996484375,2|0,0:2|3:2,0:0:0:0:
87,19,188921,1,10,0:2:0:0:
283,65,189092,1,2,3:2:0:0:
31,112,189264,6,0,P|44:57|87:19,1,115.199996484375,2|0,3:2|0:2,0:0:0:0:
139,283,189607,2,0,P|97:244|85:188,1,115.199996484375,10|0,0:2|0:2,0:0:0:0:
340,275,189949,2,0,P|285:291|231:273,1,115.199996484375,2|0,3:2|0:2,0:0:0:0:
318,16,190292,5,8,0:2:0:0:
433,96,190464,1,2,3:2:0:0:
433,96,190549,1,2,0:2:0:0:
433,96,190635,2,0,P|420:151|377:189,1,115.199996484375,2|0,0:2|3:2,0:0:0:0:
176,196,190978,2,0,P|230:179|284:197,1,115.199996484375,10|0,0:2|0:2,0:0:0:0:
340,275,191235,1,2,0:2:0:0:
340,275,191321,2,0,P|344:331|315:380,1,115.199996484375,2|0,3:2|3:2,0:0:0:0:
73,350,191664,5,10,0:2:0:0:
48,314,191749,1,2,0:2:0:0:
47,275,191835,1,2,0:2:0:0:
66,240,191921,1,2,0:2:0:0:
97,216,192007,6,0,P|127:182|142:107,1,115.199996484375,6|0,3:2|0:2,0:0:0:0:
5,38,192349,1,10,0:2:0:0:
97,216,192521,2,0,P|141:225|214:201,1,115.199996484375,2|0,0:2|0:2,0:0:0:0:
308,68,192864,5,2,3:2:0:0:
302,90,192949,1,0,3:2:0:0:
295,112,193035,1,8,0:2:0:0:
143,116,193207,1,2,0:2:0:0:
288,134,193378,6,0,P|312:186|305:243,1,115.199996484375,6|0,3:2|0:2,0:0:0:0:
160,304,193721,2,0,P|115:268|96:215,1,115.199996484375,10|0,0:2|0:2,0:0:0:0:
129,134,193978,1,2,0:2:0:0:
143,116,194064,5,2,0:2:0:0:
288,134,194235,1,0,3:2:0:0:
197,50,194407,1,10,0:2:0:0:
385,56,194578,1,6,3:2:0:0:
385,56,194921,5,0,3:2:0:0:
197,50,195092,1,8,0:2:0:0:
314,10,195264,1,2,0:2:0:0:
192,131,195435,5,0,3:2:0:0:
121,85,195607,1,0,3:2:0:0:
309,91,195778,1,8,0:2:0:0:
120,165,195949,5,2,0:2:0:0:
314,10,196121,1,4,3:2:0:0:
376,135,196292,6,2,B|394:179|394:179|392:222|392:222|428:182,1,124.79999428711,2|0,0:2|3:2,0:1:0:0:
210,106,196635,2,2,B|192:62|192:62|194:19|194:19|158:59,1,124.79999428711,2|0,0:2|3:2,0:1:0:0:
367,149,196978,6,0,L|391:210,1,52.8000016113282,2|0,0:2|0:2,0:0:0:0:
360,263,197149,2,0,L|400:211,1,52.8000016113282,10|0,0:2|0:2,0:0:0:0:
463,213,197321,2,2,L|398:203,1,52.8000016113282,2|0,0:2|0:2,0:1:0:0:
275,205,197492,6,0,P|242:206|209:230,1,72,6|0,3:2|0:2,0:0:0:0:
222,241,197835,6,0,B|275:222|321:259|321:259|371:301|430:276,1,216.000008239746,6|0,3:2|0:2,0:0:0:0:
463,213,198178,1,2,0:2:0:0:
386,367,198349,5,2,3:2:0:0:
390,193,198521,1,10,0:2:0:0:
277,62,198692,2,0,P|224:32|86:54,1,144.000005493164,2|0,0:2|3:2,0:0:0:0:
405,21,199035,6,2,P|378:53|380:114,1,72.0000027465821,2|0,0:2|0:2,0:1:0:0:
302,172,199207,1,10,0:2:0:0:
447,87,199378,1,2,0:2:0:0:
428,334,199549,6,0,B|451:354|489:348|489:348|505:308|473:266,1,144.000005493164,2|0,0:2|3:2,0:0:0:0:
405,251,199807,1,0,3:2:0:0:
387,267,199892,2,0,P|346:277|267:241,1,115.199996484375,10|0,0:2|0:2,0:0:0:0:
76,198,200235,6,0,B|64:229|79:287|102:255|126:327|94:371|94:371|101:351|94:324,1,230.39999296875,2|8,3:2|0:2,0:0:0:0:
174,241,200749,1,2,0:2:0:0:
284,204,200921,2,0,P|333:188|430:219,1,115.199996484375,2|0,3:2|0:2,0:0:0:0:
205,117,201264,2,0,P|234:74|233:-27,1,115.199996484375,8|0,0:1|0:2,0:0:0:0:
261,10,201521,1,2,0:2:0:0:
277,13,201607,5,2,3:2:0:0:
131,62,201778,1,2,3:2:0:0:
320,118,201949,5,10,0:2:0:0:
135,190,202121,2,0,B|88:190|57:156|57:156|12:225|59:277,1,216.000008239746,2|0,3:2|0:2,0:0:0:0:
107,332,202464,5,0,3:2:0:0:
210,258,202635,2,2,L|215:225,2,28.7999991210938,10|0|0,0:2|0:2|0:2,0:1:0:0:
303,377,202807,2,2,L|308:344,2,28.7999991210938,2|0|0,0:2|0:2|0:2,0:1:0:0:
441,300,202978,6,0,P|392:287|363:157,1,172.799994726563,6|0,3:2|0:2,0:0:0:0:
319,96,203321,2,0,P|398:114|508:72,1,172.799994726563,10|0,0:2|0:2,0:0:0:0:
470,12,203664,2,0,B|428:11|389:67|413:122|413:122|438:153|430:194,1,216.000008239746,2|0,0:2|0:2,0:0:0:0:
351,181,204007,1,10,0:2:0:0:
484,89,204178,6,0,B|430:41|329:58|299:123|299:123|325:97|367:102,1,288.000010986329,2|2,0:2|0:2,0:0:0:0:
147,118,204692,1,8,0:2:0:0:
367,102,204864,6,0,B|330:51|264:78|264:78|201:58|206:1,1,216.000008239746,2|0,0:2|0:2,0:0:0:0:
205,6,205207,1,2,3:2:0:0:
214,213,205378,5,10,0:2:0:0:
151,310,205549,1,2,0:2:0:0:
41,340,205721,2,0,P|19:278|76:179,1,172.799994726563,2|0,3:2|0:2,0:0:0:0:
133,176,206064,1,8,0:2:0:0:
251,281,206235,6,0,P|288:283|333:246,1,57.5999982421876,2|0,3:2|0:2,0:0:0:0:
376,236,206407,2,0,P|332:242|253:160,1,115.199996484375,2|0,0:2|3:2,0:0:0:0:
184,124,206749,1,8,0:2:0:0:
154,0,206921,1,0,3:2:0:0:
342,150,207092,5,10,0:2:0:0:
242,9,207264,1,0,3:2:0:0:
494,124,207435,5,10,0:2:0:0:
318,9,207607,1,0,3:2:0:0:
498,196,207778,5,10,0:2:0:0:
254,186,207949,1,0,3:2:0:0:
443,258,208121,5,10,0:2:0:0:
280,384,208292,2,0,P|207:340|173:263,1,172.799994726563,6|0,3:2|0:2,0:0:0:0:
179,190,208635,5,2,3:2:0:0:
371,224,208807,2,0,P|345:274|294:300,1,115.199996484375,10|0,0:2|0:2,0:0:0:0:
261,291,209064,1,2,0:2:0:0:
240,263,209149,5,2,3:2:0:0:
443,258,209321,1,2,3:2:0:0:
267,163,209492,1,10,0:2:0:0:
354,130,209664,1,2,0:2:0:0:
364,116,209749,1,2,0:2:0:0:
368,97,209835,5,2,3:2:0:0:
316,36,210007,1,2,0:2:0:0:
237,37,210178,1,2,3:2:0:0:
178,90,210349,1,2,0:2:0:0:
100,106,210521,2,0,P|94:71|100:25,1,72.0000027465821,2|0,3:2|0:2,0:0:0:0:
87,25,210864,6,0,P|133:116|134:252,1,216.000008239746,8|0,0:1|0:2,0:0:0:0:
100,296,211207,5,14,3:2:0:0:
156,251,211549,1,8,0:2:0:0:
227,246,211892,1,8,0:2:0:0:
293,274,212235,1,8,0:2:0:0:
341,327,212578,1,8,0:2:0:0:
410,346,212921,1,8,0:2:0:0:
476,319,213264,1,8,0:2:0:0:
502,251,213607,1,8,0:2:0:0:
450,58,213778,1,8,0:2:0:0:
502,251,213949,5,10,0:2:0:0:
476,319,214292,1,8,0:2:0:0:
410,346,214635,1,8,0:2:0:0:
341,327,214978,1,8,0:2:0:0:
293,274,215321,1,8,0:2:0:0:
301,202,215664,1,8,0:2:0:0:
348,147,216007,1,8,0:2:0:0:
405,257,216178,5,8,0:2:0:0:
405,257,216264,1,8,0:2:0:0:
405,257,216349,1,8,0:2:0:0:
288,217,216521,1,8,0:2:0:0:
240,77,216692,2,0,P|250:26|299:-4,1,96,14|0,3:2|0:2,0:0:0:0:
416,19,217035,5,10,3:2:0:0:
464,144,217207,1,2,0:2:0:0:
457,171,217292,1,2,0:2:0:0:
438,192,217378,2,0,P|395:217|313:199,1,96,10|0,3:2|0:2,0:0:0:0:
229,154,217721,1,8,3:2:0:0:
235,19,217892,1,2,0:2:0:0:
208,8,217978,1,2,0:2:0:0:
179,11,218064,5,14,3:2:0:0:
99,59,218235,1,0,3:2:0:0:
62,154,218407,1,8,3:2:0:0:
73,268,218578,1,0,3:2:0:0:
0,110,218749,5,10,3:2:0:0:
99,59,218921,1,0,3:2:0:0:
220,66,219092,1,8,3:2:0:0:
319,142,219264,1,0,3:2:0:0:
377,283,219435,5,10,3:2:0:0:
399,300,219521,1,0,3:2:0:0:
424,300,219607,1,0,3:2:0:0:
450,280,219692,1,0,3:2:0:0:
462,243,219778,5,10,3:2:0:0:
428,210,219864,1,0,3:2:0:0:
419,157,219949,1,0,3:2:0:0:
454,118,220035,1,0,3:2:0:0:
502,106,220121,6,0,L|498:141,14,24,14|0|0|0|0|0|0|0|8|0|0|0|0|0|0,3:2|3:2|3:2|3:2|3:2|3:2|3:2|3:2|3:2|3:2|3:2|3:2|3:2|3:2|3:2,0:0:0:0:
492,98,220807,6,0,L|481:175,1,72,6|0,3:2|0:2,0:0:0:0:
456,239,221149,6,0,P|491:243|532:217,1,48,2|0,0:2|0:2,0:0:0:0:
512,25,221321,2,0,P|477:21|436:47,1,48,2|0,0:2|0:2,0:0:0:0:
481,169,221492,6,0,P|459:128|390:96,1,96,2|0,0:2|0:2,0:0:0:0:
349,80,221749,1,2,0:2:0:0:
361,152,221835,6,0,B|249:191|274:90|150:130,1,216.000008239746,8|0,0:1|0:2,0:0:0:0:
111,272,222178,6,0,P|171:267|199:214,1,124.79999428711,6|0,3:2|0:2,0:0:0:0:
200,214,222435,1,2,0:2:0:0:
200,214,222521,1,10,3:2:0:0:
97,56,222692,2,0,P|38:61|9:114,1,124.79999428711,2|0,0:2|3:2,0:0:0:0:
223,90,223035,1,2,0:2:0:0:
111,272,223207,1,10,3:2:0:0:
323,319,223378,5,2,0:2:0:0:
346,311,223464,1,2,0:2:0:0:
369,303,223549,1,0,3:2:0:0:
311,221,223721,1,2,0:2:0:0:
245,378,223892,1,10,3:2:0:0:
169,178,224064,6,0,L|237:155,1,67.1999979492188,2|2,0:2|0:2,0:0:0:0:
318,228,224235,1,2,3:2:0:0:
460,136,224407,6,0,L|380:116,1,72.0000027465821,2|2,0:2|0:2,0:0:0:0:
318,228,224578,1,10,3:2:0:0:
291,63,224749,5,2,0:2:0:0:
318,228,224921,2,0,B|310:276|310:276|319:301|319:301|310:357,1,124.79999428711,2|0,3:2|0:2,0:0:0:0:
156,161,225264,5,10,3:2:0:0:
318,228,225435,2,0,L|383:226,2,62.3999971435548,2|2|0,0:2|0:2|3:2,0:0:0:0:
126,271,225778,2,0,B|89:287|53:273|53:273|75:284|91:313,1,124.79999428711,2|8,0:2|3:2,0:0:0:0:
311,350,226121,5,2,0:2:0:0:
335,346,226207,1,2,0:2:0:0:
359,342,226292,1,0,3:2:0:0:
210,228,226464,1,2,0:2:0:0:
386,164,226635,1,10,3:2:0:0:
234,50,226807,6,0,L|226:115,1,67.1999979492188,2|2,0:2|0:2,0:0:0:0:
213,231,226978,1,0,3:2:0:0:
46,144,227149,6,0,L|106:175,1,67.1999979492188,2|2,0:2|0:2,0:0:0:0:
213,231,227321,1,10,3:2:0:0:
109,296,227492,1,2,0:2:0:0:
333,259,227664,6,0,B|366:212|316:153|316:153|264:193,1,153.6,2|0,3:2|0:2,0:0:0:0:
135,308,228007,1,10,3:2:0:0:
323,359,228178,2,0,L|402:353,2,62.3999971435548,2|2|0,0:2|0:2|3:2,0:0:0:0:
158,315,228521,2,0,B|116:303|116:303|85:321|85:321|40:308,1,124.79999428711,2|8,0:2|3:2,0:0:0:0:
0,88,228864,5,2,0:2:0:0:
23,81,228949,1,2,0:2:0:0:
48,72,229035,2,0,B|97:55|97:55|97:121|157:153,1,153.6,0|0,3:2|0:2,0:0:0:0:
217,135,229292,1,2,0:2:0:0:
289,131,229378,6,0,B|313:84|299:39|299:39|253:47|248:95,1,153.6,10|0,3:2|0:2,0:0:0:0:
217,135,229635,1,2,0:2:0:0:
253,200,229721,6,0,B|309:225|355:176|355:176|357:203|336:231,1,153.6,0|0,3:2|0:2,0:0:0:0:
257,325,230064,1,10,3:2:0:0:
442,363,230235,5,2,0:2:0:0:
467,346,230321,1,2,0:2:0:0:
489,324,230407,2,0,B|510:273|470:237|470:237|417:255,1,134.399995898438,2|0,3:2|0:2,0:0:0:0:
177,157,230749,2,0,B|156:106|196:70|196:70|249:88,1,134.399995898438,10|0,3:2|0:2,0:0:0:0:
297,145,231007,1,2,0:2:0:0:
294,171,231092,2,0,P|218:188|168:139,1,134.399995898438,2|0,3:2|0:2,0:0:0:0:
114,6,231435,5,10,3:2:0:0:
315,51,231607,1,2,0:2:0:0:
341,52,231692,1,2,0:2:0:0:
367,51,231778,2,0,B|402:44|422:16|422:16|462:9|486:46,1,134.399995898438,2|0,3:2|0:2,0:0:0:0:
488,113,232035,1,2,0:2:0:0:
435,165,232121,6,0,B|392:176|361:146|361:146|379:125|431:128,1,134.399995898438,10|0,3:2|0:2,0:0:0:0:
488,113,232378,1,2,0:2:0:0:
512,180,232464,6,0,P|472:233|408:240,1,134.399995898438,2|0,3:2|0:2,0:0:0:0:
272,101,232807,2,0,P|232:48|168:41,1,134.399995898438,10|0,3:2|0:2,0:0:0:0:
86,157,233064,1,0,0:2:0:0:
100,177,233149,6,0,P|160:168|195:119,1,124.79999428711,2|0,3:2|0:2,0:0:0:0:
0,72,233492,1,10,3:2:0:0:
34,253,233664,1,2,0:2:0:0:
32,277,233749,1,2,0:2:0:0:
31,302,233835,1,0,3:2:0:0:
207,209,234007,2,0,P|160:170|100:177,1,124.79999428711,2|10,0:2|3:2,0:0:0:0:
223,353,234349,5,2,0:2:0:0:
247,349,234435,1,2,0:2:0:0:
271,343,234521,2,0,L|288:283,1,62.3999971435548,2|0,3:2|0:2,0:0:0:0:
388,217,234692,2,0,L|446:241,1,62.3999971435548,2|0,0:2|0:2,0:0:0:0:
297,206,234864,6,0,L|234:216,1,62.3999971435548,10|0,3:2|0:2,0:0:0:0:
378,294,235035,2,0,L|380:356,1,62.3999971435548,2|0,0:2|0:2,0:0:0:0:
351,144,235207,6,0,L|356:92,6,31.1999985717774,2|0|0|0|0|0|0,3:2|0:2|0:2|0:2|0:2|0:2|0:2,0:0:0:0:
297,206,235549,1,10,3:2:0:0:
388,217,235721,1,2,0:2:0:0:
205,55,235892,6,0,P|175:40|138:37,1,72.0000027465821,6|0,3:2|2:2,0:0:0:0:
307,55,236235,6,0,P|337:40|374:37,1,72.0000027465821,6|0,3:2|2:2,0:0:0:0:
147,132,236578,6,0,P|104:138|68:161,1,86.3999973632813,6|0,3:2|2:2,0:0:0:0:
364,132,236921,6,0,P|407:138|443:161,1,86.3999973632813,6|0,3:2|2:2,0:0:0:0:
190,288,237264,6,0,P|155:264|138:225,1,86.3999973632813,2|0,3:2|2:2,0:0:0:0:
321,288,237435,6,0,P|356:264|374:225,1,86.3999973632813,2|0,3:2|2:2,0:0:0:0:
147,132,237607,6,0,P|115:118|71:117,1,67.1999979492188,2|0,3:2|2:2,0:0:0:0:
364,132,237778,6,0,P|396:118|440:117,1,67.1999979492188,2|0,3:2|2:2,0:0:0:0:
256,65,237949,5,2,3:2:0:0:
242,52,238035,5,2,3:2:0:0:
254,40,238121,5,2,3:2:0:0:
267,51,238207,5,2,3:2:0:0:
256,52,238292,6,0,B|332:62|364:132|364:132|381:85|417:62,1,230.4,8|0,0:1|0:2,0:0:0:0:
449,157,238635,6,0,P|466:210|419:285,1,115.199996484375,6|0,3:2|0:2,0:0:0:0:
371,263,238892,2,0,P|374:234|390:210,1,57.5999982421876,2|8,0:2|3:2,0:0:0:0:
512,303,239149,2,0,P|492:323|465:334,1,57.5999982421876,2|2,0:2|0:2,0:0:0:0:
394,339,239321,5,2,3:2:0:0:
362,325,239407,1,2,0:2:0:0:
327,325,239492,1,2,0:2:0:0:
297,342,239578,1,2,0:2:0:0:
237,285,239664,5,10,3:2:0:0:
202,284,239749,1,2,0:2:0:0:
169,297,239835,1,2,0:2:0:0:
148,324,239921,1,2,0:2:0:0:
96,381,240007,6,0,P|68:311|76:247,1,115.199996484375,2|0,3:2|0:2,0:0:0:0:
86,242,240264,1,2,0:2:0:0:
110,217,240349,1,10,3:2:0:0:
246,153,240521,1,2,0:2:0:0:
173,22,240692,2,0,P|138:62|45:60,1,115.199996484375,2|2,3:2|0:2,0:0:0:0:
61,69,240907,2,0,L|46:29,3,28.7999991210938,2|2|2|10,0:2|0:2|0:2|3:2,0:0:0:0:
257,8,241207,1,2,0:2:0:0:
143,152,241378,6,0,P|176:212|259:246,1,115.199996484375,2|0,3:2|0:2,0:0:0:0:
286,216,241635,2,0,P|289:250|261:295,1,57.5999982421876,2|8,0:2|3:2,0:0:0:0:
416,101,241892,2,0,P|439:125|446:178,1,57.5999982421876,2|0,0:2|0:2,0:0:0:0:
390,285,242064,5,2,3:2:0:0:
377,253,242149,1,2,0:2:0:0:
364,220,242235,2,0,L|382:153,1,57.5999982421876,2|0,0:2|0:2,0:0:0:0:
204,161,242407,5,10,3:2:0:0:
217,129,242492,1,2,0:2:0:0:
230,96,242578,2,0,L|212:29,1,57.5999982421876,2|0,0:2|0:2,0:0:0:0:
99,15,242749,5,2,3:2:0:0:
65,22,242835,1,2,0:2:0:0:
42,47,242921,1,2,0:2:0:0:
33,80,243007,1,2,0:2:0:0:
42,112,243092,1,10,3:2:0:0:
65,137,243178,1,2,0:2:0:0:
97,149,243264,1,2,0:2:0:0:
69,169,243349,1,2,0:2:0:0:
55,200,243435,6,0,P|50:245|83:283,2,76.7999976562501,2|2|2,3:2|0:2|0:2,0:0:0:0:
124,330,243778,2,0,P|152:328|176:313,1,57.5999982421876,10|2,3:2|0:2,0:0:0:0:
181,239,243949,2,0,P|157:223|128:221,1,57.5999982421876,2|2,0:2|0:2,0:0:0:0:
234,369,244121,5,6,3:2:0:0:
255,208,244292,2,0,L|267:131,2,57.5999982421876,2|2|10,0:2|0:2|3:2,0:0:0:0:
322,370,244635,6,0,B|307:337|324:307|324:307|354:332|348:375,1,115.199996484375,2|0,0:2|3:2,0:0:0:0:
400,146,244978,2,0,B|382:177|347:181|347:181|350:142|388:122,1,115.199996484375,2|8,0:2|3:2,0:0:0:0:
402,55,245235,2,0,P|398:36|347:1,2,57.5999982421876,2|0|0,0:2|0:2|0:2,0:0:0:0:
480,102,245492,6,0,P|483:165|413:236,1,115.199996484375,2|0,3:2|0:2,0:0:0:0:
318,81,245835,2,0,P|257:62|214:-27,1,115.199996484375,10|0,3:2|0:2,0:0:0:0:
296,288,246178,2,0,P|335:239|435:233,1,115.199996484375,2|0,3:2|0:2,0:0:0:0:
109,257,246521,6,0,P|78:236|72:193,1,57.5999982421876,10|2,3:2|0:2,0:0:0:0:
157,119,246692,2,0,P|194:117|224:149,1,57.5999982421876,2|2,0:2|0:2,0:0:0:0:
79,60,246864,6,0,B|93:50|108:53|108:53|74:83|77:135,1,115.199996484375,2|0,3:2|0:2,0:0:0:0:
189,289,247207,1,10,3:2:0:0:
294,123,247378,2,0,P|325:151|284:141,1,115.199996484375,2|0,0:2|3:2,0:0:0:0:
251,45,247721,2,0,P|315:33|374:60,1,115.199996484375,2|8,0:2|3:2,0:0:0:0:
355,318,248064,6,0,P|344:273|384:201,1,115.199996484375,2|0,0:2|3:2,0:0:0:0:
495,125,248407,1,2,0:2:0:0:
495,125,248492,1,2,0:2:0:0:
495,125,248578,1,10,3:2:0:0:
354,65,248749,1,2,0:2:0:0:
441,189,248921,2,0,P|371:192|293:95,1,172.799994726563,2|0,3:2|0:2,0:0:0:0:
284,9,249264,2,0,P|239:43|229:99,1,115.199996484375,10|0,0:2|0:2,0:0:0:0:
326,267,249607,6,0,P|373:297|429:288,1,115.199996484375,6|0,3:2|0:2,0:0:0:0:
498,313,249864,2,0,L|515:234,1,57.5999982421876,2|8,0:2|3:2,0:0:0:0:
344,184,250121,2,0,L|327:105,1,57.5999982421876,2|2,0:2|0:2,0:0:0:0:
401,54,250292,5,2,3:2:0:0:
435,58,250378,1,2,0:2:0:0:
461,80,250464,1,2,0:2:0:0:
470,112,250549,1,2,0:2:0:0:
433,181,250635,5,10,3:2:0:0:
414,210,250721,1,2,0:2:0:0:
409,244,250807,1,2,0:2:0:0:
417,277,250892,1,2,0:2:0:0:
470,333,250978,6,0,P|416:358|332:332,1,115.199996484375,2|0,3:2|0:2,0:0:0:0:
330,338,251235,1,2,0:2:0:0:
297,325,251321,2,0,L|146:353,1,115.199996484375,10|0,3:2|0:2,0:0:0:0:
110,283,251664,5,2,3:2:0:0:
203,172,251835,2,0,L|239:155,4,28.7999991210938,2|2|2|2|10,0:2|0:2|0:2|0:2|3:2,0:0:0:0:
268,312,252178,1,2,0:2:0:0:
127,202,252349,5,2,3:2:0:0:
225,46,252521,1,2,0:2:0:0:
225,46,252607,2,0,P|257:35|312:57,1,57.5999982421876,2|8,0:2|3:2,0:0:0:0:
252,211,252864,2,0,P|219:201|188:150,1,57.5999982421876,2|2,0:2|0:2,0:0:0:0:
273,123,253035,5,2,3:2:0:0:
306,132,253121,1,2,0:2:0:0:
340,133,253207,1,2,0:2:0:0:
371,146,253292,1,2,0:2:0:0:
445,138,253378,5,10,3:2:0:0:
467,163,253464,1,2,0:2:0:0:
468,197,253549,1,2,0:2:0:0:
452,228,253635,1,2,0:2:0:0:
391,278,253721,6,0,P|348:278|292:212,1,115.199996484375,2|0,3:2|0:2,0:0:0:0:
284,220,253978,2,0,P|275:253|219:271,1,57.5999982421876,2|8,0:2|3:2,0:0:0:0:
220,380,254235,6,0,P|182:341|193:239,1,115.199996484375,2|0,0:2|3:2,0:0:0:0:
209,211,254492,2,0,P|200:157|267:80,1,115.199996484375,2|0,0:2|0:2,0:0:0:0:
240,27,254749,2,0,P|268:32|294:22,1,57.5999982421876,10|0,3:2|0:2,0:0:0:0:
115,29,254921,2,0,P|135:50|163:57,1,57.5999982421876,2|0,0:2|0:2,0:0:0:0:
283,168,255092,6,0,P|334:159|395:86,1,115.199996484375,6|0,3:2|0:2,0:0:0:0:
381,118,255349,1,2,0:2:0:0:
381,118,255435,1,10,3:2:0:0:
469,31,255607,2,0,B|491:12|491:12|468:59|472:118,1,115.199996484375,2|0,0:2|3:2,0:0:0:0:
445,228,255949,2,0,B|451:256|451:256|420:214|366:191,1,115.199996484375,2|8,0:2|3:2,0:0:0:0:
352,194,256207,1,2,0:2:0:0:
318,200,256292,1,2,0:2:0:0:
290,220,256378,1,2,0:2:0:0:
272,250,256464,6,0,B|251:266|225:263|225:263|201:172,1,115.199996484375,2|0,3:2|0:2,0:0:0:0:
60,150,256807,2,0,B|39:133|36:107|36:107|120:63,1,115.199996484375,10|0,3:2|0:2,0:0:0:0:
265,33,257149,2,0,P|263:81|201:123,1,115.199996484375,2|0,3:2|0:2,0:0:0:0:
142,130,257407,1,2,0:2:0:0:
94,77,257492,6,0,P|123:59|172:68,1,57.5999982421876,8|2,3:2|0:2,0:0:0:0:
211,147,257664,2,0,P|198:178|153:200,1,57.5999982421876,2|2,0:2|0:2,0:0:0:0:
142,130,257835,6,0,L|31:216,1,115.199996484375,2|0,3:2|0:2,0:0:0:0:
182,349,258178,1,10,3:2:0:0:
4,371,258349,2,0,B|20:351|20:351|155:328,1,115.199996484375,2|0,0:2|3:2,0:0:0:0:
360,327,258692,2,0,B|344:347|344:347|209:370,1,115.199996484375,2|8,0:2|3:2,0:0:0:0:
182,349,259035,1,2,0:2:0:0:
53,288,259207,6,0,B|13:252|23:187|23:187|-5:92,1,172.799994726563,6|0,3:2|0:2,0:0:0:0:
39,60,259549,1,10,0:2:0:0:
84,119,259635,2,0,P|111:69|84:4,1,115.199996484375,2|0,2:2|0:2,0:0:0:0:
153,63,259892,2,0,P|209:64|255:10,1,115.199996484375,2|0,0:2|0:2,0:0:0:0:
312,68,260149,1,2,0:2:0:0:
332,140,260235,2,0,P|304:145|254:91,1,57.5999982421876,10|0,0:2|0:2,0:0:0:0:
337,0,260407,2,0,P|362:12|371:85,1,57.5999982421876,2|0,0:2|0:2,0:0:0:0:
260,155,260578,5,6,3:2:0:0:
260,155,260749,2,0,P|303:175|349:166,1,96,2|8,0:2|3:2,0:0:0:0:
211,243,261092,2,0,P|215:290|245:325,1,96,2|0,0:2|3:2,0:0:0:0:
110,244,261435,2,0,P|71:271|55:315,1,96,2|8,0:2|3:2,0:0:0:0:
260,155,261778,6,0,P|303:135|349:144,1,96,2|0,0:2|3:2,0:0:0:0:
211,243,262121,2,0,P|215:290|245:325,1,96,2|8,0:2|3:2,0:0:0:0:
385,227,262464,2,0,P|380:179|350:144,1,96,2|0,0:2|3:2,0:0:0:0:
169,161,262807,2,0,L|111:146,2,48,2|2|8,2:2|2:2|3:2,0:0:0:0:
298,236,263149,1,2,0:2:0:0:
132,346,263321,6,0,P|63:351|36:236,1,192,2|10,3:2|3:2,0:0:0:0:
169,161,263835,2,0,L|280:146,1,96,2|0,0:2|3:2,0:0:0:0:
171,32,264178,2,0,L|60:17,1,96,2|8,0:2|3:2,0:0:0:0:
264,148,264521,6,0,B|326:141|326:141|383:170|383:170|448:163,1,192,2|2,0:2|0:2,0:0:0:0:
492,8,265035,2,0,B|429:47|429:47|448:163,1,192,8|0,0:2|3:2,0:0:0:0:
484,313,265549,2,0,L|537:318,2,48,2|2|8,0:2|0:2|3:2,0:0:0:0:
297,254,265892,2,0,L|250:247,2,48,2|2|0,0:2|0:2|3:2,0:0:0:0:
376,316,266235,2,0,P|395:272|391:225,1,96,2|8,0:2|3:2,0:0:0:0:
274,100,266578,6,0,B|169:70|193:137|87:112,1,192,2|2,0:2|0:2,0:0:0:0:
87,112,267007,1,2,0:2:0:0:
87,112,267092,1,8,3:2:0:0:
274,100,267264,6,0,P|296:147|289:215,1,96,2|0,0:2|3:2,0:0:0:0:
83,287,267607,2,0,P|61:240|68:172,1,96,2|8,0:2|3:2,0:0:0:0:
311,112,267949,2,0,P|320:163|295:226,1,96,2|0,0:2|3:2,0:0:0:0:
162,52,268292,1,2,0:2:0:0:
162,52,268378,1,2,0:2:0:0:
162,52,268464,1,8,3:2:0:0:
236,157,268635,1,2,0:2:0:0:
338,14,268807,6,0,P|385:31|416:84,1,96,2|0,3:2|0:2,0:0:0:0:
308,204,269149,1,10,3:2:0:0:
148,141,269321,2,0,P|141:90|175:38,1,96,2|0,0:2|3:2,0:0:0:0:
308,204,269664,2,0,P|314:254|280:306,1,96,2|8,0:2|3:2,0:0:0:0:
121,320,270007,6,0,B|170:274|170:274|293:293,1,192,2|2,0:2|0:2,0:0:0:0:
470,184,270521,2,0,B|426:206|426:206|382:188,1,96,10|0,3:2|0:2,0:0:0:0:
260,53,270864,2,0,B|302:33|302:33|347:52,1,96,2|0,3:2|0:2,0:0:0:0:
230,194,271207,1,10,3:2:0:0:
143,36,271378,1,2,3:2:0:0:
41,96,271549,5,6,3:2:0:0:
41,96,271721,2,0,L|28:212,1,96,2|8,0:2|3:2,0:0:0:0:
143,36,272064,2,0,L|156:152,1,96,2|0,0:2|3:2,0:0:0:0:
281,86,272407,2,0,L|268:202,1,96,2|8,0:2|3:2,0:0:0:0:
394,28,272749,2,0,L|407:144,1,96,2|0,0:2|3:2,0:0:0:0:
270,181,273092,6,0,L|215:173,2,48,2|2|8,0:2|0:2|3:2,0:0:0:0:
434,220,273435,2,0,L|489:228,2,48,2|2|0,0:2|0:2|3:2,0:0:0:0:
281,280,273778,5,2,0:2:0:0:
281,280,273864,2,0,L|229:296,1,48,2|8,0:2|3:2,0:0:0:0:
404,123,274121,2,0,L|456:107,2,48,2|2|0,0:2|0:2|3:2,0:0:0:0:
266,78,274464,5,2,0:2:0:0:
266,78,274549,2,0,L|203:69,1,48,2|8,0:2|3:2,0:0:0:0:
434,220,274807,2,0,L|497:229,2,48,2|2|0,0:2|0:2|3:2,0:0:0:0:
367,277,275149,6,0,P|349:233|353:187,1,96,2|8,0:2|3:2,0:0:0:0:
435,17,275492,2,0,P|453:61|449:107,1,96,2|0,0:2|3:2,0:0:0:0:
253,144,275835,6,0,L|143:132,1,96,2|8,2:2|0:2,0:0:0:0:
340,7,276178,2,0,L|450:19,1,96,2|0,0:2|3:2,0:0:0:0:
265,161,276521,6,0,L|165:151,1,96,2|8,0:2|3:2,0:0:0:0:
352,24,276864,2,0,L|415:30,2,48,2|2|0,0:2|0:2|3:2,0:0:0:0:
170,152,277207,6,0,P|151:109|154:62,1,96,2|10,0:2|3:2,0:0:0:0:
254,264,277549,2,0,P|207:258|168:232,1,96,2|0,0:2|3:2,0:0:0:0:
392,245,277892,2,0,P|364:284|322:305,1,96,2|8,0:2|3:2,0:0:0:0:
447,116,278235,2,0,P|466:159|462:206,1,96,2|0,0:2|3:2,0:0:0:0:
383,50,278578,6,0,P|337:35|290:43,1,96,2|8,0:2|3:2,0:0:0:0:
462,206,278921,2,0,P|451:159|421:123,1,96,2|0,0:2|3:2,0:0:0:0:
366,352,279264,2,0,P|401:319|417:275,1,96,2|8,0:2|3:2,0:0:0:0:
332,129,279607,1,2,0:2:0:0:
199,254,279778,5,8,1:1:0:0:
187,252,279864,1,0,1:0:0:0:
175,251,279949,1,0,1:0:0:0:
163,250,280035,1,0,1:0:0:0:
159,239,280121,5,8,1:2:0:0:
147,238,280207,1,0,1:2:0:0:
135,237,280292,1,0,1:2:0:0:
123,235,280378,1,0,1:2:0:0:
116,226,280464,6,0,L|114:263,1,24,8|0,1:1|1:0,0:0:0:0:
104,225,280549,2,0,L|102:262,1,24,0|0,1:0|1:0,0:0:0:0:
92,224,280635,2,0,L|90:261,1,24,0|0,1:0|1:0,0:0:0:0:
80,222,280721,2,0,L|78:259,1,24,0|0,1:0|1:0,0:0:0:0:
71,212,280807,6,0,B|142:260|142:260|170:124,1,216.000008239746,8|0,0:1|0:2,0:0:0:0:
111,79,281149,5,6,3:2:0:0:
168,132,281321,2,0,P|194:95|269:85,1,96,2|8,0:2|3:2,0:0:0:0:
260,6,281664,2,0,P|303:19|335:87,1,96,2|0,0:2|3:2,0:0:0:0:
408,54,282007,2,0,P|408:99|353:151,1,96,2|8,0:2|3:2,0:0:0:0:
319,209,282349,6,0,P|364:224|409:210,1,96,2|0,0:2|3:2,0:0:0:0:
232,171,282692,2,0,P|232:218|260:257,1,96,2|8,0:2|3:2,0:0:0:0:
240,79,283035,2,0,P|195:93|168:132,1,96,2|0,0:2|3:2,0:0:0:0:
116,260,283378,1,2,0:2:0:0:
116,260,283464,1,2,0:2:0:0:
116,260,283549,1,8,3:2:0:0:
36,163,283721,1,2,0:2:0:0:
36,38,283892,6,0,P|111:63|117:184,1,192,2|10,3:2|3:2,0:0:0:0:
83,335,284407,2,0,L|68:240,1,96,2|0,0:2|3:2,0:0:0:0:
306,281,284749,2,0,L|211:266,1,96,2|8,0:2|3:2,0:0:0:0:
352,374,285092,6,0,P|395:342|390:215,1,192,2|2,0:2|0:2,0:0:0:0:
457,67,285607,2,0,L|467:187,2,96,10|2|0,3:2|0:2|3:2,0:0:0:0:
306,202,286121,2,0,L|309:154,1,48,2|2,0:2|0:2,0:0:0:0:
309,154,286292,1,8,3:2:0:0:
199,19,286464,2,0,L|202:66,1,48,2|2,0:2|0:2,0:0:0:0:
202,66,286635,1,0,3:2:0:0:
154,149,286807,1,2,0:2:0:0:
80,210,286978,1,8,3:2:0:0:
32,359,287149,6,0,P|90:298|202:345,1,192,2|2,0:2|0:2,0:0:0:0:
185,321,287578,1,2,0:2:0:0:
185,321,287664,1,10,3:2:0:0:
312,370,287835,2,0,L|296:252,1,96,2|0,0:2|3:2,0:0:0:0:
291,353,288178,2,0,L|287:233,1,96,2|8,0:2|3:2,0:0:0:0:
271,333,288521,2,0,L|279:214,1,96,2|0,0:2|3:2,0:0:0:0:
329,155,288864,1,2,0:2:0:0:
329,155,288949,1,2,0:2:0:0:
329,155,289035,1,8,3:2:0:0:
406,97,289207,1,2,0:2:0:0:
496,66,289378,6,0,L|484:171,1,96,2|0,3:2|0:2,0:0:0:0:
485,161,289721,1,10,3:2:0:0:
284,225,289892,2,0,P|258:194|260:114,1,96,2|0,0:2|3:2,0:0:0:0:
157,0,290235,2,0,L|169:105,1,96,0|8,0:2|0:2,0:0:0:0:
106,208,290578,6,0,P|47:233|36:355,1,192,2|2,0:2|0:2,0:0:0:0:
127,381,291092,2,0,L|243:367,1,96,10|0,3:2|0:2,0:0:0:0:
386,363,291435,2,0,P|365:326|376:235,1,96,2|0,3:2|0:2,0:0:0:0:
453,301,291778,1,10,3:2:0:0:
275,278,291949,1,2,3:2:0:0:
180,136,292121,5,6,3:2:0:0:
180,136,292292,2,0,L|281:147,1,96,2|8,0:2|3:2,0:0:0:0:
393,187,292635,2,0,B|442:194|436:162|486:171,1,96,2|0,0:2|3:2,0:0:0:0:
284,164,292978,2,0,L|188:153,1,96,2|8,0:2|3:2,0:0:0:0:
323,0,293321,2,0,P|352:58|344:121,1,96,2|0,0:2|3:2,0:0:0:0:
485,171,293664,6,0,L|496:122,2,48,2|2|8,0:2|0:2|3:2,0:0:0:0:
273,72,294007,2,0,P|247:63|192:77,2,48,2|2|0,0:2|0:2|3:2,0:0:0:0:
420,238,294349,5,2,0:2:0:0:
420,238,294435,2,0,L|409:189,1,48,2|8,0:2|3:2,0:0:0:0:
228,144,294692,2,0,P|201:150|162:192,2,48,2|2|0,0:2|0:2|3:2,0:0:0:0:
379,312,295035,5,2,0:2:0:0:
379,312,295121,2,0,L|368:361,1,48,2|10,0:2|3:2,0:0:0:0:
230,227,295378,2,0,L|219:276,2,48,2|2|0,0:2|0:2|3:2,0:0:0:0:
90,379,295721,6,0,P|55:375|7:317,1,96,2|8,0:2|3:2,0:0:0:0:
40,129,296064,2,0,L|55:259,1,96,2|0,0:2|3:2,0:0:0:0:
126,284,296407,1,2,0:2:0:0:
214,320,296578,2,0,L|228:256,2,48,10|2|2,3:2|0:2|0:2,0:0:0:0:
282,186,296921,1,2,3:2:0:0:
373,321,297092,2,0,L|387:385,2,48,2|2|8,0:2|0:2|3:2,0:0:0:0:
459,249,297435,1,2,0:2:0:0:
392,326,297607,6,0,P|361:288|363:215,1,96,2|0,3:2|0:2,0:0:0:0:
446,53,297949,2,0,L|435:186,1,96,10|0,3:2|0:2,0:0:0:0:
304,165,298292,2,0,P|273:138|215:133,1,96,2|0,3:2|0:2,0:0:0:0:
77,66,298635,2,0,P|116:39|163:40,1,96,10|0,3:2|0:2,0:0:0:0:
304,165,298978,5,2,3:2:0:0:
208,165,299149,1,2,0:2:0:0:
120,204,299321,1,10,3:2:0:0:
67,283,299492,1,2,0:2:0:0:
240,284,299664,1,2,3:2:0:0:
169,349,299835,1,2,0:2:0:0:
388,301,300007,1,10,3:2:0:0:
310,357,300178,1,2,0:2:0:0:
512,341,300349,5,8,1:1:0:0:
508,329,300435,1,0,1:2:0:0:
504,317,300521,1,0,1:2:0:0:
500,305,300607,1,0,1:2:0:0:
489,298,300692,5,8,1:2:0:0:
489,285,300778,1,0,1:2:0:0:
489,272,300864,1,0,1:2:0:0:
490,260,300949,1,0,1:2:0:0:
480,252,301035,6,0,L|453:259,1,24,8|0,1:1|1:2,0:0:0:0:
484,240,301121,2,0,L|457:247,1,24,0|0,1:2|1:2,0:0:0:0:
488,228,301207,2,0,L|461:235,1,24,0|0,1:2|1:2,0:0:0:0:
492,216,301292,2,0,L|465:223,1,24,0|0,1:2|1:2,0:0:0:0:
496,204,301378,1,10,1:2:0:0:
432,133,301549,6,0,L|427:109,4,24,0|0|0|0|8,1:2|1:2|1:2|1:2|1:1,0:0:0:0:
