osu file format v14

[General]
AudioFilename: audio.mp3
AudioLeadIn: 0
PreviewTime: 66766
Countdown: 0
SampleSet: Soft
StackLeniency: 0.7
Mode: 0
LetterboxInBreaks: 0
WidescreenStoryboard: 0

[Editor]
DistanceSpacing: 0.8
BeatDivisor: 4
GridSize: 8
TimelineZoom: 1

[Metadata]
Title:Noraneko Heart
TitleUnicode:野良猫ハート
Artist:Haruka Sora, Kotorii Yuuka, Kamishiro Misaki, Kiritani Hana
ArtistUnicode:遥そら、小鳥居夕花、神代岬、桐谷華
Creator:Asuka_-
Version:Left's Insane
Source:ノラと皇女と野良猫ハート
Tags:eroge opening HARUKAZE oujo Hato to 黒木 未知 パトリシア・オブ・エンド 夕莉 シャチ 明日原 ユウキ Kuroki Michi Patricia of end Yuuri shachi Asuhara Yuuki Firis Mistlud KuranteMelodii makisokk Left
BeatmapID:1362784
BeatmapSetID:637579

[Difficulty]
HPDrainRate:6
CircleSize:4
OverallDifficulty:7
ApproachRate:8.6
SliderMultiplier:1.6
SliderTickRate:1

[Events]
//Background and Video events
0,0,"BG.jpg",0,0
//Break Periods
//Storyboard Layer 0 (Background)
//Storyboard Layer 1 (Fail)
//Storyboard Layer 2 (Pass)
//Storyboard Layer 3 (Foreground)
//Storyboard Sound Samples

[TimingPoints]
1674,370.37037037037,4,2,2,30,1,0
1674,-133.333333333333,4,2,2,30,0,0
7044,-133.333333333333,4,2,1,65,0,0
7229,-66.6666666666667,4,2,1,65,0,0
7599,-100,4,2,2,70,0,0
16488,-100,4,2,1,65,0,0
39081,-117.647058823529,4,2,1,65,0,0
39451,-166.666666666667,4,2,1,65,0,0
39822,-200,4,2,1,65,0,0
40192,-125,4,2,1,65,0,0
50377,-100,4,2,1,65,0,0
51673,-66.6666666666667,4,2,1,65,0,0
52044,-100,4,2,1,65,0,0
55655,-100,4,2,1,5,0,0
55933,-100,4,2,1,65,0,0
56025,-100,4,2,1,5,0,0
56303,-100,4,2,1,65,0,0
64636,-83.3333333333333,4,2,1,65,0,0
65192,-66.6666666666667,4,2,1,65,0,0
65562,-55.5555555555556,4,2,1,65,0,0
65933,-50,4,2,1,65,0,0
66488,-200,4,2,1,65,0,0
66859,-90.9090909090909,4,2,1,75,0,1
89451,-76.9230769230769,4,2,1,75,0,1
89822,-62.5,4,2,1,75,0,1
90192,-52.6315789473684,4,2,1,75,0,1
90562,-200,4,2,1,65,0,0
91859,-66.6666666666667,4,2,1,65,0,0
93525,-100,4,2,1,70,0,0
107785,-133.333333333333,4,2,1,70,0,0
108340,-133.333333333333,4,2,1,65,0,0
111303,-100,4,2,1,5,0,0

[Colours]
Combo1 : 168,255,255
Combo2 : 251,0,0
Combo3 : 255,255,21
Combo4 : 0,191,0

[HitObjects]
233,346,1674,5,2,0:0:0:0:
219,319,1859,1,0,0:0:0:0:
217,289,2044,1,0,0:0:0:0:
227,261,2229,1,2,0:0:0:0:
217,289,3155,5,2,0:0:0:0:
226,260,3340,1,0,0:0:0:0:
224,231,3525,1,0,0:0:0:0:
211,204,3710,1,0,0:0:0:0:
224,231,4636,5,2,0:0:0:0:
211,204,4821,1,0,0:0:0:0:
209,175,5006,1,0,0:0:0:0:
218,146,5191,1,2,0:0:0:0:
209,175,6118,5,2,0:0:0:0:
218,146,6303,1,0,0:0:0:0:
216,117,6488,1,0,0:0:0:0:
203,90,6673,2,0,P|168:114|105:103,1,90.0000034332277,2|0,0:0|0:0,0:0:0:0:
54,152,7044,5,2,0:0:0:0:
54,152,7229,2,0,B|99:134|142:162|142:162|191:197|256:153,1,180.000006866455,6|0,0:0|0:0,0:0:0:0:
284,109,7599,6,0,P|344:116|366:157,1,80,6|0,0:0|0:0,0:0:0:0:
244,240,7970,2,0,P|220:184|244:144,1,80,8|2,0:0|0:0,0:0:0:0:
284,109,8340,1,0,0:0:0:0:
244,240,8525,2,0,P|198:261|158:253,1,80,2|8,0:0|0:0,0:0:0:0:
57,75,8896,6,0,B|102:46|144:62|144:62|180:102|229:85,1,160,2|0,0:0|0:0,0:0:0:0:
328,50,9451,2,0,P|271:26|239:40,1,80,8|0,0:0|0:0,0:0:0:0:
257,152,9822,2,0,P|300:152|343:117,1,80,2|2,0:0|0:0,0:0:0:0:
114,66,10192,2,0,P|94:112|109:164,1,80,8|0,0:0|0:0,0:0:0:0:
212,261,10562,6,0,P|154:215|96:241,1,120,2|0,0:0|0:0,0:0:0:0:
98,238,10933,1,8,0:0:0:0:
114,323,11118,2,0,L|123:371,2,40,2|0|0,0:0|0:0|0:0,0:0:0:0:
13,221,11488,1,0,0:0:0:0:
98,238,11673,2,0,L|77:131,1,80,10|0,0:0|0:0,0:0:0:0:
221,112,12044,5,2,0:0:0:0:
178,271,12229,1,8,0:0:0:0:
289,384,12414,1,8,0:0:0:0:
338,230,12599,1,8,0:0:0:0:
338,230,12692,1,8,0:0:0:0:
338,230,12785,1,8,0:0:0:0:
279,170,12970,5,2,0:0:0:0:
258,252,13155,1,2,0:0:0:0:
320,311,13340,1,0,0:0:0:0:
338,230,13525,1,2,0:0:0:0:
181,273,13711,5,8,0:0:0:0:
338,230,13896,1,8,0:0:0:0:
327,152,14266,5,8,0:0:0:0:
148,198,14451,1,8,0:0:0:0:
118,128,14822,5,8,0:0:0:0:
319,76,15007,1,8,0:0:0:0:
308,1,15377,5,8,0:0:0:0:
84,59,15562,1,8,0:0:0:0:
187,64,15748,5,2,0:0:0:0:
200,72,15840,1,2,0:0:0:0:
216,69,15933,1,2,0:0:0:0:
226,56,16025,1,2,0:0:0:0:
226,40,16118,1,2,0:0:0:0:
216,28,16211,1,2,0:0:0:0:
200,25,16303,1,2,0:0:0:0:
187,33,16396,1,2,0:0:0:0:
181,48,16488,6,0,P|202:84|186:142,1,80,6|0,0:0|0:0,0:0:0:0:
52,195,16859,2,0,B|90:160|138:176|138:176|162:208|216:202,1,160,8|2,0:0|0:0,0:0:0:0:
271,163,17414,1,0,0:0:0:0:
233,52,17599,2,0,P|201:97|207:156,1,80,8|0,0:0|0:0,0:0:0:0:
271,163,17970,2,0,P|303:118|297:59,1,80,2|0,0:0|0:0,0:0:0:0:
135,285,18340,6,0,P|183:287|214:317,1,80,8|0,0:0|0:0,0:0:0:0:
306,341,18711,2,0,P|283:298|294:256,1,80,2|0,0:0|0:0,0:0:0:0:
271,163,19081,2,0,P|245:203|203:215,1,80,8|0,0:0|0:0,0:0:0:0:
244,84,19451,6,0,B|286:69|324:95|324:95|366:117|407:94,1,160,2|8,0:0|0:0,0:0:0:0:
397,98,20192,2,0,P|381:145|388:177,1,80,2|2,0:0|0:0,0:0:0:0:
462,212,20562,1,8,0:0:0:0:
338,341,20748,6,0,B|322:229|322:229|336:252|387:259,1,160,2|0,0:0|0:0,0:0:0:0:
338,341,21303,2,0,P|282:341|256:304,1,80,8|0,0:0|0:0,0:0:0:0:
152,266,21673,2,0,P|100:267|70:303,1,80,2|2,0:0|0:0,0:0:0:0:
187,340,22044,1,8,0:0:0:0:
256,200,22229,1,0,0:0:0:0:
256,200,22322,1,0,0:0:0:0:
256,200,22414,6,0,B|294:165|342:181|342:181|366:213|420:207,1,160,2|8,0:0|0:0,0:0:0:0:
405,124,22970,2,0,P|409:104|424:75,2,40,2|0|2,0:0|0:0|0:0,0:0:0:0:
472,173,23340,1,2,0:0:0:0:
350,41,23525,2,0,P|316:38|267:79,1,80,8|2,0:0|0:0,0:0:0:0:
214,116,23896,6,0,P|162:126|109:85,1,120,2|0,0:0|0:0,0:0:0:0:
110,88,24266,2,0,P|128:127|116:176,1,80,8|0,0:0|0:0,0:0:0:0:
132,269,24636,2,0,P|156:233|205:219,1,80,2|0,0:0|0:0,0:0:0:0:
275,161,25007,2,0,P|232:157|195:122,1,80,8|0,0:0|0:0,0:0:0:0:
361,114,25377,6,0,L|336:278,1,160,2|8,0:0|0:0,0:0:0:0:
260,306,25933,2,0,P|236:303|210:288,2,40,2|0|2,0:0|0:0|0:0,0:0:0:0:
336,272,26303,1,2,0:0:0:0:
336,272,26488,1,8,0:0:0:0:
156,345,26673,6,0,P|141:290|180:228,1,120,2|0,0:0|0:0,0:0:0:0:
168,236,27044,2,0,P|117:260|74:248,1,80,2|8,0:0|0:0,0:0:0:0:
238,117,27414,2,0,B|280:102|318:128|318:128|360:150|401:127,1,160,2|2,0:0|0:0,0:0:0:0:
469,66,27970,5,8,0:0:0:0:
489,59,28062,1,8,0:0:0:0:
489,39,28155,1,8,0:0:0:0:
469,33,28248,1,8,0:0:0:0:
459,47,28340,2,0,P|477:92|459:147,1,80,12|0,0:0|0:0,0:0:0:0:
354,173,28711,6,0,P|309:106|338:32,1,160,8|2,0:0|0:0,0:0:0:0:
270,93,29266,1,0,0:0:0:0:
270,93,29451,2,0,P|221:90|192:58,1,80,8|2,0:0|0:0,0:0:0:0:
127,14,29822,2,0,L|115:103,1,80,2|0,0:0|0:0,0:0:0:0:
28,227,30192,2,0,L|16:138,1,80,8|0,0:0|0:0,0:0:0:0:
103,175,30562,2,0,P|152:172|181:140,1,80,2|0,0:0|0:0,0:0:0:0:
275,111,30933,2,0,P|253:154|266:196,1,80,8|0,0:0|0:0,0:0:0:0:
269,320,31303,6,0,P|208:253|125:284,1,160,2|8,0:0|0:0,0:0:0:0:
65,267,31859,1,0,0:0:0:0:
65,267,31951,1,0,0:0:0:0:
65,267,32044,2,0,L|79:345,1,80,2|2,0:0|0:0,0:0:0:0:
102,190,32414,1,8,0:0:0:0:
262,212,32599,5,2,0:0:0:0:
262,212,32970,1,0,0:0:0:0:
204,153,33155,1,8,0:0:0:0:
185,232,33340,1,0,0:0:0:0:
284,218,33525,5,2,0:0:0:0:
197,129,33710,1,2,0:0:0:0:
168,248,33895,1,8,0:0:0:0:
250,336,34081,1,2,0:0:0:0:
250,336,34173,1,0,0:0:0:0:
250,336,34266,2,0,B|292:321|330:347|330:347|372:369|413:346,1,160,2|8,0:0|0:0,0:0:0:0:
403,350,35007,6,0,P|386:299|399:258,1,80,2|2,0:0|0:0,0:0:0:0:
468,244,35377,1,8,0:0:0:0:
321,182,35562,2,0,P|402:185|441:117,1,160,2|0,0:0|0:0,0:0:0:0:
382,66,36118,2,0,P|344:72|306:125,1,80,8|0,0:0|0:0,0:0:0:0:
207,193,36488,2,0,P|169:187|131:134,1,80,2|2,0:0|0:0,0:0:0:0:
161,78,36859,1,8,0:0:0:0:
161,78,37044,1,0,0:0:0:0:
68,125,37229,5,2,0:0:0:0:
207,193,37414,1,0,0:0:0:0:
208,212,37506,1,0,0:0:0:0:
210,232,37599,1,8,0:0:0:0:
80,299,37785,1,8,0:0:0:0:
79,318,37877,1,8,0:0:0:0:
77,338,37970,1,8,0:0:0:0:
162,345,38155,5,2,0:0:0:0:
163,326,38340,1,2,0:0:0:0:
165,306,38525,2,0,B|203:271|251:287|251:287|275:319|329:313,1,160,2|2,0:0|0:0,0:0:0:0:
390,265,39081,6,0,P|392:222|366:183,1,68.0000012969971,8|2,0:0|0:0,0:0:0:0:
318,139,39451,6,0,P|319:116|326:93,1,47.9999985351563,0|2,0:0|0:0,0:0:0:0:
394,41,39822,6,0,P|393:17|383:-8,1,40,4|0,0:3|0:0,0:0:0:0:
319,140,40192,5,2,0:0:0:0:
319,140,40377,2,0,P|260:152|208:107,2,128,2|8|2,0:0|0:0|0:0,0:0:0:0:
277,70,41303,1,8,0:0:0:0:
70,265,41673,5,2,0:0:0:0:
62,243,41859,1,2,0:0:0:0:
62,221,42044,1,0,0:0:0:0:
129,170,42229,2,0,B|164:160|193:177|193:177|226:194|267:177,1,128,8|2,0:0|0:0,0:0:0:0:
310,120,42785,1,8,0:0:0:0:
437,261,43155,6,0,P|382:217|312:245,1,128,2|0,0:0|0:0,0:0:0:0:
307,308,43711,2,0,P|362:352|432:324,1,128,2|2,0:0|0:0,0:0:0:0:
437,261,44266,5,8,0:0:0:0:
307,308,44451,2,0,B|272:318|243:301|243:301|210:284|169:301,1,128,2|0,0:0|0:0,0:0:0:0:
136,362,45007,1,2,0:0:0:0:
136,362,45192,2,0,P|102:305|127:240,1,128,2|2,0:0|0:0,0:0:0:0:
191,214,45748,1,8,0:0:0:0:
426,103,46118,5,2,0:0:0:0:
426,103,46303,2,0,P|368:118|307:57,2,128,0|8|0,0:0|0:0|0:0,0:0:0:0:
382,34,47229,1,8,0:0:0:0:
125,120,47599,5,2,0:0:0:0:
125,120,47785,2,0,P|157:137|209:119,1,64,2|2,0:0|0:0,0:0:0:0:
278,160,48155,2,0,P|247:179|236:233,1,64,8|2,0:0|0:0,0:0:0:0:
168,271,48525,1,0,0:0:0:0:
168,271,48711,2,0,P|166:234|125:198,1,64,8|0,0:0|0:0,0:0:0:0:
95,52,49081,5,2,0:0:0:0:
19,92,49266,2,0,L|-1:236,2,128,0|8|2,0:0|0:0|0:0,0:0:0:0:
95,52,50192,1,8,0:0:0:0:
191,157,50377,6,0,P|148:190|70:161,1,120,2|0,0:0|0:0,0:0:0:0:
77,164,50748,1,2,0:0:0:0:
225,245,50933,2,0,P|267:219|313:232,1,80,8|2,0:0|0:0,0:0:0:0:
446,298,51303,5,8,0:0:0:0:
432,312,51395,1,8,0:0:0:0:
414,321,51488,1,8,0:0:0:0:
394,324,51580,1,8,0:0:0:0:
375,320,51673,2,0,B|351:198|351:198|362:227|412:252,1,180.000006866455,8|0,0:0|0:0,0:0:0:0:
289,281,52044,6,0,P|245:281|204:236,1,80,6|0,0:0|0:0,0:0:0:0:
162,121,52414,2,0,L|136:282,1,160,8|2,0:0|0:0,0:0:0:0:
6,259,52970,1,2,0:0:0:0:
6,259,53155,2,0,P|48:247|76:193,1,80,8|0,0:0|0:0,0:0:0:0:
42,139,53525,5,2,0:0:0:0:
142,172,53711,2,0,P|158:217|135:274,1,80,2|8,0:0|0:0,0:0:0:0:
112,92,54081,2,0,B|154:77|192:103|192:103|234:125|275:102,1,160,2|2,0:0|0:0,0:0:0:0:
331,49,54636,1,8,0:0:0:0:
419,299,55007,6,0,L|428:205,1,80,2|8,0:0|0:0,0:0:0:0:
426,219,55285,1,8,0:0:0:0:
426,219,55377,1,8,0:0:0:0:
347,133,55562,6,0,L|357:200,1,40,2|0,0:0|0:0,0:0:0:0:
493,369,55933,2,0,L|498:329,1,40,2|0,0:0|0:0,0:0:0:0:
397,67,56303,6,0,B|359:32|311:48|311:48|287:80|233:74,1,160,6|2,0:0|0:0,0:0:0:0:
148,31,56859,2,0,P|173:91|158:135,1,80,8|2,0:0|0:0,0:0:0:0:
25,160,57229,1,8,0:0:0:0:
48,151,57321,1,8,0:0:0:0:
73,150,57414,1,8,0:0:0:0:
97,156,57506,1,8,0:0:0:0:
119,168,57599,1,8,0:0:0:0:
140,181,57691,1,8,0:0:0:0:
164,188,57784,1,8,0:0:0:0:
189,187,57877,1,8,0:0:0:0:
212,179,57970,6,0,P|196:223|209:279,1,80,6|0,0:0|0:0,0:0:0:0:
175,348,58340,2,0,P|144:312|89:295,1,80,8|0,0:0|0:0,0:0:0:0:
87,130,58711,1,2,0:0:0:0:
45,232,58896,2,0,P|91:223|133:184,1,80,2|8,0:0|0:0,0:0:0:0:
240,144,59266,6,0,B|198:159|160:133|160:133|118:111|77:134,1,160,2|2,0:0|0:0,0:0:0:0:
280,217,59822,2,0,P|321:159|269:64,1,160,8|2,0:0|0:0,0:0:0:0:
240,144,60377,1,0,0:0:0:0:
314,290,60562,2,0,P|362:288|394:259,1,80,8|0,0:0|0:0,0:0:0:0:
484,171,60933,6,0,P|461:213|470:255,1,80,2|0,0:0|0:0,0:0:0:0:
500,379,61303,2,0,P|474:338|433:325,1,80,8|0,0:0|0:0,0:0:0:0:
446,326,61581,1,0,0:0:0:0:
446,326,61673,1,2,0:0:0:0:
366,363,61859,1,2,0:0:0:0:
292,320,62044,1,8,0:0:0:0:
349,188,62229,6,0,B|372:181|385:164|385:164|366:300,1,160,2|2,0:0|0:0,0:0:0:0:
292,320,62785,2,0,P|242:319|216:287,1,80,8|0,0:0|0:0,0:0:0:0:
138,167,63155,2,0,P|162:210|147:249,1,80,2|0,0:0|0:0,0:0:0:0:
72,226,63525,5,8,0:0:0:0:
241,179,63711,1,2,0:0:0:0:
241,179,64081,5,8,0:0:0:0:
187,32,64266,2,0,P|178:75|179:148,1,80,8|0,0:0|0:0,0:0:0:0:
258,272,64636,5,8,0:0:0:0:
258,272,64822,2,0,P|250:213|233:159,1,95.9999970703126,8|2,0:0|0:0,0:0:0:0:
60,131,65192,6,0,P|122:130|190:101,1,120.000004577637,8|0,0:0|0:0,0:0:0:0:
378,204,65562,6,0,P|291:175|222:181,1,143.999995605469,8|0,0:0|0:0,0:0:0:0:
22,235,65933,6,0,B|93:199|163:255|163:255|263:330|345:250,1,320,8|2,0:0|0:0,0:0:0:0:
378,204,66396,5,2,0:0:0:0:
378,204,66488,2,0,L|366:127,1,60,2|0,0:0|0:0,0:0:0:0:
348,41,66859,6,0,L|343:128,1,88.000002685547,6|0,0:0|0:0,0:0:0:0:
378,204,67229,1,8,0:0:0:0:
259,321,67414,2,0,P|233:318|188:290,2,44.0000013427735,2|0|0,0:0|0:0|0:0,0:0:0:0:
324,268,67785,2,0,P|343:322|327:370,1,88.000002685547,0|8,0:0|0:0,0:0:0:0:
247,229,68155,6,0,B|205:211|166:237|166:237|119:269|57:236,1,176.000005371094,2|2,0:0|0:0,0:0:0:0:
100,82,68711,2,0,P|120:132|106:179,1,88.000002685547,8|2,0:0|0:0,0:0:0:0:
114,164,68988,1,0,0:0:0:0:
114,164,69081,2,0,P|60:159|27:117,1,88.000002685547,2|2,0:0|0:0,0:0:0:0:
100,82,69451,2,0,P|154:87|187:129,1,88.000002685547,8|0,0:0|0:0,0:0:0:0:
302,218,69822,6,0,P|388:227|430:135,1,176.000005371094,2|8,0:0|0:0,0:0:0:0:
351,150,70377,2,0,L|330:86,2,44.0000013427735,2|0|0,0:0|0:0|0:0,0:0:0:0:
352,31,70748,2,0,P|298:36|258:85,1,88.000002685547,2|8,0:0|0:0,0:0:0:0:
118,124,71118,6,0,B|158:96|207:109|207:109|242:150|303:133,1,176.000005371094,2|2,0:0|0:0,0:0:0:0:
400,259,71673,2,0,P|340:260|314:294,1,88.000002685547,8|2,0:0|0:0,0:0:0:0:
322,277,71951,1,0,0:0:0:0:
322,277,72044,2,0,P|348:325|411:333,1,88.000002685547,2|2,0:0|0:0,0:0:0:0:
460,206,72414,2,0,P|403:175|343:197,1,132.00000402832,8|0,0:0|0:0,0:0:0:0:
343,197,72785,6,0,B|301:215|262:189|262:189|215:157|153:190,1,176.000005371094,2|8,0:0|0:0,0:0:0:0:
128,251,73340,1,2,0:0:0:0:
202,335,73525,2,0,P|222:291|209:249,1,88.000002685547,0|2,0:0|0:0,0:0:0:0:
77,89,73896,1,8,0:0:0:0:
24,158,74081,6,0,P|106:170|164:86,1,176.000005371094,2|0,0:0|0:0,0:0:0:0:
231,12,74636,2,0,P|229:58|276:111,1,88.000002685547,8|0,0:0|0:0,0:0:0:0:
249,93,74914,1,0,0:0:0:0:
249,93,75007,2,0,P|298:88|340:33,1,88.000002685547,2|2,0:0|0:0,0:0:0:0:
432,188,75377,2,0,P|397:161|354:159,1,88.000002685547,8|0,0:0|0:0,0:0:0:0:
303,328,75748,2,0,P|337:354|380:356,1,88.000002685547,2|2,0:0|0:0,0:0:0:0:
432,188,76118,5,8,0:0:0:0:
262,249,76303,1,2,0:0:0:0:
419,277,76488,1,0,0:0:0:0:
281,160,76673,1,0,0:0:0:0:
333,305,76859,1,8,0:0:0:0:
365,126,77044,6,0,B|323:144|284:118|284:118|237:86|175:119,1,176.000005371094,2|8,0:0|0:0,0:0:0:0:
130,163,77599,2,0,P|95:167|43:132,1,88.000002685547,8|2,0:0|0:0,0:0:0:0:
214,193,77970,1,2,0:0:0:0:
241,234,78062,1,2,0:0:0:0:
231,281,78155,1,2,0:0:0:0:
191,308,78247,1,2,0:0:0:0:
144,299,78340,1,8,0:0:0:0:
117,259,78432,1,8,0:0:0:0:
125,212,78525,1,8,0:0:0:0:
165,184,78618,1,8,0:0:0:0:
213,193,78711,6,0,P|265:193|315:143,1,88.000002685547,6|2,0:0|0:0,0:0:0:0:
362,229,79081,1,8,0:0:0:0:
444,116,79266,2,0,P|441:85|425:52,2,44.0000013427735,2|0|0,0:0|0:0|0:0,0:0:0:0:
370,149,79636,2,0,P|350:92|364:52,1,88.000002685547,2|8,0:0|0:0,0:0:0:0:
198,20,80007,6,0,L|182:204,1,176.000005371094,2|2,0:0|0:0,0:0:0:0:
237,264,80562,2,0,P|287:264|322:229,1,88.000002685547,8|2,0:0|0:0,0:0:0:0:
315,241,80840,1,0,0:0:0:0:
315,241,80933,5,0,0:0:0:0:
261,178,81118,1,2,0:0:0:0:
182,196,81303,1,8,0:0:0:0:
162,277,81488,1,0,0:0:0:0:
256,332,81673,5,2,0:0:0:0:
205,119,81859,2,0,L|192:61,2,44.0000013427735,8|8|8,0:0|0:0|0:0,0:0:0:0:
56,275,82229,5,2,0:0:0:0:
390,189,82599,1,2,0:0:0:0:
56,275,82970,6,0,B|96:247|145:260|145:260|180:301|241:284,1,176.000005371094,6|2,0:0|0:0,0:0:0:0:
198,125,83525,2,0,P|146:151|127:198,1,88.000002685547,8|2,0:0|0:0,0:0:0:0:
285,239,83896,2,0,P|289:178|258:138,1,88.000002685547,2|2,0:0|0:0,0:0:0:0:
138,41,84266,5,8,0:0:0:0:
155,68,84358,1,8,0:0:0:0:
183,85,84451,1,8,0:0:0:0:
216,88,84543,1,8,0:0:0:0:
246,76,84636,2,0,B|288:58|327:84|327:84|374:116|436:83,1,176.000005371094,6|8,0:0|0:0,0:0:0:0:
279,153,85192,2,0,P|270:183|267:226,2,44.0000013427735,2|0|0,0:0|0:0|0:0,0:0:0:0:
342,92,85562,1,2,0:0:0:0:
195,153,85748,1,8,0:0:0:0:
327,261,85933,6,0,P|373:263|416:230,1,88.000002685547,2|0,0:0|0:0,0:0:0:0:
511,185,86303,1,0,0:0:0:0:
511,185,86488,2,0,P|486:223|493:277,1,88.000002685547,8|0,0:0|0:0,0:0:0:0:
481,384,86859,2,0,P|459:343|409:322,1,88.000002685547,2|0,0:0|0:0,0:0:0:0:
343,358,87229,1,8,0:0:0:0:
333,180,87414,6,0,B|363:169|374:152|374:152|349:309,1,176.000005371094,6|0,0:0|0:0,0:0:0:0:
202,340,87970,2,0,P|242:308|293:311,1,88.000002685547,8|0,0:0|0:0,0:0:0:0:
277,305,88248,1,0,0:0:0:0:
277,305,88340,1,2,0:0:0:0:
343,358,88525,5,2,0:0:0:0:
290,184,88711,1,8,0:0:0:0:
167,317,88896,2,0,B|125:335|86:309|86:309|39:277|-23:310,1,176.000005371094,2|2,0:0|0:0,0:0:0:0:
134,236,89451,6,0,L|145:114,1,103.999995239258,8|0,0:0|0:0,0:0:0:0:
274,64,89822,6,0,L|295:229,1,128,2|0,0:0|0:0,0:0:0:0:
438,262,90192,5,8,0:0:0:0:
438,262,90285,1,8,0:0:0:0:
438,262,90377,2,0,L|442:172,1,75.9999979705811,8|8,0:0|0:0,0:0:0:0:
445,112,90562,6,0,P|372:155|444:263,1,240,8|0,0:0|0:0,0:0:0:0:
67,112,91859,6,0,P|141:155|69:263,1,240,6|8,0:0|0:0,0:0:0:0:
71,188,92414,1,8,0:0:0:0:
254,56,92970,5,2,0:0:0:0:
254,56,93062,1,2,0:0:0:0:
254,56,93155,2,0,B|299:38|342:66|342:66|391:101|456:57,1,180.000006866455,6|0,0:0|0:0,0:0:0:0:
500,107,93525,6,0,P|447:93|392:187,1,160,4|8,0:0|0:0,0:0:0:0:
447,226,94081,2,0,P|492:218|515:186,1,80,0|0,0:0|0:0,0:0:0:0:
372,87,94451,2,0,L|389:177,1,80,2|8,0:0|0:0,0:0:0:0:
291,313,94822,6,0,L|308:166,1,120,2|0,0:0|0:0,0:0:0:0:
304,193,95192,2,0,P|263:216|216:207,1,80,0|8,0:0|0:0,0:0:0:0:
180,148,95562,2,0,B|139:133|103:157|103:157|62:182|19:161,1,160,2|0,0:0|0:0,0:0:0:0:
137,303,96118,2,0,P|154:254|145:219,1,80,8|2,0:0|0:0,0:0:0:0:
148,227,96396,1,2,0:0:0:0:
148,227,96488,6,0,P|214:274|299:242,1,160,6|8,0:0|0:0,0:0:0:0:
380,192,97044,2,0,P|363:246|375:281,1,80,2|0,0:0|0:0,0:0:0:0:
375,379,97414,2,0,P|336:337|300:330,1,80,2|8,0:0|0:0,0:0:0:0:
380,192,97785,6,0,P|307:247|226:223,1,160,2|2,0:0|0:0,0:0:0:0:
253,152,98340,2,0,P|281:128|344:136,1,80,8|0,0:0|0:0,0:0:0:0:
482,90,98711,1,8,0:0:0:0:
453,97,98803,1,8,0:0:0:0:
423,93,98896,1,8,0:0:0:0:
396,80,98988,1,8,0:0:0:0:
375,59,99081,2,0,P|404:121|383:185,1,120,8|8,0:0|0:0,0:0:0:0:
393,169,99451,6,0,L|228:155,1,160,6|8,0:0|0:0,0:0:0:0:
111,243,100007,2,0,P|169:238|193:211,1,80,2|2,0:0|0:0,0:0:0:0:
179,88,100377,2,0,P|130:68|83:84,1,80,2|8,0:0|0:0,0:0:0:0:
0,177,100748,6,0,L|114:170,1,80,2|0,0:0|0:0,0:0:0:0:
182,247,101118,6,0,L|109:251,1,40,2|0,0:0|0:0,0:0:0:0:
64,254,101303,2,0,L|-9:258,1,40,8|0,0:0|0:0,0:0:0:0:
51,335,101488,6,0,L|165:328,1,80,2|0,0:0|0:0,0:0:0:0:
257,204,101859,1,8,0:0:0:0:
282,198,101951,1,8,0:0:0:0:
309,201,102044,1,8,0:0:0:0:
333,212,102136,1,8,0:0:0:0:
357,223,102229,1,8,0:0:0:0:
383,226,102321,1,8,0:0:0:0:
409,220,102414,5,8,0:0:0:0:
239,285,102599,1,2,0:0:0:0:
399,310,102785,5,8,0:0:0:0:
257,195,102970,1,2,0:0:0:0:
313,339,103155,5,8,0:0:0:0:
341,158,103340,1,2,0:0:0:0:
239,285,103525,5,8,0:0:0:0:
409,220,103710,1,2,0:0:0:0:
324,250,103896,5,8,0:0:0:0:
58,38,104266,2,0,L|73:131,1,80,8|2,0:0|0:0,0:0:0:0:
119,186,104636,1,8,0:0:0:0:
119,186,104729,1,8,0:0:0:0:
119,186,104822,2,0,P|112:216|103:241,2,40,8|8|8,0:0|0:0|0:0,0:0:0:0:
71,117,105192,1,2,0:0:0:0:
190,334,105562,5,2,0:0:0:0:
323,304,105748,1,2,0:0:0:0:
195,109,106118,5,2,0:0:0:0:
333,152,106303,1,2,0:0:0:0:
210,296,106673,5,2,0:0:0:0:
305,277,106859,1,2,0:0:0:0:
215,153,107229,5,2,0:0:0:0:
306,179,107414,1,2,0:0:0:0:
57,277,107785,6,0,P|25:238|64:167,1,120.000004577637,2|0,0:0|0:0,0:0:0:0:
123,193,108340,1,4,0:0:0:0:
256,192,108433,12,0,111304,0:0:0:0:
