osu file format v14

[General]
AudioFilename: audio.mp3
AudioLeadIn: 0
PreviewTime: 66766
Countdown: 0
SampleSet: Soft
StackLeniency: 0.7
Mode: 0
LetterboxInBreaks: 0
WidescreenStoryboard: 0

[Editor]
DistanceSpacing: 1.3
BeatDivisor: 4
GridSize: 8
TimelineZoom: 2

[Metadata]
Title:Noraneko Heart
TitleUnicode:野良猫ハート
Artist:Haruka Sora, Kotorii Yuuka, Kamishiro Misaki, Kiritani Hana
ArtistUnicode:遥そら、小鳥居夕花、神代岬、桐谷華
Creator:Asuka_-
Version:Hard
Source:ノラと皇女と野良猫ハート
Tags:eroge opening HARUKAZE oujo Hato to 黒木 未知 パトリシア・オブ・エンド 夕莉 シャチ 明日原 ユウキ Kuroki Michi Patricia of end Yuuri shachi Asuhara Yuuki Firis Mistlud KuranteMelodii makisokk Left
BeatmapID:1352604
BeatmapSetID:637579

[Difficulty]
HPDrainRate:5
CircleSize:4
OverallDifficulty:6
ApproachRate:7.5
SliderMultiplier:1.4
SliderTickRate:1

[Events]
//Background and Video events
0,0,"BG.jpg",0,0
//Break Periods
//Storyboard Layer 0 (Background)
//Storyboard Layer 1 (Fail)
//Storyboard Layer 2 (Pass)
//Storyboard Layer 3 (Foreground)
//Storyboard Sound Samples

[TimingPoints]
1674,370.37037037037,4,2,2,40,1,0
1674,-133.333333333333,4,2,2,40,0,0
7044,-133.333333333333,4,2,1,40,0,0
7599,-111.111111111111,4,2,1,40,0,0
15562,-111.111111111111,4,2,2,40,0,0
15748,-111.111111111111,4,2,2,40,0,0
16488,-125,4,2,1,50,0,0
40099,-125,4,2,1,15,0,0
40192,-133.333333333333,4,2,1,40,0,0
52044,-111.111111111111,4,2,1,50,0,0
66488,-133.333333333333,4,2,1,50,0,0
66859,-100,4,2,1,70,0,1
90562,-100,4,2,1,60,0,0
91859,-111.111111111111,4,2,1,60,0,0
93525,-111.111111111111,4,2,1,60,0,0
107785,-133.333333333333,4,2,1,60,0,0
108248,-133.333333333333,4,2,1,15,0,0
108340,-133.333333333333,4,2,1,45,0,0
111303,-100,4,2,1,15,0,0

[Colours]
Combo1 : 168,255,255
Combo2 : 251,0,0
Combo3 : 255,255,21
Combo4 : 0,191,0

[HitObjects]
424,358,1674,6,0,P|432:305|440:239,1,105.000004005432,2|0,0:0|0:0,0:0:0:0:
472,192,2229,1,2,0:0:0:0:
376,87,2599,1,2,0:0:0:0:
286,197,2970,2,0,P|290:225|294:254,1,52.5000020027161,2|0,0:0|0:0,0:0:0:0:
11,201,4266,1,2,0:0:0:0:
39,336,4636,6,0,P|90:338|159:343,1,105.000004005432,2|0,0:0|0:0,0:0:0:0:
211,363,5192,1,2,0:0:0:0:
413,351,5748,2,0,P|418:327|428:282,1,52.5000020027161,2|0,0:0|0:0,0:0:0:0:
377,246,6118,2,0,P|370:202|362:128,1,105.000004005432,2|0,0:0|0:0,0:0:0:0:
411,90,6673,1,2,0:0:0:0:
283,28,7044,2,0,P|253:31|213:37,1,52.5000020027161,2|6,0:0|0:0,0:0:0:0:
63,61,7599,6,0,P|57:97|49:148,1,62.9999980773926,2|0,0:0|0:0,0:0:0:0:
66,204,7970,1,8,0:0:0:0:
97,279,8155,2,0,P|127:289|165:288,1,62.9999980773926,2|0,0:0|0:0,0:0:0:0:
220,235,8525,2,0,P|255:225|298:225,1,62.9999980773926,2|8,0:0|0:0,0:0:0:0:
341,280,8896,6,0,P|408:304|467:261,1,125.999996154785,2|0,0:0|0:0,0:0:0:0:
500,213,9451,2,0,P|505:179|508:139,1,62.9999980773926,8|0,0:0|0:0,0:0:0:0:
475,74,9822,1,2,0:0:0:0:
475,74,10007,1,2,0:0:0:0:
413,128,10192,2,0,P|376:135|325:136,1,62.9999980773926,8|0,0:0|0:0,0:0:0:0:
291,80,10562,6,0,P|260:74|222:75,1,62.9999980773926,2|0,0:0|0:0,0:0:0:0:
154,109,10933,1,8,0:0:0:0:
94,52,11118,2,0,P|119:103|75:170,1,125.999996154785,2|0,0:0|0:0,0:0:0:0:
32,218,11673,2,0,P|31:252|40:300,1,62.9999980773926,10|0,0:0|0:0,0:0:0:0:
80,348,12044,5,2,0:0:0:0:
153,383,12229,1,8,0:0:0:0:
231,361,12414,1,8,0:0:0:0:
268,288,12599,2,0,P|286:297|308:303,2,31.4999990386963,4|2|2,0:3|0:0|0:0,0:0:0:0:
222,219,12970,1,2,0:0:0:0:
196,141,13155,2,0,P|199:111|212:64,1,62.9999980773926,0|0,0:0|0:0,0:0:0:0:
256,14,13525,5,2,0:0:0:0:
307,77,13711,1,8,0:0:0:0:
307,77,13896,1,8,0:0:0:0:
463,29,14266,1,8,0:0:0:0:
463,29,14451,1,8,0:0:0:0:
506,187,14822,1,8,0:0:0:0:
506,187,15007,1,8,0:0:0:0:
349,233,15377,1,8,0:0:0:0:
349,233,15562,1,2,0:0:0:0:
288,189,15748,6,0,P|287:171|281:129,3,31.4999990386963,2|2|2|2,0:0|0:0|0:0|0:0,0:0:0:0:
256,227,16118,2,0,P|252:242|245:271,3,31.4999990386963,2|2|2|2,0:0|0:0|0:0|0:0,0:0:0:0:
223,196,16488,5,6,0:0:0:0:
106,284,16859,2,0,P|103:254|98:217,1,56,8|0,0:0|0:0,0:0:0:0:
61,166,17229,2,0,P|60:139|68:99,1,56,2|0,0:0|0:0,0:0:0:0:
114,57,17599,1,8,0:0:0:0:
164,110,17785,6,0,P|220:133|279:108,1,112,2|2,0:0|0:0,0:0:0:0:
323,72,18340,2,0,P|354:61|395:71,1,56,8|0,0:0|0:0,0:0:0:0:
441,97,18711,2,0,P|439:128|435:166,1,56,2|0,0:0|0:0,0:0:0:0:
379,197,19081,2,0,P|383:229|389:268,1,56,8|0,0:0|0:0,0:0:0:0:
448,290,19451,6,0,P|386:293|324:299,1,112,2|8,0:0|0:0,0:0:0:0:
273,335,20007,1,0,0:0:0:0:
221,283,20192,2,0,P|222:260|228:220,1,56,2|2,0:0|0:0,0:0:0:0:
264,165,20562,1,8,0:0:0:0:
226,104,20748,6,0,P|161:87|111:122,1,112,2|0,0:0|0:0,0:0:0:0:
81,165,21303,2,0,P|81:192|86:247,1,56,8|0,0:0|0:0,0:0:0:0:
124,290,21673,1,2,0:0:0:0:
124,290,21859,1,2,0:0:0:0:
187,244,22044,2,0,P|217:241|254:250,1,56,8|0,0:0|0:0,0:0:0:0:
293,296,22414,6,0,P|348:313|412:295,1,112,2|8,0:0|0:0,0:0:0:0:
450,248,22970,2,0,P|454:215|458:170,1,56,2|2,0:0|0:0,0:0:0:0:
426,126,23340,1,2,0:0:0:0:
426,126,23525,1,8,0:0:0:0:
374,177,23711,6,0,P|329:202|262:184,1,112,2|2,0:0|0:0,0:0:0:0:
223,137,24266,2,0,P|203:131|160:133,1,56,8|0,0:0|0:0,0:0:0:0:
122,187,24636,2,0,P|94:196|47:198,1,56,2|0,0:0|0:0,0:0:0:0:
6,159,25007,2,0,L|0:80,1,56,8|0,0:0|0:0,0:0:0:0:
32,37,25377,6,0,P|92:17|147:43,1,112,2|8,0:0|0:0,0:0:0:0:
195,75,25933,1,2,0:0:0:0:
252,119,26118,2,0,P|280:128|327:118,1,56,2|0,0:0|0:0,0:0:0:0:
366,85,26488,1,8,0:0:0:0:
423,129,26673,6,0,P|432:191|436:240,1,112,2|0,0:0|0:0,0:0:0:0:
402,305,27229,1,8,0:0:0:0:
344,259,27414,2,0,P|318:253|273:252,1,56,2|0,0:0|0:0,0:0:0:0:
236,302,27785,1,2,0:0:0:0:
187,247,27970,2,0,L|177:213,3,28,8|8|8|8,0:0|0:0|0:0|0:0,0:0:0:0:
162,284,28340,5,12,0:0:0:0:
42,199,28711,2,0,P|42:172|51:141,1,56,8|0,0:0|0:0,0:0:0:0:
96,88,29081,2,0,P|121:80|153:79,1,56,2|0,0:0|0:0,0:0:0:0:
219,103,29451,1,8,0:0:0:0:
288,80,29637,6,0,P|357:73|396:100,1,112,2|0,0:0|0:0,0:0:0:0:
430,155,30192,2,0,P|428:183|423:229,1,56,8|0,0:0|0:0,0:0:0:0:
398,278,30563,2,0,P|368:284|325:286,1,56,2|2,0:0|0:0,0:0:0:0:
277,253,30933,2,0,P|245:248|199:249,1,56,8|0,0:0|0:0,0:0:0:0:
172,301,31303,6,0,P|121:326|50:300,1,112,2|8,0:0|0:0,0:0:0:0:
16,264,31859,1,0,0:0:0:0:
43,196,32044,2,0,P|48:166|48:130,1,56,2|2,0:0|0:0,0:0:0:0:
14,76,32414,1,8,0:0:0:0:
60,19,32600,6,0,L|189:37,1,112,2|2,0:0|0:0,0:0:0:0:
232,73,33155,2,0,L|310:68,1,56,8|2,0:0|0:0,0:0:0:0:
356,45,33525,2,0,L|426:52,1,56,2|0,0:0|0:0,0:0:0:0:
449,113,33896,1,8,0:0:0:0:
435,182,34081,6,0,P|425:220|421:260,1,56,2|6,0:0|0:0,0:0:0:0:
449,303,34451,1,0,0:0:0:0:
401,358,34636,2,0,P|363:369|327:366,1,56,8|0,0:0|0:0,0:0:0:0:
284,330,35007,2,0,P|257:324|216:325,1,56,2|2,0:0|0:0,0:0:0:0:
165,359,35377,1,8,0:0:0:0:
108,312,35562,6,0,P|103:257|96:199,1,112,6|0,0:0|0:0,0:0:0:0:
52,142,36118,2,0,P|54:107|63:73,1,56,8|0,0:0|0:0,0:0:0:0:
100,27,36488,2,0,P|131:27|169:35,1,56,2|2,0:0|0:0,0:0:0:0:
220,76,36859,1,8,0:0:0:0:
220,76,37044,1,0,0:0:0:0:
168,130,37229,6,0,P|168:164|176:202,1,56,6|0,0:0|0:0,0:0:0:0:
212,246,37600,1,8,0:0:0:0:
279,272,37785,2,0,L|286:305,2,28,8|8|8,0:0|0:0|0:0,0:0:0:0:
351,263,38155,1,2,0:0:0:0:
421,244,38340,1,2,0:0:0:0:
477,198,38525,6,0,P|482:170|487:140,1,56,6|0,0:0|0:0,0:0:0:0:
459,74,38896,1,2,0:0:0:0:
459,74,39081,1,8,0:0:0:0:
392,32,39266,2,0,P|332:14|277:45,1,112,2|4,0:0|0:3,0:0:0:0:
265,102,39822,2,0,P|265:130|268:177,1,56,4|0,0:3|0:0,0:0:0:0:
295,229,40192,5,6,0:3:0:0:
295,229,40377,2,0,L|417:223,1,105.000004005432,4|0,0:3|0:0,0:0:0:0:
469,209,40933,2,0,P|495:155|467:96,1,105.000004005432,0|4,0:0|0:3,0:0:0:0:
360,43,41673,1,2,0:0:0:0:
360,43,41859,2,0,L|249:51,1,105.000004005432,2|0,0:0|0:0,0:0:0:0:
187,72,42414,2,0,P|161:115|181:181,1,105.000004005432,0|8,0:0|0:3,0:0:0:0:
286,248,43155,6,0,P|303:305|270:354,1,105.000004005432,2|0,0:0|0:0,0:0:0:0:
221,377,43711,1,2,0:0:0:0:
104,309,44081,1,2,0:0:0:0:
192,205,44451,2,0,P|186:149|180:94,1,105.000004005432,2|0,0:0|0:0,0:0:0:0:
116,70,45007,2,0,P|112:44|107:10,1,52.5000020027161,2|2,0:0|0:0,0:0:0:0:
6,357,46118,6,0,P|48:367|115:359,1,105.000004005432,2|2,0:0|0:0,0:0:0:0:
219,271,46859,1,2,0:0:0:0:
331,357,47229,1,4,0:3:0:0:
468,322,47599,2,0,L|481:213,1,105.000004005432,2|2,0:0|0:0,0:0:0:0:
430,84,48340,2,0,P|376:65|319:89,1,105.000004005432,2|8,0:0|0:0,0:0:0:0:
286,213,49081,6,0,P|219:262|136:229,1,157.500006008148,4|8,0:3|0:0,0:0:0:0:
105,190,49822,2,0,P|98:164|93:123,1,52.5000020027161,0|2,0:0|0:0,0:0:0:0:
116,71,50192,1,8,0:0:0:0:
167,22,50377,2,0,P|223:12|279:37,1,105.000004005432,2|2,0:0|0:0,0:0:0:0:
315,80,50933,2,0,P|314:103|310:138,1,52.5000020027161,8|2,0:0|0:0,0:0:0:0:
267,188,51303,2,0,L|220:191,3,26.2500010013581,8|8|8|8,0:0|0:0|0:0|0:0,0:0:0:0:
295,220,51673,2,0,L|332:225,3,26.2500010013581,10|0|4|0,0:0|0:0|0:3|0:0,0:0:0:0:
271,257,52044,6,0,L|137:267,1,125.999996154785,6|8,0:0|0:0,0:0:0:0:
65,248,52599,1,0,0:0:0:0:
12,184,52785,2,0,P|12:152|22:114,1,62.9999980773926,2|2,0:0|0:0,0:0:0:0:
69,56,53155,2,0,P|100:51|147:48,1,62.9999980773926,8|0,0:0|0:0,0:0:0:0:
206,80,53525,6,0,P|246:124|212:197,1,125.999996154785,2|8,0:0|0:0,0:0:0:0:
172,242,54081,1,0,0:0:0:0:
215,311,54266,2,0,P|247:309|277:305,1,62.9999980773926,2|0,0:0|0:0,0:0:0:0:
323,237,54636,2,0,P|360:239|396:245,1,62.9999980773926,8|0,0:0|0:0,0:0:0:0:
442,302,55007,2,0,P|439:317|436:333,4,31.4999990386963,2|0|8|8|8,0:0|0:0|0:0|0:0|0:0,0:0:0:0:
501,246,55562,1,8,0:0:0:0:
367,151,55933,1,8,0:0:0:0:
500,57,56303,6,0,P|430:24|363:43,1,125.999996154785,6|2,0:0|0:0,0:0:0:0:
312,72,56859,1,8,0:0:0:0:
274,144,57044,1,2,0:0:0:0:
299,221,57229,2,0,P|319:215|340:210,3,31.4999990386963,8|8|8|8,0:0|0:0|0:0|0:0,0:0:0:0:
271,259,57599,2,0,P|252:258|218:257,3,31.4999990386963,8|8|8|8,0:0|0:0|0:0|0:0,0:0:0:0:
299,300,57970,6,0,P|329:305|369:309,1,62.9999980773926,6|0,0:0|0:0,0:0:0:0:
433,269,58340,2,0,P|440:235|444:196,1,62.9999980773926,8|0,0:0|0:0,0:0:0:0:
421,127,58711,1,2,0:0:0:0:
373,60,58896,1,2,0:0:0:0:
294,38,59081,1,8,0:0:0:0:
214,55,59266,6,0,P|173:104|175:177,1,125.999996154785,2|2,0:0|0:0,0:0:0:0:
207,237,59822,2,0,P|237:246|282:240,1,62.9999980773926,8|0,0:0|0:0,0:0:0:0:
339,203,60192,1,0,0:0:0:0:
418,185,60377,1,0,0:0:0:0:
489,225,60562,2,0,P|485:253|481:298,1,62.9999980773926,8|2,0:0|0:0,0:0:0:0:
448,362,60933,6,0,P|415:371|368:373,1,62.9999980773926,6|0,0:0|0:0,0:0:0:0:
321,324,61303,2,0,P|294:317|244:317,1,62.9999980773926,8|0,0:0|0:0,0:0:0:0:
180,338,61673,1,2,0:0:0:0:
105,371,61859,1,2,0:0:0:0:
29,338,62044,1,8,0:0:0:0:
6,259,62229,6,0,L|0:126,1,125.999996154785,2|2,0:0|0:0,0:0:0:0:
15,52,62785,2,0,P|45:43|85:45,1,62.9999980773926,8|0,0:0|0:0,0:0:0:0:
149,81,63155,1,2,0:0:0:0:
226,106,63340,1,0,0:0:0:0:
305,87,63525,1,8,0:0:0:0:
368,34,63711,2,0,P|402:30|448:40,1,62.9999980773926,6|0,0:0|0:0,0:0:0:0:
492,87,64081,5,8,0:0:0:0:
492,87,64266,1,8,0:0:0:0:
367,193,64636,1,8,0:0:0:0:
367,193,64822,1,0,0:0:0:0:
503,282,65192,1,8,0:0:0:0:
370,378,65562,1,8,0:0:0:0:
250,265,65933,1,8,0:0:0:0:
111,352,66303,2,0,L|104:390,2,31.4999990386963,4|4|6,0:3|0:3|0:0,0:0:0:0:
11,199,66859,6,0,P|15:158|20:119,1,70,6|0,0:0|0:0,0:0:0:0:
78,60,67229,1,8,0:0:0:0:
153,109,67414,2,0,P|219:133|294:84,1,140,2|0,0:0|0:0,0:0:0:0:
351,49,67970,1,8,0:0:0:0:
431,91,68155,6,0,P|426:124|423:179,1,70,2|0,0:0|0:0,0:0:0:0:
440,249,68525,1,2,0:0:0:0:
396,329,68711,1,8,0:0:0:0:
314,368,68896,2,0,P|246:334|245:255,1,140,2|2,0:0|0:0,0:0:0:0:
301,211,69451,2,0,P|310:177|304:119,1,70,8|0,0:0|0:0,0:0:0:0:
262,63,69822,5,2,0:0:0:0:
179,25,70007,1,0,0:0:0:0:
89,40,70192,1,8,0:0:0:0:
32,110,70377,2,0,P|30:145|38:209,1,70,2|0,0:0|0:0,0:0:0:0:
61,266,70748,2,0,P|97:272|146:269,1,70,2|8,0:0|0:0,0:0:0:0:
180,195,71118,6,0,P|239:186|279:189,1,70,2|0,0:0|0:0,0:0:0:0:
323,238,71488,1,2,0:0:0:0:
410,260,71673,1,8,0:0:0:0:
493,222,71859,2,0,L|505:80,1,140,2|2,0:0|0:0,0:0:0:0:
441,16,72414,2,0,P|413:19|355:26,1,70,8|2,0:0|0:0,0:0:0:0:
291,67,72785,5,2,0:0:0:0:
210,109,72970,1,0,0:0:0:0:
120,92,73155,1,8,0:0:0:0:
44,40,73340,2,0,P|35:75|32:109,1,70,2|0,0:0|0:0,0:0:0:0:
89,179,73711,2,0,P|94:219|97:257,1,70,2|8,0:0|0:0,0:0:0:0:
41,321,74081,6,0,P|95:282|173:298,1,140,2|0,0:0|0:0,0:0:0:0:
235,348,74636,2,0,P|264:355|328:348,1,70,8|0,0:0|0:0,0:0:0:0:
394,339,75007,1,2,0:0:0:0:
465,283,75192,1,2,0:0:0:0:
501,199,75377,2,0,P|502:170|495:125,1,70,8|0,0:0|0:0,0:0:0:0:
433,63,75748,6,0,P|350:44|297:99,1,140,6|8,0:0|0:0,0:0:0:0:
277,157,76303,2,0,P|203:197|141:166,1,140,0|0,0:0|0:0,0:0:0:0:
103,104,76859,1,8,0:0:0:0:
36,164,77044,6,0,L|15:313,1,140,6|8,0:0|0:0,0:0:0:0:
83,364,77599,2,0,P|114:361|174:349,1,70,8|8,0:0|0:0,0:0:0:0:
228,303,77970,2,0,L|231:256,3,35,8|8|4|4,0:3|0:3|0:3|0:3,0:0:0:0:
269,339,78340,2,0,L|277:379,3,35,8|8|8|8,0:0|0:0|0:0|0:0,0:0:0:0:
311,306,78711,6,0,P|343:297|384:297,1,70,6|0,0:0|0:0,0:0:0:0:
445,359,79081,1,8,0:0:0:0:
500,287,79266,2,0,P|501:218|506:125,1,140,2|2,0:0|0:0,0:0:0:0:
463,65,79822,1,8,0:0:0:0:
401,131,80007,6,0,P|374:145|321:145,1,70,2|0,0:0|0:0,0:0:0:0:
245,129,80377,1,2,0:0:0:0:
156,107,80563,1,8,0:0:0:0:
78,154,80748,2,0,P|47:222|92:296,1,140,2|2,0:0|0:0,0:0:0:0:
136,340,81303,2,0,P|178:349|220:340,1,70,8|0,0:0|0:0,0:0:0:0:
291,318,81674,5,6,0:0:0:0:
376,287,81859,2,0,P|378:271|385:237,2,35,8|8|8,0:0|0:0|0:0,0:0:0:0:
463,312,82229,2,0,P|469:277|477:244,1,70,6|0,0:0|0:0,0:0:0:0:
415,176,82600,2,0,P|407:140|403:99,1,70,6|0,0:0|0:0,0:0:0:0:
353,31,82970,6,0,P|318:32|283:39,1,70,6|0,0:0|0:0,0:0:0:0:
206,86,83340,1,2,0:0:0:0:
115,92,83525,1,8,0:0:0:0:
31,54,83711,2,0,L|15:199,1,140,2|2,0:0|0:0,0:0:0:0:
71,265,84266,2,0,P|67:287|63:313,3,35,8|8|8|8,0:0|0:0|0:0|0:0,0:0:0:0:
103,234,84637,5,6,0:0:0:0:
176,181,84822,1,0,0:0:0:0:
267,187,85007,1,8,0:0:0:0:
332,250,85192,2,0,P|330:288|320:319,1,70,2|0,0:0|0:0,0:0:0:0:
242,366,85563,2,0,L|149:372,1,70,2|8,0:0|0:0,0:0:0:0:
84,347,85933,6,0,P|46:298|68:219,1,140,2|0,0:0|0:0,0:0:0:0:
130,166,86488,2,0,P|175:163|221:174,1,70,8|0,0:0|0:0,0:0:0:0:
281,206,86859,1,2,0:0:0:0:
364,242,87044,1,2,0:0:0:0:
452,219,87229,1,8,0:0:0:0:
506,145,87415,6,0,P|511:83|449:34,1,140,6|0,0:0|0:0,0:0:0:0:
367,19,87970,2,0,P|326:22|272:34,1,70,8|0,0:0|0:0,0:0:0:0:
217,69,88340,1,2,0:0:0:0:
157,137,88525,1,2,0:0:0:0:
159,228,88711,1,8,0:0:0:0:
221,294,88896,6,0,L|373:305,1,140,6|0,0:0|0:0,0:0:0:0:
444,268,89451,2,0,P|462:233|459:194,1,70,8|0,0:0|0:0,0:0:0:0:
429,117,89822,2,0,P|400:105|346:102,1,70,2|0,0:0|0:0,0:0:0:0:
282,144,90192,2,0,L|290:184,3,35,8|8|8|8,0:0|0:0|0:0|0:0,0:0:0:0:
242,110,90562,5,6,0:0:0:0:
67,191,91859,6,0,P|64:232|61:260,1,62.9999980773926,4|0,1:2|0:0,0:0:0:0:
83,332,92229,1,8,0:0:0:0:
83,332,92414,1,4,1:2:0:0:
322,278,92970,1,2,0:0:0:0:
387,326,93155,2,0,P|416:330|466:309,1,62.9999980773926,0|0,1:0|0:0,0:0:0:0:
497,256,93525,6,0,L|514:112,1,125.999996154785,6|8,0:0|0:0,0:0:0:0:
488,51,94081,2,0,P|457:53|410:60,1,62.9999980773926,2|0,0:0|0:0,0:0:0:0:
372,119,94451,2,0,P|344:119|306:116,1,62.9999980773926,2|8,0:0|0:0,0:0:0:0:
255,53,94822,6,0,P|192:39|131:86,1,125.999996154785,2|2,0:0|0:0,0:0:0:0:
97,137,95377,1,8,0:0:0:0:
148,200,95562,2,0,L|139:325,1,125.999996154785,2|0,0:0|0:0,0:0:0:0:
72,373,96118,1,8,0:0:0:0:
5,325,96303,2,0,P|0:305|-3:277,1,31.4999990386963,2|2,0:0|0:0,0:0:0:0:
14,256,96488,6,0,P|21:223|24:185,1,62.9999980773926,6|0,0:0|0:0,0:0:0:0:
6,113,96859,1,8,0:0:0:0:
48,42,97044,2,0,P|77:37|127:35,1,62.9999980773926,2|0,0:0|0:0,0:0:0:0:
157,101,97414,2,0,P|194:107|230:105,1,62.9999980773926,2|8,0:0|0:0,0:0:0:0:
294,73,97785,6,0,P|340:37|424:62,1,125.999996154785,2|2,0:0|0:0,0:0:0:0:
463,100,98340,2,0,L|454:184,1,62.9999980773926,8|0,0:0|0:0,0:0:0:0:
444,244,98711,2,0,L|398:231,3,31.4999990386963,4|4|8|8,0:3|0:3|0:0|0:0,0:0:0:0:
466,286,99081,2,0,L|521:276,3,31.4999990386963,4|4|8|8,0:3|0:3|0:0|0:0,0:0:0:0:
452,330,99451,6,0,P|396:338|321:343,1,125.999996154785,6|8,0:0|0:0,0:0:0:0:
254,303,100007,2,0,P|224:297|187:298,1,62.9999980773926,2|0,0:0|0:0,0:0:0:0:
135,356,100377,2,0,P|98:370|53:367,1,62.9999980773926,2|8,0:0|0:0,0:0:0:0:
9,320,100748,6,0,L|16:185,1,125.999996154785,2|2,0:0|0:0,0:0:0:0:
61,126,101303,1,8,0:0:0:0:
119,182,101488,2,0,P|145:187|183:186,1,62.9999980773926,2|0,0:0|0:0,0:0:0:0:
249,139,101859,2,0,L|240:91,5,31.4999990386963,8|8|8|8|8|8,0:0|0:0|0:0|0:0|0:0|0:0,0:0:0:0:
284,171,102414,6,0,P|277:203|254:244,1,62.9999980773926,6|0,0:0|0:0,0:0:0:0:
203,285,102785,2,0,P|170:301|115:298,1,62.9999980773926,8|2,0:0|0:0,0:0:0:0:
65,282,103155,2,0,P|30:267|10:234,1,62.9999980773926,8|2,0:0|0:0,0:0:0:0:
6,166,103525,2,0,P|5:142|24:92,1,62.9999980773926,8|2,0:0|0:0,0:0:0:0:
69,41,103896,6,0,L|142:51,1,62.9999980773926,8|2,0:0|0:0,0:0:0:0:
168,122,104266,2,0,L|242:109,1,62.9999980773926,8|2,0:0|0:0,0:0:0:0:
285,51,104636,2,0,L|297:8,3,31.4999990386963,8|8|8|8,0:0|0:0|0:0|0:0,0:0:0:0:
309,92,105007,1,8,0:0:0:0:
385,63,105192,2,0,P|386:94|389:137,1,62.9999980773926,2|0,0:0|0:0,0:0:0:0:
443,185,105562,5,6,0:0:0:0:
443,185,105748,1,2,0:0:0:0:
350,319,106118,1,6,0:0:0:0:
350,319,106303,1,2,0:0:0:0:
279,171,106673,1,6,0:0:0:0:
279,171,106859,1,2,0:0:0:0:
208,318,107229,1,6,0:0:0:0:
208,318,107414,1,2,0:0:0:0:
145,166,107785,1,6,0:0:0:0:
256,192,108340,12,0,111303,0:0:0:0:
