osu file format v14

[General]
AudioFilename: audio.mp3
AudioLeadIn: 0
PreviewTime: 66766
Countdown: 0
SampleSet: Soft
StackLeniency: 0.6
Mode: 0
LetterboxInBreaks: 0
WidescreenStoryboard: 0

[Editor]
DistanceSpacing: 1.2
BeatDivisor: 4
GridSize: 8
TimelineZoom: 0.9999999

[Metadata]
Title:Noraneko Heart
TitleUnicode:野良猫ハート
Artist:Haruka Sora, Kotorii Yuuka, Kamishiro Misaki, Kiritani Hana
ArtistUnicode:遥そら、小鳥居夕花、神代岬、桐谷華
Creator:Asuka_-
Version:Firis' Normal
Source:ノラと皇女と野良猫ハート
Tags:eroge opening HARUKAZE oujo Hato to 黒木 未知 パトリシア・オブ・エンド 夕莉 シャチ 明日原 ユウキ Kuroki Michi Patricia of end Yuuri shachi Asuhara Yuuki Firis Mistlud KuranteMelodii makisokk Left
BeatmapID:1353368
BeatmapSetID:637579

[Difficulty]
HPDrainRate:4
CircleSize:3.6
OverallDifficulty:4
ApproachRate:5
SliderMultiplier:1.2
SliderTickRate:1

[Events]
//Background and Video events
0,0,"BG.jpg",0,0
//Break Periods
//Storyboard Layer 0 (Background)
//Storyboard Layer 1 (Fail)
//Storyboard Layer 2 (Pass)
//Storyboard Layer 3 (Foreground)
//Storyboard Sound Samples

[TimingPoints]
1674,370.37037037037,4,2,2,40,1,0
1674,-100,4,2,2,40,0,0
7044,-100,4,2,1,40,0,0
7599,-100,4,2,1,40,0,0
15562,-100,4,2,2,40,0,0
16488,-100,4,2,1,50,0,0
40099,-100,4,2,1,15,0,0
40192,-100,4,2,1,40,0,0
52044,-100,4,2,1,50,0,0
66488,-100,4,2,1,50,0,0
66859,-100,4,2,1,70,0,1
90562,-100,4,2,1,60,0,0
107785,-100,4,2,1,60,0,0
108248,-100,4,2,1,15,0,0
108340,-100,4,2,1,45,0,0
111303,-100,4,2,1,15,0,0

[Colours]
Combo1 : 168,255,255
Combo2 : 251,0,0
Combo3 : 255,255,21
Combo4 : 0,191,0

[HitObjects]
412,159,1674,6,0,P|400:207|424:287,1,120,2|0,0:0|0:0,0:0:0:0:
477,314,2229,2,0,L|354:335,1,120,2|2,0:0|0:0,0:0:0:0:
217,356,2970,1,2,0:0:0:0:
217,356,3155,2,0,L|143:372,2,60
262,300,3711,1,0,0:0:0:0:
311,90,4266,1,2,0:0:0:0:
178,144,4636,6,0,L|54:125,1,120,2|0,0:0|0:0,0:0:0:0:
73,54,5192,2,0,L|191:72,1,120,2|0,0:0|0:0,0:0:0:0:
245,120,5748,1,2,0:0:0:0:
130,206,6118,2,0,P|110:245|131:327,1,120,2|0,0:0|0:0,0:0:0:0:
181,360,6673,1,2,0:0:0:0:
323,334,7044,1,2,0:0:0:0:
323,334,7229,1,6,0:0:0:0:
215,238,7599,6,0,P|197:182|219:124,1,120,2|8,0:0|0:0,0:0:0:0:
315,21,8340,2,0,L|374:27,2,60,0|2|8,0:0|0:0|0:0,0:0:0:0:
244,36,8896,2,0,L|120:22,1,120,2|0,0:0|0:0,0:0:0:0:
55,42,9451,1,8,0:0:0:0:
141,157,9822,2,0,P|159:213|137:271,1,120,2|8,0:0|0:0,0:0:0:0:
51,372,10562,6,0,L|190:348,1,120,2|8,0:0|0:0,0:0:0:0:
224,305,11118,1,2,0:0:0:0:
224,305,11303,2,0,L|305:316,1,60
354,321,11673,1,10,0:0:0:0:
462,226,12044,2,0,L|452:163,2,60,2|8|8,0:0|0:0|0:0,0:0:0:0:
436,296,12599,1,4,0:3:0:0:
436,296,12785,2,0,L|445:355,2,60,2|2|0,0:0|0:0|0:0,0:0:0:0:
387,242,13340,2,0,L|377:179,1,60,0|2,0:0|0:0,0:0:0:0:
393,115,13711,5,8,0:0:0:0:
393,115,13896,1,8,0:0:0:0:
291,216,14266,1,8,0:0:0:0:
291,216,14451,1,8,0:0:0:0:
182,121,14822,1,8,0:0:0:0:
182,121,15007,1,8,0:0:0:0:
75,217,15377,1,8,0:0:0:0:
75,217,15562,1,2,0:0:0:0:
266,319,16118,2,0,L|256:252,1,60,2|2,0:0|0:0,0:0:0:0:
248,188,16488,5,6,0:0:0:0:
314,60,16859,2,0,B|253:40|253:40|183:57,1,120,8|2,0:0|0:0,0:0:0:0:
68,114,17599,1,8,0:0:0:0:
68,114,17785,2,0,L|76:233,1,120,2|2,0:0|0:0,0:0:0:0:
83,305,18340,2,0,P|28:288|4:232,2,120,8|2|8,0:0|0:0|0:0,0:0:0:0:
182,200,19451,6,0,L|301:208,1,120,2|8,0:0|0:0,0:0:0:0:
444,226,20192,2,0,L|513:230,2,60,2|2|8,0:0|0:0|0:0,0:0:0:0:
384,267,20748,2,0,P|378:197|422:158,1,120,2|0,0:0|0:0,0:0:0:0:
480,156,21303,1,8,0:0:0:0:
363,71,21673,2,0,L|303:64,1,60,2|2,0:0|0:0,0:0:0:0:
243,104,22044,2,0,L|183:97,1,60,8|0,0:0|0:0,0:0:0:0:
119,64,22414,6,0,P|154:110|144:167,1,120,2|8,0:0|0:0,0:0:0:0:
108,230,22970,2,0,P|154:194|211:204,1,120,2|2,0:0|0:0,0:0:0:0:
229,279,23525,1,8,0:0:0:0:
229,279,23711,2,0,P|182:314|125:304,1,120,2|2,0:0|0:0,0:0:0:0:
56,282,24266,2,0,L|49:158,2,120,8|2|8,0:0|0:0|0:0,0:0:0:0:
188,346,25377,6,0,L|314:332,1,120,2|8,0:0|0:0,0:0:0:0:
374,358,25933,2,0,P|342:318|341:248,1,120,2|0,0:0|0:0,0:0:0:0:
391,201,26488,1,8,0:0:0:0:
460,218,26673,2,0,P|492:178|493:108,1,120,2|0,0:0|0:0,0:0:0:0:
445,58,27229,1,8,0:0:0:0:
378,84,27414,2,0,L|256:44,1,120,2|2,0:0|0:0,0:0:0:0:
194,26,27970,1,8,0:0:0:0:
151,163,28340,5,12,0:0:0:0:
285,214,28711,2,0,L|399:251,1,120,8|2,0:0|0:0,0:0:0:0:
290,345,29451,1,8,0:0:0:0:
290,345,29636,2,0,L|176:308,1,120,2|0,0:0|0:0,0:0:0:0:
121,355,30192,2,0,P|140:305|126:238,2,120,8|2|8,0:0|0:0|0:0,0:0:0:0:
23,248,31303,6,0,L|35:104,1,120,2|8,0:0|0:0,0:0:0:0:
89,83,31859,1,0,0:0:0:0:
89,83,32044,2,0,L|96:16,2,60,2|2|8,0:0|0:0|0:0,0:0:0:0:
104,153,32599,2,0,P|143:163|218:117,1,120,2|2,0:0|0:0,0:0:0:0:
239,61,33155,1,8,0:0:0:0:
369,121,33525,2,0,L|378:240,1,120,2|8,0:0|0:0,0:0:0:0:
388,312,34081,1,2,0:0:0:0:
455,285,34266,6,0,L|445:165,1,120,6|8,0:0|0:0,0:0:0:0:
434,23,35007,2,0,L|495:17,2,60,2|2|8,0:0|0:0|0:0,0:0:0:0:
374,63,35562,2,0,L|254:53,1,120,2|0,0:0|0:0,0:0:0:0:
200,101,36118,1,8,0:0:0:0:
200,101,36303,2,0,L|139:95,2,60,0|2|2,0:0|0:0|0:0,0:0:0:0:
231,166,36859,2,0,L|225:233,1,60,8|0,0:0|0:0,0:0:0:0:
204,294,37229,6,0,P|245:258|325:263,1,120,2|8,0:0|0:0,0:0:0:0:
441,309,37970,2,0,L|433:368,2,60,8|2|2,0:0|0:0|0:0,0:0:0:0:
454,238,38525,1,2,0:0:0:0:
341,147,38896,2,0,L|281:139,2,60,2|8|2,0:0|0:0|0:0,0:0:0:0:
450,47,39636,1,4,0:3:0:0:
450,47,39822,2,0,L|442:131,1,60,4|0,0:3|0:0,0:0:0:0:
423,175,40192,6,0,L|280:158,1,120,4|0,0:3|0:0,0:0:0:0:
179,234,40933,2,0,L|115:224,1,60,0|2,0:0|0:0,0:0:0:0:
49,207,41303,1,4,0:3:0:0:
153,314,41673,1,2,0:0:0:0:
153,314,41859,2,0,P|214:313|265:255,1,120,2|0,0:0|0:0,0:0:0:0:
318,239,42414,2,0,L|377:248,1,60,0|2,0:0|0:0,0:0:0:0:
448,258,42784,1,8,0:3:0:0:
477,116,43155,6,0,L|356:92,1,120,2|0,0:0|0:0,0:0:0:0:
298,52,43711,2,0,P|314:114|297:187,1,120,2|2,0:0|0:0,0:0:0:0:
290,244,44266,1,8,0:0:0:0:
290,244,44451,2,0,P|370:243|403:282,1,120,2|0,0:0|0:0,0:0:0:0:
438,334,45007,1,2,0:0:0:0:
438,334,45192,2,0,L|320:357,1,120,2|2,0:0|0:0,0:0:0:0:
255,325,45748,1,8,0:0:0:0:
122,380,46118,6,0,P|143:304|136:253,1,120,2|2,0:0|0:0,0:0:0:0:
23,177,46859,2,0,L|27:113,1,60,2|2,0:0|0:0,0:0:0:0:
34,45,47229,1,4,0:3:0:0:
177,38,47599,2,0,P|198:114|191:165,1,120,2|2,0:0|0:0,0:0:0:0:
235,292,48340,2,0,L|299:288,1,60,2|2,0:0|0:0,0:0:0:0:
367,281,48710,1,8,0:0:0:0:
402,141,49081,5,4,0:3:0:0:
402,141,49266,2,0,L|276:146,1,120,0|8,0:0|0:0,0:0:0:0:
159,222,50007,2,0,L|99:225,1,60,2|8,0:0|0:0,0:0:0:0:
45,273,50377,2,0,P|59:223|56:144,1,120,2|2,0:0|0:0,0:0:0:0:
37,85,50933,2,0,L|103:82,1,60,8|2,0:0|0:0,0:0:0:0:
168,79,51303,2,0,L|287:74,1,120,8|10,0:0|0:0,0:0:0:0:
421,20,52044,6,0,P|400:96|428:147,1,120,6|8,0:0|0:0,0:0:0:0:
501,247,52785,2,0,L|437:243,1,60,2|2,0:0|0:0,0:0:0:0:
369,236,53155,1,8,0:0:0:0:
254,323,53525,2,0,P|230:266|236:195,1,120,2|8,0:0|0:0,0:0:0:0:
285,159,54081,1,0,0:0:0:0:
285,159,54266,2,0,L|276:95,2,60,2|0|8,0:0|0:0|0:0,0:0:0:0:
428,175,55007,6,0,L|418:32,1,120,2|8,0:0|0:0,0:0:0:0:
354,23,55562,1,8,0:0:0:0:
242,114,55933,1,8,0:0:0:0:
126,27,56303,2,0,L|7:36,1,120,6|2,0:0|0:0,0:0:0:0:
8,114,56859,1,8,0:0:0:0:
8,114,57044,2,0,L|127:105,1,120,2|8,0:0|0:0,0:0:0:0:
180,154,57599,2,0,P|197:190|192:218,1,60,8|8,0:0|0:0,0:0:0:0:
134,249,57970,6,0,L|15:258,1,120,6|8,0:0|0:0,0:0:0:0:
132,364,58711,2,0,L|209:358,1,60,2|2,0:0|0:0,0:0:0:0:
263,350,59081,1,8,0:0:0:0:
323,311,59266,2,0,L|442:302,1,120,2|2,0:0|0:0,0:0:0:0:
437,229,59822,2,0,L|318:238,1,120,8|0,0:0|0:0,0:0:0:0:
200,151,60562,2,0,P|183:115|188:87,1,60,8|2,0:0|0:0,0:0:0:0:
221,33,60933,6,0,L|340:42,1,120,6|8,0:0|0:0,0:0:0:0:
436,149,61673,2,0,L|359:143,1,60,2|2,0:0|0:0,0:0:0:0:
305,135,62044,1,8,0:0:0:0:
259,190,62229,2,0,L|246:338,1,120,2|2,0:0|0:0,0:0:0:0:
185,345,62785,1,8,0:0:0:0:
47,303,63155,2,0,L|57:183,1,120,2|8,0:0|0:0,0:0:0:0:
38,113,63711,6,0,P|73:86|159:103,1,120,2|8,0:0|0:0,0:0:0:0:
207,128,64266,1,8,0:0:0:0:
335,201,64636,1,8,0:0:0:0:
335,201,64822,1,0,0:0:0:0:
337,57,65192,2,0,L|209:34,2,120,8|8|8,0:0|0:0|0:0,0:0:0:0:
466,135,66303,1,4,0:3:0:0:
466,135,66488,1,6,0:0:0:0:
447,280,66859,6,0,L|376:276,1,60,6|0,0:0|0:0,0:0:0:0:
334,326,67229,1,8,0:0:0:0:
334,326,67414,2,0,P|300:297|204:299,1,120,2|0,0:0|0:0,0:0:0:0:
170,333,67970,1,8,0:0:0:0:
170,333,68155,2,0,L|160:186,1,120,2|2,0:0|0:0,0:0:0:0:
153,146,68711,1,8,0:0:0:0:
153,146,68896,2,0,P|187:175|311:139,1,180,2|8,0:0|0:0,0:0:0:0:
425,227,69822,6,0,P|418:173|438:110,1,120,2|8,0:0|0:0,0:0:0:0:
497,72,70377,2,0,L|370:49,1,120,2|2,0:0|0:0,0:0:0:0:
329,103,70933,1,8,0:0:0:0:
329,103,71118,2,0,L|202:80,2,120,2|2|2,0:0|0:0|0:0,0:0:0:0:
468,160,72229,1,2,0:0:0:0:
468,160,72414,1,8,0:0:0:0:
385,277,72785,6,0,P|326:256|270:270,1,120,2|8,0:0|0:0,0:0:0:0:
220,319,73340,2,0,P|161:340|105:326,1,120,2|2,0:0|0:0,0:0:0:0:
45,365,73896,1,8,0:0:0:0:
45,365,74081,2,0,L|31:229,1,120,2|0,0:0|0:0,0:0:0:0:
23,174,74636,1,8,0:0:0:0:
130,77,75007,2,0,L|142:196,1,120,2|8,0:0|0:0,0:0:0:0:
220,319,75748,6,0,L|339:306,1,120,6|8,0:0|0:0,0:0:0:0:
396,350,76303,2,0,P|368:299|366:232,1,120,0|0,0:0|0:0,0:0:0:0:
417,189,76859,1,8,0:0:0:0:
417,189,77044,2,0,P|445:138|447:71,1,120,6|8,0:0|0:0,0:0:0:0:
377,63,77599,1,8,0:0:0:0:
253,137,77970,2,0,L|125:143,1,120,8|8,0:3|0:0,0:0:0:0:
64,269,78711,6,0,L|135:265,1,60,6|0,0:0|0:0,0:0:0:0:
192,303,79081,1,8,0:0:0:0:
192,303,79266,2,0,P|226:274|322:276,1,120,2|2,0:0|0:0,0:0:0:0:
359,318,79822,1,8,0:0:0:0:
359,318,80007,2,0,L|369:171,1,120,2|2,0:0|0:0,0:0:0:0:
402,135,80563,1,8,0:0:0:0:
402,135,80748,2,0,P|368:164|244:128,1,180,2|8,0:0|0:0,0:0:0:0:
124,208,81674,6,0,P|131:154|111:91,1,120,6|8,0:0|0:0,0:0:0:0:
52,53,82229,2,0,L|179:30,2,120,6|6|6,0:0|0:0|0:0,0:0:0:0:
37,196,83340,2,0,L|47:264,1,60,2|8,0:0|0:0,0:0:0:0:
28,325,83711,2,0,P|54:299|139:309,1,120,2|2,0:0|0:0,0:0:0:0:
188,347,84266,1,8,0:0:0:0:
322,291,84636,6,0,L|302:168,1,120,6|8,0:0|0:0,0:0:0:0:
266,109,85192,2,0,P|292:135|377:125,1,120,2|2,0:0|0:0,0:0:0:0:
482,39,85933,2,0,L|466:162,1,120,2|0,0:0|0:0,0:0:0:0:
456,229,86488,1,8,0:0:0:0:
495,367,86859,2,0,P|440:333|365:335,1,120,2|8,0:0|0:0,0:0:0:0:
321,362,87414,1,6,0:0:0:0:
192,306,87785,5,0,0:0:0:0:
192,306,87970,2,0,L|177:188,1,120,8|2,0:0|0:0,0:0:0:0:
285,91,88711,1,8,0:0:0:0:
285,91,88896,2,0,P|219:52|174:48,1,120,6|0,0:0|0:0,0:0:0:0:
119,91,89451,2,0,L|-1:74,2,120,8|2|8,0:0|0:0|0:0,0:0:0:0:
246,160,90562,5,6,0:0:0:0:
246,160,91859,2,0,L|382:138,1,120,4|8,1:2|0:0,0:0:0:0:
433,120,92414,1,4,1:2:0:0:
232,40,92970,2,0,L|147:49,1,60,2|0,0:0|1:0,0:0:0:0:
90,164,93525,6,0,P|146:237|141:289,1,120,6|8,0:0|0:0,0:0:0:0:
134,332,94081,2,0,L|253:313,1,120,2|2,0:0|0:0,0:0:0:0:
324,315,94636,1,8,0:0:0:0:
360,378,94822,2,0,P|373:320|417:280,1,120,2|2,0:0|0:0,0:0:0:0:
492,294,95377,1,8,0:0:0:0:
492,294,95562,2,0,L|474:163,1,120,2|0,0:0|0:0,0:0:0:0:
490,104,96118,1,8,0:0:0:0:
349,136,96488,6,0,L|209:118,1,120,6|8,0:0|0:0,0:0:0:0:
182,66,97044,2,0,P|199:115|194:193,1,120,2|2,0:0|0:0,0:0:0:0:
144,231,97599,1,8,0:0:0:0:
84,271,97785,2,0,P|110:294|197:280,1,120,2|2,0:0|0:0,0:0:0:0:
244,239,98340,2,0,L|369:232,1,120,8|4,0:0|0:3,0:0:0:0:
422,274,98896,2,0,L|482:268,1,60,8|4,0:0|0:3,0:0:0:0:
420,135,99451,6,0,P|364:208|369:260,1,120,6|8,0:0|0:0,0:0:0:0:
354,304,100007,2,0,L|235:285,1,120,2|2,0:0|0:0,0:0:0:0:
164,287,100562,1,8,0:0:0:0:
128,350,100748,2,0,P|114:292|70:252,1,120,2|2,0:0|0:0,0:0:0:0:
10,292,101303,1,8,0:0:0:0:
10,292,101488,2,0,L|28:161,1,120,2|8,0:0|0:0,0:0:0:0:
14,101,102044,2,0,L|76:113,1,60,8|8,0:0|0:0,0:0:0:0:
142,92,102414,6,0,L|282:74,1,120,6|8,0:0|0:0,0:0:0:0:
317,31,102970,1,2,0:0:0:0:
317,31,103155,2,0,P|296:67|288:158,1,120,8|8,0:0|0:0,0:0:0:0:
310,218,103711,1,2,0:0:0:0:
310,218,103896,2,0,L|439:204,1,120,8|8,0:0|0:0,0:0:0:0:
482,338,104636,2,0,L|362:350,1,120,8|8,0:0|0:0,0:0:0:0:
291,364,105192,1,2,0:0:0:0:
175,292,105562,5,6,0:0:0:0:
175,292,105748,1,2,0:0:0:0:
292,210,106118,1,6,0:0:0:0:
292,210,106303,1,2,0:0:0:0:
176,138,106673,1,6,0:0:0:0:
176,138,106859,1,2,0:0:0:0:
291,57,107229,1,6,0:0:0:0:
291,57,107414,1,2,0:0:0:0:
417,127,107785,2,0,B|431:189|431:189|416:242|416:242|431:315,1,180,6|0,0:0|0:0,0:0:0:0:
256,192,108433,12,0,111303,0:0:0:0:
