osu file format v14

[General]
AudioFilename: hue.mp3
AudioLeadIn: 0
PreviewTime: 66859
Countdown: 0
SampleSet: Soft
StackLeniency: 0.7
Mode: 0
LetterboxInBreaks: 0
WidescreenStoryboard: 1

[Editor]
Bookmarks: 1674,7044,16488,37229,40192,50377,52044,66859,78711,90562,93525,102414,104266,108340,111673
DistanceSpacing: 1.6
BeatDivisor: 4
GridSize: 4
TimelineZoom: 1.6

[Metadata]
Title:Noraneko Heart
TitleUnicode:野良猫ハート
Artist:Haruka Sora, Kotorii Yuuka, Kamishiro Misaki, Kiritani Hana
ArtistUnicode:遥そら、小鳥居夕花、神代岬、桐谷華
Creator:Kin
Version:Hard
Source:ノラと皇女と野良猫ハート
Tags:Nora to Oujo to Hato はと Oozora Itsuki 大空 樹 Harukaze Drop _Meep_
BeatmapID:923923
BeatmapSetID:427462

[Difficulty]
HPDrainRate:5
CircleSize:4
OverallDifficulty:6
ApproachRate:7.5
SliderMultiplier:1.5
SliderTickRate:1

[Events]
//Background and Video events
0,0,"BG.jpg",0,0
//Break Periods
//Storyboard Layer 0 (Background)
//Storyboard Layer 1 (Fail)
//Storyboard Layer 2 (Pass)
//Storyboard Layer 3 (Foreground)
//Storyboard Sound Samples

[TimingPoints]
1674,370.37037037037,4,2,1,60,1,0
1674,-133.333333333333,4,2,1,60,0,0
7044,-100,4,2,1,90,0,0
15655,-100,4,2,1,30,0,0
16488,-100,4,2,1,90,0,0
40192,-133.333333333333,4,2,1,75,0,0
50377,-100,4,2,1,90,0,0
56766,-100,4,1,0,70,0,0
56951,-100,4,2,1,90,0,0
66488,-100,4,2,2,100,0,0
66859,-100,4,2,1,90,0,1
78618,-100,4,2,1,90,0,0
78711,-100,4,2,1,90,0,1
90562,-200,4,2,1,90,0,0
91859,-100,4,2,1,90,0,0
93155,-100,4,2,2,100,0,0
93248,-100,4,2,1,75,0,0
93525,-100,4,2,1,90,0,0
109081,-100,4,2,1,67,0,0
109822,-100,4,2,1,45,0,0
110562,-100,4,2,1,22,0,0
111303,-100,4,2,1,5,0,0

[Colours]
Combo1 : 199,133,252
Combo2 : 100,190,73
Combo3 : 253,223,53
Combo4 : 255,215,235

[HitObjects]
92,220,1674,6,0,P|132:232|204:220,1,112.500004291535,2|2,0:0|0:0,0:0:0:0:
260,152,2229,2,0,L|252:36,2,112.500004291535,2|2|2,0:0|0:0|0:0,0:0:0:0:
260,152,4266,5,2,0:0:0:0:
264,156,4636,2,0,L|340:160,2,56.2500021457673,2|0|2,0:0|0:0|0:0,0:0:0:0:
180,196,5192,2,0,P|160:240|180:312,1,112.500004291535,2|0,0:0|0:0,0:0:0:0:
256,336,5748,1,2,0:0:0:0:
260,340,6118,2,0,B|288:344|288:344|344:340|344:340|384:344,1,112.500004291535,2|2,0:0|0:0,0:0:0:0:
460,352,6673,1,2,0:0:0:0:
472,172,7044,5,0,1:0:0:0:
384,188,7229,2,0,P|324:188|276:160,1,112.5,8|2,0:0|0:0,0:0:0:0:
272,192,7599,6,0,B|276:272,1,75,6|0,1:2|0:0,0:0:0:0:
160,336,7970,2,0,B|163:261,1,75,10|2,0:0|0:0,0:0:0:0:
184,172,8340,1,0,1:0:0:0:
184,172,8525,1,2,1:2:0:0:
272,192,8711,1,8,0:0:0:0:
332,124,8896,2,0,P|364:176|324:268,1,150,2|0,1:2|1:0,0:0:0:0:
252,280,9451,2,0,L|176:276,1,75,8|0,0:0|0:0,0:0:0:0:
96,320,9822,5,2,1:2:0:0:
96,320,10007,1,0,0:0:0:0:
0,248,10192,2,0,L|4:164,1,75,10|0,0:0|0:0,0:0:0:0:
140,80,10562,2,0,L|144:164,1,75,2|0,1:2|0:0,0:0:0:0:
196,228,10933,1,10,0:0:0:0:
256,160,11118,2,0,L|340:164,1,75,2|0,0:0|1:0,0:0:0:0:
396,100,11488,1,0,1:0:0:0:
452,172,11673,2,0,P|456:212|444:264,1,75,10|0,0:0|0:0,0:0:0:0:
320,288,12044,5,6,1:2:0:0:
256,224,12229,1,8,0:0:0:0:
192,288,12414,1,8,0:0:0:0:
120,340,12599,2,0,L|124:384,2,37.5,10|10|2,0:0|0:0|1:2,0:0:0:0:
84,256,12970,2,0,L|4:260,2,75,0|0|0,1:0|1:0|1:0,0:0:0:0:
168,228,13525,1,0,1:0:0:0:
256,252,13711,5,8,0:0:0:0:
312,144,13896,1,8,0:0:0:0:
256,252,14266,5,8,0:0:0:0:
200,144,14451,1,8,0:0:0:0:
256,252,14822,5,8,0:0:0:0:
376,188,15007,1,8,0:0:0:0:
256,252,15377,5,8,0:0:0:0:
136,188,15562,1,8,0:0:0:0:
256,252,16118,6,0,P|264:288|256:328,1,75,2|2,0:0|0:0,0:0:0:0:
176,360,16488,6,0,B|116:364|116:364|80:356|80:356|20:360,1,150,4|8,1:2|0:0,0:0:0:0:
92,192,17229,2,0,L|88:108,1,75,0|0,1:0|1:0,0:0:0:0:
132,40,17599,1,8,0:0:0:0:
208,88,17785,1,0,0:0:0:0:
208,88,17970,2,0,P|272:112|360:72,1,150,0|8,1:0|0:0,0:0:0:0:
276,144,18525,2,0,B|260:220|260:220|268:292,1,150,2|2,1:2|1:2,0:0:0:0:
328,360,19081,2,0,L|408:356,1,75,8|0,0:0|0:0,0:0:0:0:
508,272,19451,6,0,P|436:268|392:208,1,150,2|8,1:2|0:0,0:0:0:0:
424,32,20192,2,0,P|416:84|384:112,1,75,0|0,1:0|1:0,0:0:0:0:
336,40,20562,1,8,0:0:0:0:
256,80,20748,1,2,0:0:0:0:
256,80,20933,2,0,B|240:144|280:144|256:228,2,150,0|10|2,1:0|0:0|0:0,0:0:0:0:
344,108,21859,5,2,1:2:0:0:
428,72,22044,1,10,0:0:0:0:
416,160,22229,2,0,P|416:216|496:272,1,150,2|0,0:0|0:0,0:0:0:0:
352,252,22785,1,8,0:0:0:0:
352,252,22970,2,0,P|352:308|272:364,1,150,0|0,0:0|1:0,0:0:0:0:
268,276,23525,1,8,0:0:0:0:
180,300,23711,2,0,P|180:244|260:188,1,150,2|0,0:0|0:0,0:0:0:0:
336,164,24266,6,0,L|344:76,1,75,8|0,0:0|1:0,0:0:0:0:
416,204,24636,2,0,L|424:292,1,75,0|0,0:0|1:0,0:0:0:0:
360,344,25007,2,0,P|324:348|284:344,1,75,8|0,0:0|0:0,0:0:0:0:
212,232,25377,2,0,P|204:304|140:344,1,150,2|8,1:2|0:0,0:0:0:0:
64,304,25933,2,0,L|56:228,1,75,0|2,0:0|1:2,0:0:0:0:
136,184,26303,1,2,1:2:0:0:
212,232,26488,1,10,0:0:0:0:
256,152,26673,6,0,P|288:180|276:296,1,150,6|2,1:2|1:2,0:0:0:0:
212,232,27229,1,10,0:0:0:0:
228,364,27414,2,0,P|308:380|376:332,1,150,6|2,1:2|1:2,0:0:0:0:
384,260,27970,2,0,L|376:212,3,37.5,8|8|8|0,0:0|0:0|1:2|1:0,0:0:0:0:
372,188,28340,6,0,L|296:196,1,75,6|0,1:2|0:0,0:0:0:0:
212,232,28711,2,0,L|136:224,1,75,8|0,0:0|0:0,0:0:0:0:
52,248,29081,2,0,P|44:288|48:328,2,75,0|0|8,1:0|1:0|0:0,0:0:0:0:
76,160,29636,1,0,0:0:0:0:
164,136,29822,6,0,P|228:152|316:136,1,150,0|8,1:0|0:0,0:0:0:0:
356,60,30377,1,0,1:0:0:0:
356,60,30562,2,0,B|344:136|344:136|368:220,1,150,0|8,0:0|0:0,0:0:0:0:
392,292,31118,1,0,0:0:0:0:
392,292,31303,2,0,P|356:320|248:312,1,150,2|8,1:2|0:0,0:0:0:0:
200,244,31859,5,0,0:0:0:0:
164,328,32044,1,0,1:0:0:0:
164,328,32229,1,0,1:0:0:0:
112,256,32414,1,8,0:0:0:0:
112,256,32599,2,0,L|36:264,2,75,2|0|2,0:0|1:0|0:0,0:0:0:0:
200,244,33155,2,0,P|244:216|260:172,1,75,10|0,0:0|1:0,0:0:0:0:
176,156,33525,2,0,P|248:108|324:144,1,150,0|8,0:0|0:0,0:0:0:0:
352,200,34081,1,0,0:0:0:0:
396,280,34266,6,0,L|415:131,2,150,6|8|0,1:2|0:0|1:0,0:0:0:0:
340,352,35192,1,0,1:0:0:0:
256,316,35377,1,8,0:0:0:0:
172,352,35562,6,0,P|168:284|232:228,1,150,6|0,1:2|1:0,0:0:0:0:
312,244,36118,2,0,P|384:256|472:244,1,150,8|0,0:0|1:0,0:0:0:0:
448,152,36673,1,0,1:0:0:0:
452,156,36859,2,0,L|440:56,1,75,8|0,0:0|0:0,0:0:0:0:
316,36,37229,6,0,P|280:44|240:40,1,75,6|0,1:2|0:0,0:0:0:0:
156,16,37599,1,10,0:0:0:0:
108,92,37785,2,0,L|56:88,2,37.5,0|8|10,0:0|0:0|0:0,0:0:0:0:
156,168,38155,2,0,L|148:256,1,75,8|4,1:3|1:3,0:0:0:0:
256,328,38525,6,0,P|260:272|352:216,1,150,6|10,1:2|0:0,0:0:0:0:
344,308,39081,1,10,0:0:0:0:
412,251,39266,2,0,P|420:215|412:179,1,75,2|0,0:0|1:0,0:0:0:0:
329,216,39636,2,0,P|318:181|294:153,1,75,0|8,1:0|1:3,0:0:0:0:
239,225,40007,1,4,1:3:0:0:
239,225,40192,6,0,B|160:256|156:192|72:228,1,168.750006437302,6|2,1:2|0:0,0:0:0:0:
120,304,40933,2,0,L|124:372,2,56.2500021457673,0|8|8,0:0|0:0|0:0,0:0:0:0:
112,124,41673,2,0,L|108:56,2,56.2500021457673,0|0|2,1:0|1:0|0:0,0:0:0:0:
256,232,42414,6,0,P|328:228|280:160,1,168.750006437302,0|0,1:0|0:0,0:0:0:0:
204,156,43155,2,0,P|172:196|168:256,1,112.500004291535,2|0,1:2|0:0,0:0:0:0:
232,320,43711,2,0,B|300:304|280:332|352:320,2,112.500004291535,10|0|2,0:0|1:0|1:2,0:0:0:0:
56,360,44822,5,0,1:0:0:0:
4,288,45007,1,0,1:0:0:0:
92,280,45192,2,0,P|112:224|92:164,1,112.500004291535,10|8,1:2|1:2,0:0:0:0:
220,208,45748,1,10,0:0:0:0:
220,208,46118,6,0,P|200:264|220:324,2,112.500004291535,2|0|0,1:2|0:0|0:0,0:0:0:0:
292,264,47044,1,8,0:0:0:0:
412,232,47229,1,10,0:0:0:0:
412,232,47599,2,0,B|416:192|416:192|408:148|408:148|412:112,2,112.500004291535,2|0|0,1:2|0:0|0:0,0:0:0:0:
368,312,48525,1,8,0:0:0:0:
256,256,48711,1,10,0:0:0:0:
256,256,49081,6,0,L|196:288,2,56.2500021457673,0|0|0,1:0|1:0|0:0,0:0:0:0:
336,216,49636,2,0,P|320:160|340:104,1,112.500004291535,2|0,0:0|1:0,0:0:0:0:
408,164,50192,1,8,0:0:0:0:
376,296,50377,1,6,1:2:0:0:
376,296,50748,5,10,0:0:0:0:
288,280,50933,2,0,L|204:288,1,75,10|10,0:0|0:0,0:0:0:0:
132,328,51303,1,10,0:0:0:0:
132,328,51396,1,8,1:2:0:0:
132,328,51488,1,2,1:2:0:0:
28,240,51673,2,0,L|36:156,1,75,14|0,1:2|0:0,0:0:0:0:
148,88,52044,6,0,L|156:172,1,75,6|0,1:2|0:0,0:0:0:0:
172,252,52414,1,8,0:0:0:0:
256,224,52599,1,0,0:0:0:0:
340,252,52785,2,0,L|336:332,2,75,0|0|8,1:0|0:0|0:0,0:0:0:0:
324,164,53340,1,0,0:0:0:0:
256,224,53525,6,0,P|236:148|288:84,1,150,6|8,1:2|0:0,0:0:0:0:
324,164,54081,1,0,1:0:0:0:
360,84,54266,2,0,P|348:40|316:16,2,75,2|0|8,0:0|1:0|0:0,0:0:0:0:
273,92,54822,1,0,0:0:0:0:
273,92,54914,1,0,0:0:0:0:
273,92,55007,6,0,P|234:154|256:224,1,150,10|0,0:0|1:0,0:0:0:0:
324,280,55562,2,0,L|398:283,1,75,12|0,0:0|0:0,0:0:0:0:
256,340,55933,2,0,L|176:344,1,75,14|0,0:0|0:0,0:0:0:0:
56,292,56303,2,0,P|100:276|132:176,1,150,6|0,1:2|1:0,0:0:0:0:
48,204,56859,1,0,1:0:0:0:
76,120,57044,1,0,0:0:0:0:
164,100,57229,2,0,L|216:104,3,37.5,10|10|2|10,0:0|0:0|1:2|0:0,0:0:0:0:
224,132,57599,2,0,L|276:128,3,37.5,0|0|0|0,1:0|1:0|1:0|1:0,0:0:0:0:
292,104,57970,6,0,P|272:156|312:240,1,150,6|8,1:2|0:0,0:0:0:0:
484,204,58711,2,0,L|488:284,1,75,0|0,1:0|1:0,0:0:0:0:
436,352,59081,1,8,0:0:0:0:
308,308,59266,2,0,B|264:312|264:312|200:304|200:304|156:308,1,150,4|0,1:2|1:0,0:0:0:0:
84,360,59822,2,0,P|124:316|112:228,1,150,10|0,0:0|1:0,0:0:0:0:
40,284,60377,1,0,1:0:0:0:
32,196,60562,2,0,L|40:104,1,75,8|0,0:0|0:0,0:0:0:0:
152,48,60933,6,0,L|160:140,1,75,4|0,1:2|0:0,0:0:0:0:
232,176,61303,2,0,B|312:188|292:148|384:164,2,150,8|0|8,0:0|1:0|0:0,0:0:0:0:
204,292,62229,2,0,P|180:352|80:352,1,150,4|0,1:2|1:0,0:0:0:0:
28,316,62785,2,0,L|36:160,1,150,8|0,0:0|1:0,0:0:0:0:
104,108,63340,1,0,1:0:0:0:
172,168,63525,1,8,0:0:0:0:
256,60,63711,6,0,P|256:112|340:172,1,150,4|10,1:2|0:0,0:0:0:0:
340,84,64266,2,0,L|352:4,1,75,10|0,0:0|1:0,0:0:0:0:
472,76,64636,1,10,0:0:0:0:
472,76,64822,2,0,L|484:156,1,75,10|0,0:0|1:0,0:0:0:0:
420,268,65192,2,0,L|328:260,1,75,10|0,0:0|0:0,0:0:0:0:
256,364,65562,2,0,L|164:372,1,75,10|0,0:0|0:0,0:0:0:0:
92,268,65933,1,10,0:0:0:0:
88,264,66303,5,0,1:0:0:0:
84,260,66396,1,0,1:0:0:0:
80,256,66488,1,12,0:0:0:0:
76,252,66859,6,0,P|68:204|88:156,1,75,6|0,1:2|0:0,0:0:0:0:
108,96,67229,1,8,0:0:0:0:
184,144,67414,2,0,B|252:164|256:116|332:144,1,150,0|0,0:0|1:0,0:0:0:0:
292,224,67970,1,8,0:0:0:0:
380,216,68155,2,0,P|416:168|376:68,1,150,2|0,1:2|1:0,0:0:0:0:
312,56,68711,1,8,0:0:0:0:
330,143,68896,2,0,B|256:116|252:164|184:144,1,150,0|0,0:0|1:0,0:0:0:0:
112,92,69451,1,8,0:0:0:0:
112,92,69636,5,0,0:0:0:0:
44,208,69822,2,0,B|40:260|40:260|48:300|48:300|40:356,1,150,2|8,1:2|0:0,0:0:0:0:
128,252,70377,2,0,P|168:208|264:216,1,150,0|0,0:0|1:0,0:0:0:0:
212,288,70933,1,8,0:0:0:0:
300,288,71118,2,0,P|344:224|324:152,1,150,2|0,1:2|1:0,0:0:0:0:
248,116,71673,1,8,0:0:0:0:
248,116,71859,2,0,B|324:124|324:124|396:100,1,150,0|0,0:0|1:0,0:0:0:0:
476,64,72414,1,8,0:0:0:0:
512,228,72785,6,0,L|504:308,1,75,6|0,1:2|0:0,0:0:0:0:
444,368,73155,1,8,0:0:0:0:
368,320,73340,2,0,B|320:324|320:324|272:312|272:312|220:316,1,150,0|0,0:0|1:0,0:0:0:0:
148,372,73896,1,8,0:0:0:0:
148,372,74081,2,0,P|184:324|148:228,1,150,2|0,1:2|1:0,0:0:0:0:
80,204,74636,2,0,B|104:120|60:136|80:56,2,150,8|0|8,0:0|1:0|0:0,0:0:0:0:
12,264,75562,1,0,0:0:0:0:
120,348,75748,6,0,P|184:328|268:348,1,150,6|8,1:2|0:0,0:0:0:0:
304,264,76303,2,0,P|368:284|452:264,1,150,0|0,0:0|1:0,0:0:0:0:
500,196,76859,1,8,0:0:0:0:
447,57,77044,2,0,L|436:132,1,75,6|0,1:2|0:0,0:0:0:0:
372,192,77414,1,10,0:0:0:0:
372,192,77599,1,10,0:0:0:0:
308,128,77785,5,0,1:0:0:0:
292,112,77877,1,0,1:0:0:0:
276,96,77970,2,0,L|216:100,3,37.5,8|8|4|0,1:2|1:2|1:3|1:0,0:0:0:0:
220,132,78340,2,0,L|160:128,3,37.5,0|0|0|0,1:0|1:0|1:0|1:0,0:0:0:0:
168,164,78711,6,0,P|180:200|156:260,1,75,6|0,1:2|0:0,0:0:0:0:
112,304,79081,1,8,0:0:0:0:
36,252,79266,2,0,B|12:168|56:188|28:100,1,150,0|0,0:0|1:0,0:0:0:0:
100,48,79822,1,8,0:0:0:0:
184,76,80007,2,0,P|256:56|328:76,1,150,2|0,1:2|1:0,0:0:0:0:
412,48,80562,1,8,0:0:0:0:
484,104,80748,2,0,P|512:160|468:244,1,150,0|0,0:0|1:0,0:0:0:0:
420,168,81303,1,8,0:0:0:0:
420,168,81488,5,0,0:0:0:0:
336,276,81673,2,0,L|184:268,1,150,2|0,1:2|1:0,0:0:0:0:
76,192,82229,2,0,L|152:188,1,75,4|0,1:2|0:0,0:0:0:0:
261,111,82599,2,0,L|185:107,1,75,12|0,0:0|0:0,0:0:0:0:
300,32,82970,2,0,P|344:80|328:168,1,150,4|0,1:2|1:0,0:0:0:0:
256,200,83525,1,8,0:0:0:0:
172,232,83711,1,0,0:0:0:0:
172,232,83896,2,0,L|180:320,1,75,6|0,1:2|0:0,0:0:0:0:
256,356,84266,2,0,L|308:352,3,37.5,8|8|8|8,0:0|0:0|0:0|0:0,0:0:0:0:
332,348,84636,6,0,B|324:296|324:296|336:260|336:260|328:200,1,150,6|8,1:2|0:0,0:0:0:0:
248,244,85192,2,0,P|204:264|108:204,1,150,0|0,0:0|1:0,0:0:0:0:
192,176,85748,1,8,0:0:0:0:
248,41,85933,2,0,L|256:116,1,75,6|0,1:2|0:0,0:0:0:0:
320,176,86303,1,0,1:0:0:0:
380,112,86488,2,0,P|408:176|368:248,1,150,8|0,0:0|1:0,0:0:0:0:
284,260,87044,1,0,1:0:0:0:
216,200,87229,1,8,0:0:0:0:
124,296,87414,6,0,B|136:244|136:244|124:208|124:208|136:148,1,150,4|0,1:2|0:0,0:0:0:0:
216,200,87970,2,0,P|256:208|296:200,1,75,8|0,0:0|0:0,0:0:0:0:
336,124,88340,2,0,B|328:204|328:204|348:280,1,150,0|10,1:0|0:0,0:0:0:0:
464,340,88896,2,0,B|392:344|392:344|368:360|340:360|312:352,1,150,6|0,1:2|1:0,0:0:0:0:
256,284,89451,2,0,P|220:296|184:296,1,75,8|0,0:0|0:0,0:0:0:0:
88,200,89822,2,0,L|92:112,1,75,0|0,1:0|1:0,0:0:0:0:
172,84,90192,2,0,L|174:128,3,37.5,8|8|0|0,0:0|0:0|1:0|1:0,0:0:0:0:
176,160,90562,6,0,P|280:160|240:224,1,225,6|2,1:2|0:0,0:0:0:0:
152,244,91859,6,0,P|144:284|152:328,1,75,10|0,0:0|0:0,0:0:0:0:
220,372,92229,1,10,0:0:0:0:
336,304,92414,1,10,0:0:0:0:
340,300,92970,5,0,1:0:0:0:
344,296,93062,1,0,1:0:0:0:
348,292,93155,1,8,1:2:0:0:
352,288,93525,6,0,P|368:224|348:140,1,150,4|10,1:2|0:0,0:0:0:0:
272,96,94081,2,0,L|176:100,1,75,2|0,0:0|1:0,0:0:0:0:
116,64,94451,1,2,1:2:0:0:
72,144,94636,1,8,0:0:0:0:
72,144,94822,2,0,B|52:224|96:208|72:296,1,150,2|2,1:2|1:2,0:0:0:0:
152,336,95377,1,10,0:0:0:0:
20,364,95562,1,2,1:2:0:0:
156,368,95748,2,0,B|200:372|200:372|264:364|264:364|316:368,1,150,2|8,0:0|0:0,0:0:0:0:
372,304,96303,5,2,0:0:0:0:
376,300,96396,1,2,0:0:0:0:
380,296,96488,2,0,L|376:208,1,75,2|0,1:2|0:0,0:0:0:0:
372,132,96859,1,10,0:0:0:0:
288,236,97044,2,0,P|224:268|144:228,1,150,2|2,1:2|1:2,0:0:0:0:
220,180,97599,1,8,0:0:0:0:
84,180,97785,6,0,P|64:224|104:316,1,150,6|2,1:2|1:2,0:0:0:0:
236,313,98340,2,0,P|256:269|216:177,1,150,10|8,0:0|1:2,0:0:0:0:
152,120,98896,1,0,1:0:0:0:
152,120,98989,1,0,1:0:0:0:
152,120,99081,1,8,0:0:0:0:
256,60,99266,1,2,0:0:0:0:
360,120,99451,6,0,P|340:196|364:272,1,150,4|10,1:2|0:0,0:0:0:0:
400,344,100007,2,0,B|348:348|348:348|304:336|304:336|252:340,1,150,2|2,0:0|1:2,0:0:0:0:
164,348,100562,1,8,0:0:0:0:
124,216,100748,2,0,P|108:264|16:300,1,150,6|10,1:2|1:2,0:0:0:0:
36,212,101303,1,10,0:0:0:0:
140,128,101488,2,0,L|214:131,1,75,6|0,1:2|0:0,0:0:0:0:
280,196,101859,1,8,0:0:0:0:
284,200,101951,1,8,0:0:0:0:
288,204,102044,2,0,L|292:260,3,37.5,2|2|2|2,1:2|1:2|1:2|1:2,0:0:0:0:
292,280,102414,6,0,L|366:283,1,75,10|0,0:0|1:0,0:0:0:0:
220,336,102785,2,0,L|132:332,1,75,10|0,0:0|1:0,0:0:0:0:
68,288,103155,2,0,P|60:244|72:200,1,75,10|0,0:0|1:0,0:0:0:0:
200,192,103525,2,0,P|208:148|196:104,1,75,10|0,0:0|1:0,0:0:0:0:
72,80,103896,5,14,0:0:0:0:
152,44,104081,1,0,0:0:0:0:
152,44,104266,2,0,P|200:28|248:44,1,75,14|0,0:0|0:0,0:0:0:0:
304,72,104636,2,0,L|312:116,3,37.5,8|8|0|0,1:2|0:0|1:0|1:0,0:0:0:0:
316,148,105007,6,0,L|390:144,1,75,14|14,0:0|0:0,0:0:0:0:
256,264,105562,1,14,0:0:0:0:
256,264,105748,2,0,L|168:260,1,75,14|0,0:0|1:0,0:0:0:0:
116,380,106118,1,14,0:0:0:0:
116,380,106304,2,0,L|120:292,1,75,14|0,0:0|1:0,0:0:0:0:
0,240,106673,1,14,0:0:0:0:
0,240,106859,2,0,L|88:244,1,75,14|0,0:0|1:0,0:0:0:0:
140,124,107228,1,14,0:0:0:0:
140,124,107414,2,0,L|136:211,1,75,14|0,0:0|0:0,0:0:0:0:
256,264,107785,5,10,0:0:0:0:
260,268,108340,5,2,0:0:0:0:
256,192,108433,8,0,111303,0:0:0:0:
