osu file format v14

[General]
AudioFilename: audio.mp3
AudioLeadIn: 0
PreviewTime: 66835
Countdown: 0
SampleSet: Soft
StackLeniency: 0.7
Mode: 3
LetterboxInBreaks: 0
SpecialStyle: 0
WidescreenStoryboard: 0

[Editor]
Bookmarks: 1650,16464,28316,40168,52020,66835,78687,90538,93501
DistanceSpacing: 1.1
BeatDivisor: 4
GridSize: 32
TimelineZoom: 1.7

[Metadata]
Title:Noraneko Heart
TitleUnicode:野良猫ハート
Artist:Haruka Sora, Kotorii Yuuka, Kamishiro Misaki, Kiritani Hana
ArtistUnicode:遥そら、小鳥居夕花、神代岬、桐谷華
Creator:Drum-Hitnormal
Version:B1tch
Source:ノラと皇女と野良猫ハート
Tags:ML-ysg Kuo Kyoka Akasha Nabi- Kotori Yuka 種﨑敦美 tanezaki atsumi 高森奈津美 Takamori Natsumi 浅川悠 Asakawa Yuu Yu eroge opening op harukaze oujo hato to 黒木未知 パトリシア・オブ・エンド 夕莉シャチ 明日原ユウキ Kuroki Michi Patricia of end Yuuri Yuri shachi Asuhara Yuuki Yuki dudehacker japanese pop jpop video game visual novel vn anime Nora, Princess, and Stray Cat 2nd second project Tokyotoon
BeatmapID:3146284
BeatmapSetID:1538905

[Difficulty]
HPDrainRate:8
CircleSize:4
OverallDifficulty:8
ApproachRate:5
SliderMultiplier:1.4
SliderTickRate:1

[Events]
//Background and Video events
0,0,"noraneko 01.jpg",0,0
//Break Periods
//Storyboard Layer 0 (Background)
//Storyboard Layer 1 (Fail)
//Storyboard Layer 2 (Pass)
//Storyboard Layer 3 (Foreground)
//Storyboard Layer 4 (Overlay)
//Storyboard Sound Samples
Sample,8316,0,"Hat Open.wav",60
Sample,11279,0,"Ride.wav",35
Sample,11464,0,"Ride.wav",35
Sample,70538,0,"Hat Open.wav",60
Sample,73501,0,"Hat Open.wav",60
Sample,76464,0,"Ride.wav",35
Sample,76649,0,"Ride.wav",35
Sample,85353,0,"Hat Open.wav",60
Sample,88687,0,"Hat Open.wav",60

[TimingPoints]
1650,370.37037037037,4,2,1,60,1,0
40168,-111.111111111111,4,2,1,60,0,0
50353,-100,4,2,1,60,0,0
55538,-200,4,2,1,60,0,0
55724,-66.6666666666667,4,2,1,60,0,0
55909,-200,4,2,1,60,0,0
56094,-66.6666666666667,4,2,1,60,0,0
56279,-100,4,2,1,60,0,0
65168,-200,4,2,1,60,0,0
65353,-66.6666666666667,4,2,1,60,0,0
65538,-200,4,2,1,60,0,0
65724,-66.6666666666667,4,2,1,60,0,0
65909,-100,4,2,1,60,0,0
82205,-200,4,2,1,60,0,0
82390,-66.6666666666667,4,2,1,60,0,0
82575,-200,4,2,1,60,0,0
82761,-66.6666666666667,4,2,1,60,0,0
82946,-100,4,2,1,60,0,0

[HitObjects]
192,192,1557,5,0,0:0:0:0:
320,192,1603,1,0,0:0:0:0:
64,192,1650,1,0,0:0:0:0:
448,192,1650,128,0,2020:0:0:0:0:
192,192,1835,1,0,0:0:0:0:
64,192,2020,1,0,0:0:0:0:
320,192,2020,1,0,0:0:0:0:
192,192,2205,128,0,2575:0:0:0:0:
448,192,2205,1,0,0:0:0:0:
64,192,2575,1,0,0:0:0:0:
448,192,2575,128,0,2946:0:0:0:0:
64,192,2946,1,0,0:0:0:0:
320,192,2946,128,0,4242:0:0:0:0:
192,192,3131,1,0,0:0:0:0:
448,192,3316,1,0,0:0:0:0:
192,192,3501,1,0,0:0:0:0:
448,192,3687,128,0,4242:0:0:0:0:
64,192,4242,1,0,0:0:0:0:
192,192,4242,1,0,0:0:0:0:
320,192,4520,1,0,0:0:0:0:
192,192,4566,1,0,0:0:0:0:
64,192,4612,128,0,4983:0:0:0:0:
448,192,4612,1,0,0:0:0:0:
320,192,4798,1,0,0:0:0:0:
192,192,4983,1,0,0:0:0:0:
448,192,4983,1,0,0:0:0:0:
64,192,5168,1,0,0:0:0:0:
320,192,5168,128,0,5724:0:0:0:0:
192,192,5724,128,0,6094:0:0:0:0:
448,192,5724,1,0,0:0:0:0:
64,192,6094,128,0,6464:0:0:0:0:
448,192,6094,1,0,0:0:0:0:
320,192,6279,1,0,0:0:0:0:
192,192,6464,1,0,0:0:0:0:
448,192,6464,1,0,0:0:0:0:
64,192,6649,1,0,0:0:0:0:
320,192,6649,128,0,7020:0:0:0:0:
64,192,7020,1,2,0:0:0:0:
192,192,7020,1,0,0:0:0:0:
64,192,7205,1,4,0:0:0:0:
320,192,7205,1,8,0:0:0:0:
448,192,7205,1,0,0:0:0:0:
192,192,7298,1,0,0:0:0:50:Tom2.wav
320,192,7390,1,0,0:0:0:50:Tom3.wav
192,192,7483,1,0,0:0:0:0:
64,192,7575,1,2,0:0:0:0:
320,192,7575,1,4,0:0:0:0:
448,192,7575,128,0,7946:0:0:0:0:
192,192,7946,1,8,0:0:0:0:
320,192,7946,1,0,0:0:0:60:Hat Open.wav
64,192,8131,1,0,0:0:0:0:
192,192,8131,1,0,0:0:0:0:
320,192,8316,1,2,0:0:0:0:
64,192,8501,1,2,0:0:0:0:
320,192,8501,1,0,0:0:0:0:
192,192,8687,1,8,0:0:0:0:
448,192,8687,1,0,0:0:0:60:Hat Open.wav
64,192,8872,128,2,9798:0:0:0:0:
192,192,8872,1,0,0:0:0:0:
320,192,9057,1,0,0:0:0:60:Hat Open.wav
448,192,9242,1,2,0:0:0:0:
192,192,9427,1,8,0:0:0:0:
448,192,9427,1,0,0:0:0:60:Hat Open.wav
320,192,9798,128,2,10168:0:0:0:0:
448,192,9798,1,0,0:0:0:60:Hat Open.wav
192,192,9983,1,2,0:0:0:0:
192,192,10168,128,8,10538:0:0:0:0:
448,192,10168,1,0,0:0:0:60:Hat Open.wav
64,192,10538,1,2,0:0:0:0:
320,192,10538,1,4,0:0:0:0:
448,192,10538,1,0,0:0:0:0:
192,192,10909,1,8,0:0:0:0:
448,192,10909,1,0,0:0:0:0:
64,192,11094,1,0,0:0:0:0:
192,192,11094,1,0,0:0:0:0:
320,192,11279,1,2,0:0:0:0:
320,192,11464,1,2,0:0:0:0:
64,192,11649,1,8,0:0:0:0:
448,192,11649,1,0,0:0:0:35:Ride.wav
64,192,12020,1,4,0:0:0:0:
192,192,12020,1,2,0:0:0:0:
320,192,12020,1,0,0:0:0:0:
320,192,12205,1,8,0:0:0:0:
448,192,12205,1,0,0:0:0:0:
320,192,12390,1,8,0:0:0:0:
448,192,12390,1,0,0:0:0:0:
64,192,12575,1,0,0:0:0:60:Hat Open.wav
192,192,12668,1,0,0:0:0:50:Tom1.wav
320,192,12761,1,0,0:0:0:50:Tom1.wav
448,192,12761,1,0,0:0:0:0:
192,192,12946,1,0,0:0:0:50:Tom2.wav
320,192,12946,1,0,0:0:0:0:
64,192,13131,1,0,0:0:0:50:Tom2.wav
192,192,13131,1,0,0:0:0:0:
64,192,13316,1,0,0:0:0:50:Tom3.wav
448,192,13316,1,0,0:0:0:0:
192,192,13501,1,2,0:0:0:0:
448,192,13501,1,0,0:0:0:0:
64,192,13687,1,8,0:0:0:0:
192,192,13687,1,0,0:0:0:60:Hat Open.wav
320,192,13687,1,0,0:0:0:0:
64,192,13872,1,8,0:0:0:0:
192,192,13872,1,0,0:0:0:60:Hat Open.wav
320,192,13872,1,0,0:0:0:0:
64,192,14242,1,8,0:0:0:0:
320,192,14242,1,0,0:0:0:60:Hat Open.wav
448,192,14242,1,0,0:0:0:0:
64,192,14427,1,8,0:0:0:0:
320,192,14427,1,0,0:0:0:60:Hat Open.wav
448,192,14427,1,0,0:0:0:0:
64,192,14798,1,8,0:0:0:0:
192,192,14798,1,0,0:0:0:60:Hat Open.wav
448,192,14798,1,0,0:0:0:0:
64,192,14983,1,8,0:0:0:0:
192,192,14983,1,0,0:0:0:60:Hat Open.wav
448,192,14983,1,0,0:0:0:0:
192,192,15353,1,8,0:0:0:0:
320,192,15353,1,0,0:0:0:60:Hat Open.wav
448,192,15353,1,0,0:0:0:0:
192,192,15538,1,8,0:0:0:0:
320,192,15538,1,0,0:0:0:60:Hat Open.wav
448,192,15538,1,0,0:0:0:0:
64,192,15631,1,0,0:0:0:0:
448,192,15724,1,0,0:0:0:0:
192,192,15816,1,0,0:0:0:0:
320,192,15909,1,0,0:0:0:0:
448,192,16001,1,0,0:0:0:0:
64,192,16094,1,0,0:0:0:0:
320,192,16187,1,0,0:0:0:0:
64,192,16279,1,0,0:0:0:0:
192,192,16372,1,0,0:0:0:0:
64,192,16464,1,2,0:0:0:0:
320,192,16464,1,4,0:0:0:0:
448,192,16464,1,0,0:0:0:0:
320,192,16649,1,0,0:0:0:0:
192,192,16835,1,8,0:0:0:0:
448,192,16835,1,0,0:0:0:50:Hat Close.wav
192,192,17020,1,0,0:0:0:0:
320,192,17205,1,2,0:0:0:0:
448,192,17205,1,0,0:0:0:50:Hat Close.wav
320,192,17390,1,2,0:0:0:0:
448,192,17390,1,0,0:0:0:0:
64,192,17575,1,8,0:0:0:0:
192,192,17575,1,0,0:0:0:50:Hat Close.wav
192,192,17761,1,0,0:0:0:0:
320,192,17946,1,2,0:0:0:0:
448,192,17946,1,0,0:0:0:50:Hat Close.wav
320,192,18131,1,0,0:0:0:50:Hat Close.wav
64,192,18316,1,8,0:0:0:0:
192,192,18316,1,0,0:0:0:50:Hat Close.wav
64,192,18501,1,2,0:0:0:0:
320,192,18501,1,0,0:0:0:0:
448,192,18687,1,0,0:0:0:50:Hat Close.wav
320,192,18872,1,2,0:0:0:0:
448,192,18872,1,0,0:0:0:0:
64,192,19057,1,8,0:0:0:0:
192,192,19057,1,0,0:0:0:50:Hat Close.wav
192,192,19242,1,0,0:0:0:50:Hat Close.wav
64,192,19427,1,2,0:0:0:0:
448,192,19427,1,0,0:0:0:50:Hat Close.wav
448,192,19612,1,0,0:0:0:50:Hat Close.wav
192,192,19798,1,8,0:0:0:0:
320,192,19798,1,0,0:0:0:50:Hat Close.wav
192,192,19983,1,0,0:0:0:50:Hat Close.wav
320,192,20168,1,2,0:0:0:0:
448,192,20168,1,0,0:0:0:50:Hat Close.wav
320,192,20353,1,2,0:0:0:0:
448,192,20353,1,0,0:0:0:0:
64,192,20538,1,8,0:0:0:0:
192,192,20538,1,0,0:0:0:50:Hat Close.wav
64,192,20724,1,0,0:0:0:50:Hat Close.wav
320,192,20909,1,2,0:0:0:0:
448,192,20909,1,0,0:0:0:50:Hat Close.wav
320,192,21094,1,0,0:0:0:0:
64,192,21279,1,8,0:0:0:0:
192,192,21279,1,0,0:0:0:50:Hat Close.wav
64,192,21464,1,2,0:0:0:0:
320,192,21464,1,0,0:0:0:0:
448,192,21649,1,0,0:0:0:50:Hat Close.wav
320,192,21835,1,2,0:0:0:0:
448,192,21835,1,0,0:0:0:0:
64,192,22020,1,8,0:0:0:0:
192,192,22020,1,0,0:0:0:50:Hat Close.wav
64,192,22205,128,0,22390:0:0:0:60:Hat Open.wav
320,192,22390,1,2,0:0:0:0:
448,192,22390,1,0,0:0:0:0:
448,192,22575,1,0,0:0:0:0:
64,192,22761,1,8,0:0:0:0:
192,192,22761,1,0,0:0:0:50:Hat Close.wav
192,192,22946,1,0,0:0:0:50:Hat Close.wav
320,192,23131,1,2,0:0:0:0:
448,192,23131,1,0,0:0:0:50:Hat Close.wav
320,192,23316,1,2,0:0:0:0:
448,192,23316,1,0,0:0:0:0:
64,192,23501,1,8,0:0:0:0:
192,192,23501,1,0,0:0:0:50:Hat Close.wav
64,192,23687,1,0,0:0:0:0:
320,192,23872,1,2,0:0:0:0:
448,192,23872,1,0,0:0:0:50:Hat Close.wav
448,192,24057,1,0,0:0:0:0:
64,192,24242,1,8,0:0:0:0:
192,192,24242,1,0,0:0:0:50:Hat Close.wav
192,192,24427,1,2,0:0:0:0:
448,192,24427,1,0,0:0:0:0:
320,192,24612,1,0,0:0:0:50:Hat Close.wav
320,192,24798,1,2,0:0:0:0:
448,192,24798,1,0,0:0:0:0:
64,192,24983,1,8,0:0:0:0:
192,192,24983,1,0,0:0:0:50:Hat Close.wav
64,192,25168,1,0,0:0:0:0:
320,192,25353,1,2,0:0:0:0:
448,192,25353,1,0,0:0:0:50:Hat Close.wav
320,192,25538,1,0,0:0:0:50:Hat Close.wav
64,192,25724,1,8,0:0:0:0:
192,192,25724,1,0,0:0:0:50:Hat Close.wav
192,192,25909,1,0,0:0:0:50:Hat Close.wav
320,192,26094,1,2,0:0:0:0:
448,192,26094,1,0,0:0:0:50:Hat Close.wav
320,192,26279,1,2,0:0:0:0:
448,192,26279,1,0,0:0:0:0:
64,192,26464,1,8,0:0:0:0:
192,192,26464,1,0,0:0:0:50:Hat Close.wav
64,192,26649,1,2,0:0:0:0:
320,192,26649,128,4,27020:0:0:0:0:
448,192,26649,128,0,27020:0:0:0:0:
64,192,27020,1,2,0:0:0:0:
192,192,27020,1,0,0:0:0:0:
64,192,27205,1,8,0:0:0:0:
320,192,27205,1,0,0:0:0:60:Hat Open.wav
448,192,27205,1,0,0:0:0:0:
192,192,27390,128,0,27761:0:0:0:50:Tom2.wav
320,192,27390,1,0,0:0:0:0:
64,192,27575,1,2,0:0:0:0:
448,192,27575,1,0,0:0:0:60:Hat Open.wav
64,192,27761,1,2,0:0:0:0:
448,192,27761,1,0,0:0:0:0:
320,192,27946,1,8,0:0:0:0:
448,192,27946,1,0,0:0:0:0:
64,192,28038,1,8,0:0:0:0:
192,192,28038,1,0,0:0:0:0:
320,192,28131,1,0,0:0:0:50:Tom3.wav
448,192,28131,1,0,0:0:0:0:
192,192,28224,1,0,0:0:0:50:Tom3.wav
64,192,28316,1,4,0:0:0:0:
320,192,28316,1,2,0:0:0:0:
448,192,28316,1,0,0:0:0:0:
320,192,28501,1,0,0:0:0:0:
192,192,28687,1,8,0:0:0:0:
448,192,28687,1,0,0:0:0:50:Hat Close.wav
192,192,28872,1,0,0:0:0:0:
320,192,29057,1,2,0:0:0:0:
448,192,29057,1,0,0:0:0:50:Hat Close.wav
320,192,29242,1,2,0:0:0:0:
448,192,29242,1,0,0:0:0:0:
64,192,29427,1,8,0:0:0:0:
192,192,29427,1,0,0:0:0:50:Hat Close.wav
192,192,29612,1,0,0:0:0:0:
320,192,29798,1,2,0:0:0:0:
448,192,29798,1,0,0:0:0:50:Hat Close.wav
320,192,29983,1,0,0:0:0:50:Hat Close.wav
64,192,30168,1,8,0:0:0:0:
192,192,30168,1,0,0:0:0:50:Hat Close.wav
64,192,30353,1,2,0:0:0:0:
320,192,30353,1,0,0:0:0:0:
448,192,30538,1,0,0:0:0:50:Hat Close.wav
320,192,30724,1,2,0:0:0:0:
448,192,30724,1,0,0:0:0:0:
64,192,30909,1,8,0:0:0:0:
192,192,30909,1,0,0:0:0:50:Hat Close.wav
192,192,31094,1,0,0:0:0:50:Hat Close.wav
64,192,31279,1,2,0:0:0:0:
448,192,31279,1,0,0:0:0:50:Hat Close.wav
448,192,31464,1,0,0:0:0:50:Hat Close.wav
192,192,31649,1,8,0:0:0:0:
320,192,31649,1,0,0:0:0:50:Hat Close.wav
192,192,31835,1,0,0:0:0:0:
320,192,32020,1,2,0:0:0:0:
448,192,32020,1,0,0:0:0:50:Hat Close.wav
320,192,32205,1,2,0:0:0:0:
448,192,32205,1,0,0:0:0:0:
64,192,32390,1,8,0:0:0:0:
192,192,32390,1,0,0:0:0:50:Hat Close.wav
64,192,32575,1,0,0:0:0:0:
320,192,32761,1,2,0:0:0:0:
448,192,32761,1,0,0:0:0:50:Hat Close.wav
320,192,32946,1,0,0:0:0:50:Hat Close.wav
64,192,33131,1,8,0:0:0:0:
192,192,33131,1,0,0:0:0:50:Hat Close.wav
64,192,33316,1,2,0:0:0:0:
320,192,33316,1,0,0:0:0:0:
448,192,33501,1,0,0:0:0:50:Hat Close.wav
192,192,33687,1,2,0:0:0:0:
448,192,33687,1,0,0:0:0:0:
64,192,33872,1,8,0:0:0:0:
320,192,33872,128,0,34057:0:0:0:60:Hat Open.wav
64,192,34057,1,0,0:0:0:0:
192,192,34242,1,2,0:0:0:0:
320,192,34242,1,4,0:0:0:0:
448,192,34242,1,0,0:0:0:0:
448,192,34427,1,0,0:0:0:0:
64,192,34612,1,8,0:0:0:0:
192,192,34612,1,0,0:0:0:35:Ride.wav
192,192,34798,1,0,0:0:0:0:
320,192,34983,1,2,0:0:0:0:
448,192,34983,1,0,0:0:0:35:Ride.wav
320,192,35168,1,2,0:0:0:0:
448,192,35168,1,0,0:0:0:0:
64,192,35353,1,8,0:0:0:0:
192,192,35353,1,0,0:0:0:35:Ride.wav
64,192,35538,1,2,0:0:0:0:
320,192,35538,128,4,35909:0:0:0:0:
448,192,35538,128,0,35909:0:0:0:0:
64,192,35909,1,2,0:0:0:0:
192,192,35909,1,0,0:0:0:0:
64,192,36094,1,8,0:0:0:0:
320,192,36094,1,0,0:0:0:35:Ride.wav
448,192,36094,1,0,0:0:0:0:
192,192,36279,1,0,0:0:0:0:
320,192,36464,1,2,0:0:0:0:
448,192,36464,1,0,0:0:0:35:Ride.wav
320,192,36649,1,2,0:0:0:0:
448,192,36649,1,0,0:0:0:0:
64,192,36835,1,8,0:0:0:0:
192,192,36835,1,0,0:0:0:35:Ride.wav
64,192,37020,1,0,0:0:0:0:
192,192,37205,1,2,0:0:0:0:
320,192,37205,1,4,0:0:0:0:
448,192,37205,1,0,0:0:0:0:
64,192,37575,1,8,0:0:0:0:
192,192,37575,1,0,0:0:0:60:Hat Open.wav
448,192,37575,1,0,0:0:0:0:
64,192,37853,1,8,0:0:0:30:soft-hitclap.wav
192,192,37853,1,0,0:0:0:0:
320,192,37946,1,8,0:0:0:0:
448,192,37946,1,0,0:0:0:0:
192,192,38131,1,0,0:0:0:50:Tom1.wav
320,192,38131,1,0,0:0:0:0:
64,192,38316,1,0,0:0:0:50:Tom3.wav
192,192,38316,1,0,0:0:0:0:
64,192,38501,1,4,0:0:0:0:
320,192,38501,1,2,0:0:0:0:
448,192,38501,1,0,0:0:0:0:
192,192,38872,1,2,0:0:0:0:
320,192,38872,1,8,0:0:0:0:
64,192,39057,1,8,0:0:0:0:
448,192,39057,1,0,0:0:0:0:
192,192,39242,128,0,39798:0:0:0:0:
448,192,39242,1,0,0:0:0:0:
64,192,39427,1,0,0:0:0:50:Tom1.wav
320,192,39427,1,0,0:0:0:0:
64,192,39612,1,0,0:0:0:50:Tom2.wav
448,192,39612,1,0,0:0:0:0:
320,192,39798,1,0,0:0:0:50:Tom3.wav
448,192,39798,1,0,0:0:0:0:
64,192,39983,1,0,0:0:0:50:Tom3.wav
320,192,39983,1,0,0:0:0:0:
64,192,40168,1,4,0:0:0:0:
192,192,40168,1,2,0:0:0:0:
448,192,40168,1,0,0:0:0:0:
192,192,40353,1,2,0:0:0:0:
320,192,40353,1,0,0:0:0:0:
64,192,40724,1,0,0:0:0:0:
192,192,40909,1,0,0:0:0:50:Hat Close.wav
320,192,41094,1,2,0:0:0:0:
448,192,41094,1,0,0:0:0:50:Tom3.wav
64,192,41279,1,8,0:0:0:0:
192,192,41279,1,0,0:0:0:50:Tom3.wav
448,192,41279,1,0,0:0:0:0:
192,192,41649,1,2,0:0:0:0:
320,192,41649,1,0,0:0:0:50:Hat Close.wav
192,192,41835,1,2,0:0:0:0:
320,192,41835,1,0,0:0:0:0:
448,192,42020,1,0,0:0:0:50:Hat Close.wav
320,192,42205,1,8,0:0:0:30:soft-hitclap.wav
448,192,42205,1,0,0:0:0:50:Tom1.wav
64,192,42390,1,0,0:0:0:50:Hat Close.wav
64,192,42575,1,2,0:0:0:0:
192,192,42575,1,0,0:0:0:50:Tom3.wav
192,192,42761,1,8,0:0:0:0:
320,192,42761,1,0,0:0:0:0:
448,192,42761,1,0,0:0:0:0:
64,192,43131,1,2,0:0:0:0:
192,192,43131,1,0,0:0:0:50:Hat Close.wav
64,192,43316,1,2,0:0:0:0:
192,192,43316,1,0,0:0:0:0:
448,192,43501,1,0,0:0:0:50:Hat Close.wav
192,192,43687,1,8,0:0:0:30:soft-hitclap.wav
320,192,43687,1,0,0:0:0:50:Tom1.wav
64,192,43872,1,0,0:0:0:50:Hat Close.wav
320,192,44057,1,2,0:0:0:0:
448,192,44057,1,0,0:0:0:0:
64,192,44242,1,8,0:0:0:0:
192,192,44242,1,0,0:0:0:0:
320,192,44242,1,0,0:0:0:0:
192,192,44427,1,2,0:0:0:0:
448,192,44427,1,0,0:0:0:0:
320,192,44612,1,0,0:0:0:50:Hat Close.wav
64,192,44798,1,2,0:0:0:0:
192,192,44798,1,0,0:0:0:0:
448,192,44983,1,0,0:0:0:50:Hat Close.wav
64,192,45168,1,8,0:0:0:0:
320,192,45168,1,2,0:0:0:0:
192,192,45353,1,0,0:0:0:50:Hat Close.wav
320,192,45538,1,0,0:0:0:50:Tom3.wav
448,192,45538,1,0,0:0:0:0:
64,192,45724,1,8,0:0:0:0:
192,192,45724,1,0,0:0:0:60:Hat Open.wav
448,192,45724,1,0,0:0:0:0:
192,192,46094,1,2,0:0:0:0:
320,192,46094,1,0,0:0:0:0:
192,192,46279,1,2,0:0:0:0:
320,192,46279,1,0,0:0:0:0:
64,192,46464,1,0,0:0:0:50:Hat Close.wav
320,192,46649,1,8,0:0:0:30:soft-hitclap.wav
448,192,46649,1,0,0:0:0:50:Tom1.wav
192,192,46835,1,0,0:0:0:50:Hat Close.wav
64,192,47020,1,2,0:0:0:0:
448,192,47020,1,0,0:0:0:50:Tom3.wav
192,192,47205,1,8,0:0:0:0:
320,192,47205,1,0,0:0:0:0:
448,192,47205,1,0,0:0:0:0:
192,192,47575,1,2,0:0:0:0:
320,192,47575,1,0,0:0:0:50:Hat Close.wav
192,192,47761,1,2,0:0:0:0:
320,192,47761,1,0,0:0:0:0:
448,192,47946,1,0,0:0:0:50:Hat Close.wav
320,192,48131,1,8,0:0:0:30:soft-hitclap.wav
448,192,48131,1,0,0:0:0:50:Tom1.wav
64,192,48316,1,0,0:0:0:50:Hat Close.wav
64,192,48501,1,2,0:0:0:0:
192,192,48501,1,0,0:0:0:50:Tom3.wav
192,192,48687,1,8,0:0:0:0:
320,192,48687,1,0,0:0:0:50:Tom3.wav
448,192,48687,1,0,0:0:0:0:
64,192,49057,1,2,0:0:0:0:
192,192,49057,1,0,0:0:0:50:Hat Close.wav
64,192,49242,1,2,0:0:0:0:
192,192,49242,1,0,0:0:0:0:
448,192,49427,1,0,0:0:0:50:Hat Close.wav
192,192,49612,1,8,0:0:0:30:soft-hitclap.wav
320,192,49612,1,0,0:0:0:50:Tom1.wav
64,192,49798,1,0,0:0:0:50:Hat Close.wav
320,192,49983,1,2,0:0:0:0:
448,192,49983,1,0,0:0:0:0:
64,192,50168,1,8,0:0:0:0:
192,192,50168,1,0,0:0:0:0:
192,192,50353,1,2,0:0:0:0:
320,192,50353,128,4,50724:0:0:0:0:
448,192,50353,128,0,50724:0:0:0:0:
64,192,50724,1,8,0:0:0:0:
192,192,50724,1,0,0:0:0:60:Hat Open.wav
192,192,50909,1,8,0:0:0:0:
448,192,50909,1,0,0:0:0:60:Hat Open.wav
64,192,51094,1,8,0:0:0:0:
320,192,51094,1,0,0:0:0:0:
64,192,51279,1,8,0:0:0:0:
192,192,51279,1,0,0:0:0:0:
320,192,51372,1,0,0:0:0:50:Tom1.wav
448,192,51372,1,0,0:0:0:0:
64,192,51464,1,0,0:0:0:50:Tom2.wav
192,192,51464,1,0,0:0:0:0:
320,192,51557,1,2,0:0:0:0:
64,192,51649,1,8,0:0:0:0:
192,192,51649,1,4,0:0:0:0:
448,192,51649,1,0,0:0:0:0:
64,192,52020,1,4,0:0:0:0:
320,192,52020,128,2,52761:0:0:0:0:
448,192,52020,1,0,0:0:0:0:
192,192,52390,1,8,0:0:0:0:
448,192,52390,1,0,0:0:0:60:Hat Open.wav
192,192,52575,1,0,0:0:0:0:
64,192,52761,1,2,0:0:0:0:
448,192,52761,128,0,53501:0:0:0:60:Hat Open.wav
64,192,52946,1,2,0:0:0:0:
192,192,53131,1,8,0:0:0:0:
320,192,53131,1,0,0:0:0:60:Hat Open.wav
64,192,53501,128,2,54242:0:0:0:0:
320,192,53501,1,0,0:0:0:60:Hat Open.wav
320,192,53687,1,2,0:0:0:0:
192,192,53872,1,8,0:0:0:0:
448,192,53872,1,0,0:0:0:60:Hat Open.wav
320,192,54057,1,2,0:0:0:0:
192,192,54242,128,0,54983:0:0:0:60:Hat Open.wav
320,192,54427,1,2,0:0:0:0:
64,192,54612,1,8,0:0:0:0:
448,192,54612,1,0,0:0:0:60:Hat Open.wav
320,192,54983,1,2,0:0:0:0:
448,192,54983,1,8,0:0:0:0:
64,192,55168,1,0,0:0:0:50:Tom1.wav
192,192,55230,1,0,0:0:0:50:Tom2.wav
320,192,55291,1,2,0:0:0:0:
448,192,55291,1,0,0:0:0:0:
64,192,55353,1,2,0:0:0:0:
192,192,55353,1,0,0:0:0:0:
448,192,55538,128,0,55724:0:0:0:0:
192,192,55538,128,8,55724:0:0:0:0:
320,192,55538,128,0,55724:0:0:0:60:Hat Open.wav
64,192,55909,128,8,56094:0:0:0:0:
192,192,55909,128,0,56094:0:0:0:60:Hat Open.wav
320,192,55909,128,0,56094:0:0:0:0:
64,192,56279,1,4,0:0:0:0:
320,192,56279,128,2,56649:0:0:0:0:
448,192,56279,128,0,56649:0:0:0:0:
64,192,56649,1,8,0:0:0:0:
192,192,56649,1,0,0:0:0:50:Tom3.wav
192,192,56835,1,0,0:0:0:50:Tom2.wav
320,192,56835,1,0,0:0:0:0:
448,192,56835,1,0,0:0:0:0:
64,192,57020,1,8,0:0:0:0:
192,192,57020,1,0,0:0:0:0:
448,192,57020,1,0,0:0:0:0:
64,192,57205,1,8,0:0:0:0:
320,192,57205,1,0,0:0:0:0:
192,192,57298,1,8,0:0:0:0:
320,192,57390,1,0,0:0:0:50:Tom3.wav
448,192,57390,1,0,0:0:0:0:
64,192,57483,1,0,0:0:0:50:Tom3.wav
192,192,57575,1,0,0:0:0:50:Tom1.wav
448,192,57575,1,0,0:0:0:0:
320,192,57668,1,0,0:0:0:50:Tom2.wav
64,192,57761,1,0,0:0:0:50:Tom3.wav
192,192,57761,1,0,0:0:0:0:
320,192,57853,1,0,0:0:0:50:Tom3.wav
64,192,57946,1,4,0:0:0:0:
192,192,57946,1,2,0:0:0:0:
448,192,57946,128,0,58316:0:0:0:0:
64,192,58316,1,8,0:0:0:0:
192,192,58316,1,0,0:0:0:35:Ride.wav
320,192,58316,128,0,58687:0:0:0:0:
192,192,58687,128,2,59057:0:0:0:0:
448,192,58687,1,0,0:0:0:35:Ride.wav
448,192,58872,1,2,0:0:0:0:
64,192,59057,1,8,0:0:0:0:
320,192,59057,1,0,0:0:0:35:Ride.wav
64,192,59242,1,2,0:0:0:0:
192,192,59242,1,4,0:0:0:0:
448,192,59242,128,0,59612:0:0:0:0:
192,192,59612,1,2,0:0:0:0:
320,192,59612,1,0,0:0:0:0:
64,192,59798,1,8,0:0:0:0:
320,192,59798,1,0,0:0:0:35:Ride.wav
448,192,59798,1,0,0:0:0:0:
64,192,60168,1,2,0:0:0:0:
320,192,60168,1,0,0:0:0:35:Ride.wav
192,192,60353,1,2,0:0:0:0:
320,192,60353,1,0,0:0:0:0:
64,192,60538,1,8,0:0:0:0:
192,192,60538,1,0,0:0:0:35:Ride.wav
448,192,60538,1,0,0:0:0:0:
320,192,60724,1,0,0:0:0:0:
64,192,60909,128,2,61279:0:0:0:0:
192,192,60909,1,4,0:0:0:0:
448,192,60909,1,0,0:0:0:0:
192,192,61279,128,8,61649:0:0:0:0:
320,192,61279,1,0,0:0:0:35:Ride.wav
448,192,61279,1,0,0:0:0:0:
64,192,61649,1,2,0:0:0:0:
320,192,61649,128,0,62020:0:0:0:35:Ride.wav
64,192,61835,1,2,0:0:0:0:
192,192,62020,1,8,0:0:0:0:
448,192,62020,1,0,0:0:0:35:Ride.wav
64,192,62205,128,2,62575:0:0:0:0:
320,192,62205,1,4,0:0:0:0:
448,192,62205,1,0,0:0:0:0:
192,192,62575,1,2,0:0:0:0:
320,192,62575,1,0,0:0:0:0:
64,192,62761,1,8,0:0:0:0:
192,192,62761,1,0,0:0:0:60:Hat Open.wav
448,192,62761,1,0,0:0:0:0:
320,192,62946,1,0,0:0:0:0:
448,192,62946,1,0,0:0:0:0:
64,192,63131,1,2,0:0:0:0:
320,192,63131,1,0,0:0:0:60:Hat Open.wav
192,192,63316,1,2,0:0:0:0:
448,192,63316,1,0,0:0:0:0:
64,192,63501,1,8,0:0:0:0:
320,192,63501,1,0,0:0:0:60:Hat Open.wav
448,192,63501,1,0,0:0:0:0:
64,192,63687,1,2,0:0:0:0:
192,192,63687,1,4,0:0:0:0:
320,192,63687,1,0,0:0:0:0:
64,192,64057,128,8,64149:0:0:0:0:
320,192,64057,128,0,64149:0:0:0:60:Hat Open.wav
448,192,64057,128,0,64149:0:0:0:0:
64,192,64242,128,8,64335:0:0:0:0:
320,192,64242,128,0,64335:0:0:0:60:Hat Open.wav
448,192,64242,128,0,64335:0:0:0:0:
192,192,64427,1,2,0:0:0:0:
320,192,64520,1,2,0:0:0:0:
64,192,64612,128,8,64705:0:0:0:0:
192,192,64612,128,0,64705:0:0:0:50:Tom3.wav
448,192,64612,128,0,64705:0:0:0:0:
64,192,64798,128,8,64890:0:0:0:0:
192,192,64798,128,0,64890:0:0:0:50:Tom3.wav
448,192,64798,128,0,64890:0:0:0:0:
192,192,64983,1,2,0:0:0:0:
320,192,64983,1,0,0:0:0:0:
192,192,65168,128,8,65353:0:0:0:0:
320,192,65168,128,0,65353:0:0:0:60:Hat Open.wav
448,192,65168,128,0,65353:0:0:0:0:
64,192,65538,128,8,65724:0:0:0:0:
192,192,65538,128,0,65724:0:0:0:60:Hat Open.wav
320,192,65538,128,0,65724:0:0:0:0:
192,192,65909,128,8,66094:0:0:0:0:
64,192,65909,128,0,66094:0:0:0:60:Hat Open.wav
448,192,65909,128,0,66094:0:0:0:0:
320,192,66279,1,2,0:0:0:0:
448,192,66279,1,0,0:0:0:0:
192,192,66372,1,2,0:0:0:0:
64,192,66464,1,8,0:0:0:0:
320,192,66464,1,0,0:0:0:60:Long Clap.wav
448,192,66464,1,0,0:0:0:0:
64,192,66835,128,4,66927:0:0:0:0:
192,192,66835,128,2,67112:0:0:0:0:
448,192,66835,1,0,0:0:0:0:
64,192,67020,128,0,67112:0:0:0:0:
448,192,67020,128,0,67298:0:0:0:0:
192,192,67205,128,8,67483:0:0:0:0:
320,192,67205,128,0,67298:0:0:0:60:Hat Open.wav
320,192,67390,128,0,67761:0:0:0:0:
448,192,67390,128,0,67761:0:0:0:0:
64,192,67575,1,2,0:0:0:0:
192,192,67575,1,0,0:0:0:60:Hat Open.wav
64,192,67761,128,2,68038:0:0:0:0:
192,192,67761,128,0,67853:0:0:0:0:
192,192,67946,128,8,68224:0:0:0:0:
320,192,67946,128,0,68038:0:0:0:60:Hat Open.wav
320,192,68131,128,2,68501:0:0:0:0:
448,192,68131,128,0,68501:0:0:0:0:
64,192,68316,1,0,0:0:0:60:Hat Open.wav
192,192,68501,128,2,68779:0:0:0:0:
64,192,68501,128,0,68594:0:0:0:0:
448,192,68687,128,8,68779:0:0:0:0:
320,192,68687,128,0,68964:0:0:0:60:Hat Open.wav
64,192,68872,128,0,68964:0:0:0:0:
448,192,68872,128,0,69427:0:0:0:0:
64,192,69057,1,2,0:0:0:0:
192,192,69057,1,0,0:0:0:60:Hat Open.wav
64,192,69242,1,2,0:0:0:0:
320,192,69242,1,0,0:0:0:0:
192,192,69427,1,8,0:0:0:0:
320,192,69427,1,0,0:0:0:60:Hat Open.wav
64,192,69612,128,0,69705:0:0:0:0:
448,192,69612,128,0,69983:0:0:0:0:
64,192,69798,1,2,0:0:0:0:
192,192,69798,128,0,69983:0:0:0:60:Hat Open.wav
320,192,69798,128,0,69983:0:0:0:0:
64,192,70168,128,8,70538:0:0:0:0:
448,192,70168,128,0,70353:0:0:0:60:Hat Open.wav
192,192,70353,128,0,70538:0:0:0:0:
320,192,70353,128,0,70538:0:0:0:0:
448,192,70538,1,2,0:0:0:0:
320,192,70724,128,2,70909:0:0:0:0:
448,192,70724,128,0,71094:0:0:0:0:
64,192,70909,1,8,0:0:0:0:
192,192,70909,1,0,0:0:0:60:Hat Open.wav
64,192,71094,128,2,71464:0:0:0:0:
192,192,71094,128,0,71279:0:0:0:0:
320,192,71279,1,0,0:0:0:60:Hat Open.wav
320,192,71464,128,2,71835:0:0:0:0:
448,192,71464,128,0,71649:0:0:0:0:
64,192,71649,128,8,71835:0:0:0:0:
192,192,71649,1,0,0:0:0:60:Hat Open.wav
192,192,71835,128,0,72390:0:0:0:0:
320,192,72020,1,2,0:0:0:0:
448,192,72020,1,0,0:0:0:60:Hat Open.wav
320,192,72205,1,2,0:0:0:0:
448,192,72205,1,0,0:0:0:0:
64,192,72390,1,8,0:0:0:0:
320,192,72390,128,4,72761:0:0:0:0:
448,192,72390,1,0,0:0:0:0:
64,192,72761,128,4,73131:0:0:0:0:
192,192,72761,128,2,72946:0:0:0:0:
448,192,72761,1,0,0:0:0:0:
192,192,73131,128,8,73316:0:0:0:0:
448,192,73131,128,0,73501:0:0:0:60:Hat Open.wav
64,192,73316,128,0,73501:0:0:0:0:
320,192,73316,128,0,73501:0:0:0:0:
192,192,73501,1,2,0:0:0:0:
64,192,73687,128,2,73872:0:0:0:0:
192,192,73687,128,0,73872:0:0:0:0:
320,192,73872,1,8,0:0:0:0:
448,192,73872,1,0,0:0:0:60:Hat Open.wav
192,192,74057,128,2,74612:0:0:0:0:
448,192,74057,128,0,74427:0:0:0:0:
320,192,74242,1,0,0:0:0:60:Hat Open.wav
64,192,74427,1,2,0:0:0:0:
320,192,74612,128,8,74798:0:0:0:0:
448,192,74612,128,0,74983:0:0:0:60:Hat Open.wav
64,192,74798,1,0,0:0:0:0:
64,192,74983,128,2,75353:0:0:0:0:
192,192,74983,128,0,75168:0:0:0:60:Hat Open.wav
320,192,75168,1,2,0:0:0:0:
192,192,75353,128,8,75724:0:0:0:0:
448,192,75353,128,0,75538:0:0:0:60:Hat Open.wav
64,192,75724,128,2,75909:0:0:0:0:
320,192,75724,128,4,76094:0:0:0:0:
448,192,75724,1,0,0:0:0:0:
64,192,76094,1,8,0:0:0:0:
192,192,76094,1,0,0:0:0:35:Ride.wav
448,192,76094,1,0,0:0:0:0:
64,192,76279,128,0,76649:0:0:0:35:Ride.wav
448,192,76279,128,0,77020:0:0:0:0:
320,192,76464,1,2,0:0:0:0:
320,192,76649,1,2,0:0:0:0:
64,192,76835,1,8,0:0:0:0:
192,192,76835,1,0,0:0:0:35:Ride.wav
64,192,77020,1,4,0:0:0:0:
192,192,77020,128,2,77298:0:0:0:0:
320,192,77020,128,0,77298:0:0:0:0:
64,192,77390,1,8,0:0:0:0:
192,192,77390,1,0,0:0:0:0:
448,192,77390,1,0,0:0:0:0:
64,192,77575,1,8,0:0:0:0:
192,192,77575,1,0,0:0:0:0:
448,192,77575,1,0,0:0:0:0:
64,192,77761,1,0,0:0:0:60:Snare.wav
320,192,77761,1,0,0:0:0:0:
448,192,77853,1,0,0:0:0:60:Snare.wav
64,192,77946,1,8,0:0:0:0:
320,192,77946,1,0,0:0:0:0:
192,192,78038,1,8,0:0:0:0:
320,192,78131,1,0,0:0:0:50:Tom3.wav
448,192,78131,1,0,0:0:0:0:
64,192,78224,1,0,0:0:0:50:Tom3.wav
192,192,78316,1,0,0:0:0:50:Tom2.wav
448,192,78316,1,0,0:0:0:0:
320,192,78409,1,0,0:0:0:50:Tom2.wav
64,192,78501,1,0,0:0:0:50:Tom1.wav
192,192,78594,1,0,0:0:0:50:Tom3.wav
64,192,78687,128,2,78779:0:0:0:0:
320,192,78687,128,4,78964:0:0:0:0:
448,192,78687,1,0,0:0:0:0:
64,192,78872,128,0,78964:0:0:0:0:
448,192,78872,128,0,79149:0:0:0:0:
192,192,79057,128,8,79335:0:0:0:0:
320,192,79057,128,0,79149:0:0:0:60:Hat Open.wav
320,192,79242,128,0,79612:0:0:0:0:
448,192,79242,128,0,79612:0:0:0:0:
192,192,79427,1,2,0:0:0:0:
64,192,79427,1,0,0:0:0:60:Hat Open.wav
64,192,79612,128,2,79890:0:0:0:0:
192,192,79612,128,0,79705:0:0:0:0:
192,192,79798,128,8,80075:0:0:0:0:
320,192,79798,128,0,79890:0:0:0:60:Hat Open.wav
320,192,79983,128,2,80353:0:0:0:0:
448,192,79983,128,0,80353:0:0:0:0:
64,192,80168,1,0,0:0:0:60:Hat Open.wav
192,192,80353,128,2,80631:0:0:0:0:
64,192,80353,128,0,80446:0:0:0:0:
448,192,80538,128,8,80631:0:0:0:0:
320,192,80538,128,0,80816:0:0:0:60:Hat Open.wav
64,192,80724,128,0,80816:0:0:0:0:
448,192,80724,128,0,81279:0:0:0:0:
64,192,80909,1,2,0:0:0:0:
192,192,80909,1,0,0:0:0:60:Hat Open.wav
64,192,81094,1,2,0:0:0:0:
320,192,81094,1,0,0:0:0:0:
192,192,81279,1,8,0:0:0:0:
320,192,81279,1,0,0:0:0:60:Hat Open.wav
64,192,81464,1,0,0:0:0:0:
64,192,81649,1,2,0:0:0:0:
192,192,81649,1,4,0:0:0:0:
448,192,81649,1,0,0:0:0:0:
448,192,81835,1,0,0:0:0:50:Tom1.wav
320,192,81896,1,0,0:0:0:50:Tom2.wav
64,192,81958,1,2,0:0:0:0:
192,192,81958,1,0,0:0:0:0:
320,192,82020,1,2,0:0:0:0:
448,192,82020,1,0,0:0:0:0:
64,192,82205,1,8,0:0:0:0:
192,192,82205,1,0,0:0:0:60:Hat Open.wav
448,192,82205,1,0,0:0:0:0:
192,192,82575,1,8,0:0:0:0:
320,192,82575,1,0,0:0:0:60:Hat Open.wav
448,192,82575,1,0,0:0:0:0:
64,192,82946,128,2,83316:0:0:0:0:
192,192,82946,128,4,83316:0:0:0:0:
448,192,82946,1,0,0:0:0:0:
320,192,83316,1,2,0:0:0:0:
448,192,83316,1,0,0:0:0:0:
64,192,83501,1,8,0:0:0:0:
192,192,83501,1,0,0:0:0:60:Hat Open.wav
448,192,83501,128,0,84242:0:0:0:0:
320,192,83687,128,0,84242:0:0:0:0:
64,192,83872,1,2,0:0:0:0:
192,192,83872,1,0,0:0:0:60:Hat Open.wav
64,192,84242,1,8,0:0:0:0:
192,192,84242,1,0,0:0:0:0:
320,192,84335,1,8,0:0:0:0:
448,192,84335,1,0,0:0:0:0:
64,192,84427,1,8,0:0:0:0:
192,192,84427,1,0,0:0:0:0:
320,192,84520,1,8,0:0:0:0:
64,192,84612,1,4,0:0:0:0:
192,192,84612,128,2,84983:0:0:0:0:
448,192,84612,128,0,84798:0:0:0:0:
64,192,84983,128,8,85353:0:0:0:0:
320,192,84983,128,0,85168:0:0:0:60:Hat Open.wav
192,192,85168,128,0,85353:0:0:0:0:
448,192,85168,128,0,85353:0:0:0:0:
320,192,85353,1,2,0:0:0:0:
320,192,85538,128,2,85724:0:0:0:0:
448,192,85538,128,0,85724:0:0:0:0:
64,192,85724,1,8,0:0:0:0:
192,192,85724,1,0,0:0:0:60:Hat Open.wav
64,192,85909,128,2,86464:0:0:0:0:
192,192,85909,128,4,86279:0:0:0:0:
448,192,85909,1,0,0:0:0:0:
320,192,86279,1,2,0:0:0:0:
448,192,86279,1,0,0:0:0:0:
192,192,86464,128,8,86649:0:0:0:0:
448,192,86464,128,0,86835:0:0:0:60:Hat Open.wav
64,192,86835,128,2,87020:0:0:0:0:
320,192,86835,128,0,87205:0:0:0:60:Hat Open.wav
192,192,87020,1,2,0:0:0:0:
64,192,87205,1,8,0:0:0:0:
192,192,87205,1,0,0:0:0:60:Hat Open.wav
64,192,87390,128,4,89057:0:0:0:0:
320,192,87390,1,2,0:0:0:0:
448,192,87390,128,0,87946:0:0:0:0:
192,192,87761,1,2,0:0:0:0:
192,192,87946,128,8,88131:0:0:0:0:
320,192,87946,1,0,0:0:0:60:Hat Open.wav
320,192,88316,128,2,88501:0:0:0:0:
448,192,88316,1,0,0:0:0:60:Hat Open.wav
448,192,88501,1,2,0:0:0:0:
192,192,88687,1,8,0:0:0:0:
192,192,88872,128,4,89427:0:0:0:0:
320,192,88872,128,2,89242:0:0:0:0:
448,192,88872,1,0,0:0:0:0:
448,192,89242,1,2,0:0:0:0:
64,192,89427,128,8,89612:0:0:0:0:
448,192,89427,128,0,89798:0:0:0:60:Hat Open.wav
192,192,89798,128,2,90168:0:0:0:0:
320,192,89798,128,4,89983:0:0:0:0:
64,192,89983,1,2,0:0:0:0:
320,192,90168,1,8,0:0:0:0:
448,192,90168,1,0,0:0:0:0:
64,192,90261,1,8,0:0:0:0:
192,192,90261,1,0,0:0:0:0:
320,192,90353,1,0,0:0:0:50:Tom2.wav
192,192,90446,1,0,0:0:0:50:Tom2.wav
64,192,90538,128,2,91649:0:0:0:0:
448,192,90538,128,0,90909:0:0:0:35:Ride.wav
320,192,90909,128,0,91464:0:0:0:0:
448,192,91094,128,0,91464:0:0:0:0:
192,192,91464,128,0,91649:0:0:0:0:
64,192,91835,1,8,0:0:0:0:
320,192,91835,128,0,92205:0:0:0:60:Hat Open.wav
448,192,91835,1,0,0:0:0:0:
64,192,92205,1,8,0:0:0:0:
192,192,92205,1,0,0:0:0:60:Hat Open.wav
448,192,92205,1,0,0:0:0:0:
64,192,92390,1,8,0:0:0:0:
192,192,92390,1,0,0:0:0:60:Hat Open.wav
448,192,92390,1,0,0:0:0:0:
64,192,92761,1,0,0:0:0:0:
192,192,92946,1,2,0:0:0:0:
320,192,93038,1,2,0:0:0:0:
64,192,93131,1,8,0:0:0:0:
192,192,93131,1,0,0:0:0:0:
448,192,93131,1,0,0:0:0:0:
320,192,93224,1,0,0:0:0:0:
192,192,93316,1,0,0:0:0:0:
64,192,93409,1,0,0:0:0:0:
192,192,93501,1,2,0:0:0:0:
320,192,93501,128,4,93779:0:0:0:0:
448,192,93501,128,0,93779:0:0:0:0:
192,192,93872,128,8,93964:0:0:0:0:
320,192,93872,128,0,93964:0:0:0:60:Hat Open.wav
64,192,94057,128,0,94242:0:0:0:0:
192,192,94057,128,0,94242:0:0:0:0:
320,192,94242,1,2,0:0:0:0:
448,192,94242,1,0,0:0:0:60:Hat Open.wav
192,192,94427,128,2,94612:0:0:0:0:
320,192,94427,128,0,94612:0:0:0:0:
64,192,94612,1,8,0:0:0:0:
448,192,94612,1,0,0:0:0:60:Hat Open.wav
192,192,94798,128,2,94983:0:0:0:0:
448,192,94798,128,0,94983:0:0:0:0:
64,192,95168,128,2,95261:0:0:0:0:
320,192,95168,128,0,95261:0:0:0:0:
192,192,95353,128,8,95446:0:0:0:0:
320,192,95353,128,0,95446:0:0:0:60:Hat Open.wav
64,192,95538,128,2,96094:0:0:0:0:
448,192,95538,128,0,95909:0:0:0:0:
192,192,95909,1,2,0:0:0:0:
320,192,95909,1,0,0:0:0:0:
320,192,96094,1,8,0:0:0:0:
448,192,96094,1,0,0:0:0:60:Hat Open.wav
64,192,96279,1,0,0:0:0:0:
192,192,96372,1,0,0:0:0:0:
320,192,96464,128,2,96649:0:0:0:0:
448,192,96464,128,0,96649:0:0:0:60:Hat Open.wav
64,192,96835,128,8,96927:0:0:0:0:
448,192,96835,128,0,96927:0:0:0:60:Hat Open.wav
64,192,97020,128,2,97205:0:0:0:0:
192,192,97020,128,0,97205:0:0:0:0:
448,192,97205,1,0,0:0:0:60:Hat Open.wav
192,192,97390,128,2,97575:0:0:0:0:
320,192,97390,128,0,97575:0:0:0:0:
64,192,97575,1,8,0:0:0:0:
448,192,97575,1,0,0:0:0:60:Hat Open.wav
64,192,97761,128,2,98131:0:0:0:0:
192,192,97761,128,4,98131:0:0:0:0:
448,192,97761,1,0,0:0:0:0:
320,192,98131,1,2,0:0:0:0:
448,192,98131,1,0,0:0:0:0:
192,192,98316,1,8,0:0:0:0:
320,192,98316,128,4,98687:0:0:0:0:
448,192,98316,128,0,98687:0:0:0:0:
64,192,98687,1,8,0:0:0:0:
192,192,98687,1,0,0:0:0:0:
320,192,98779,1,8,0:0:0:0:
448,192,98779,1,0,0:0:0:0:
192,192,98872,1,0,0:0:0:50:Tom3.wav
320,192,98964,1,2,0:0:0:0:
64,192,99057,1,8,0:0:0:0:
448,192,99057,1,0,0:0:0:60:Hat Open.wav
192,192,99149,1,0,0:0:0:0:
320,192,99242,1,0,0:0:0:0:
192,192,99335,1,0,0:0:0:0:
64,192,99427,1,4,0:0:0:0:
320,192,99427,128,2,99705:0:0:0:0:
448,192,99427,128,0,99705:0:0:0:0:
192,192,99798,128,8,99890:0:0:0:0:
320,192,99798,128,0,99890:0:0:0:60:Hat Open.wav
64,192,99983,128,0,100168:0:0:0:0:
192,192,99983,128,0,100168:0:0:0:0:
320,192,100168,1,2,0:0:0:0:
448,192,100168,1,0,0:0:0:60:Hat Open.wav
192,192,100353,128,2,100538:0:0:0:0:
320,192,100353,128,0,100538:0:0:0:0:
64,192,100538,1,8,0:0:0:0:
448,192,100538,1,0,0:0:0:60:Hat Open.wav
64,192,100724,1,2,0:0:0:0:
192,192,100724,128,4,101094:0:0:0:0:
448,192,100724,128,0,101094:0:0:0:0:
64,192,101094,128,8,101187:0:0:0:0:
320,192,101094,128,0,101187:0:0:0:60:Hat Open.wav
192,192,101279,128,8,101372:0:0:0:0:
320,192,101279,128,0,101372:0:0:0:60:Hat Open.wav
64,192,101464,128,2,101835:0:0:0:0:
192,192,101464,128,4,101835:0:0:0:0:
448,192,101464,1,0,0:0:0:0:
320,192,101835,1,8,0:0:0:0:
448,192,101835,1,0,0:0:0:0:
64,192,101927,1,8,0:0:0:0:
192,192,101927,1,0,0:0:0:0:
320,192,102020,1,0,0:0:0:50:Tom1.wav
448,192,102020,1,0,0:0:0:0:
64,192,102112,1,0,0:0:0:50:Tom1.wav
192,192,102205,1,0,0:0:0:50:Tom3.wav
320,192,102298,1,0,0:0:0:50:Tom3.wav
64,192,102390,1,4,0:0:0:0:
192,192,102390,1,8,0:0:0:0:
448,192,102390,1,0,0:0:0:0:
192,192,102575,1,2,0:0:0:0:
320,192,102575,1,0,0:0:0:0:
64,192,102761,1,8,0:0:0:0:
320,192,102761,1,0,0:0:0:60:Hat Open.wav
448,192,102761,1,0,0:0:0:0:
192,192,102946,1,2,0:0:0:0:
448,192,102946,1,0,0:0:0:0:
64,192,103131,1,8,0:0:0:0:
192,192,103131,1,0,0:0:0:60:Hat Open.wav
320,192,103131,1,0,0:0:0:0:
320,192,103316,1,2,0:0:0:0:
448,192,103316,1,0,0:0:0:0:
64,192,103501,1,8,0:0:0:0:
192,192,103501,1,0,0:0:0:60:Hat Open.wav
448,192,103501,1,0,0:0:0:0:
192,192,103687,1,2,0:0:0:0:
320,192,103687,1,0,0:0:0:0:
64,192,103872,1,8,0:0:0:0:
320,192,103872,128,4,104057:0:0:0:0:
448,192,103872,128,0,104057:0:0:0:0:
64,192,104242,1,8,0:0:0:0:
320,192,104242,128,4,104427:0:0:0:0:
448,192,104242,128,0,104427:0:0:0:0:
64,192,104612,1,8,0:0:0:0:
192,192,104612,1,0,0:0:0:0:
320,192,104705,1,8,0:0:0:0:
448,192,104705,1,0,0:0:0:0:
64,192,104798,1,0,0:0:0:50:Tom3.wav
192,192,104890,1,2,0:0:0:0:
64,192,104983,128,8,105075:0:0:0:0:
320,192,104983,128,0,105075:0:0:0:60:Hat Open.wav
448,192,104983,128,0,105075:0:0:0:0:
64,192,105168,128,8,105261:0:0:0:0:
320,192,105168,128,0,105261:0:0:0:60:Hat Open.wav
448,192,105168,128,0,105261:0:0:0:0:
192,192,105353,1,2,0:0:0:0:
448,192,105353,1,0,0:0:0:0:
64,192,105538,128,8,105631:0:0:0:0:
192,192,105538,128,4,105631:0:0:0:0:
320,192,105538,128,0,105631:0:0:0:0:
64,192,105724,128,8,105816:0:0:0:0:
192,192,105724,128,4,105816:0:0:0:0:
320,192,105724,128,0,105816:0:0:0:0:
64,192,105909,1,2,0:0:0:0:
448,192,105909,1,0,0:0:0:0:
192,192,106094,128,8,106187:0:0:0:0:
320,192,106094,128,4,106187:0:0:0:0:
448,192,106094,128,0,106187:0:0:0:0:
192,192,106279,128,8,106372:0:0:0:0:
320,192,106279,128,4,106372:0:0:0:0:
448,192,106279,128,0,106372:0:0:0:0:
64,192,106464,1,2,0:0:0:0:
320,192,106464,1,0,0:0:0:0:
64,192,106649,128,8,106742:0:0:0:0:
192,192,106649,128,4,106742:0:0:0:0:
448,192,106649,128,0,106742:0:0:0:0:
64,192,106835,128,8,106927:0:0:0:0:
192,192,106835,128,4,106927:0:0:0:0:
448,192,106835,128,0,106927:0:0:0:0:
192,192,107020,1,2,0:0:0:0:
320,192,107020,1,0,0:0:0:0:
64,192,107205,128,8,107298:0:0:0:0:
320,192,107205,128,0,107298:0:0:0:60:Hat Open.wav
448,192,107205,128,0,107298:0:0:0:0:
64,192,107390,128,8,107483:0:0:0:0:
320,192,107390,128,0,107483:0:0:0:60:Hat Open.wav
448,192,107390,128,0,107483:0:0:0:0:
64,192,107761,128,8,108224:0:0:0:0:
192,192,107761,128,4,108224:0:0:0:0:
320,192,107761,1,0,0:0:0:0:
192,192,108316,128,0,111094:0:0:0:0:
320,192,108316,128,0,111187:0:0:0:0:
448,192,108316,128,0,111279:0:0:0:0:
