osu file format v14

[General]
AudioFilename: audio.mp3
AudioLeadIn: 0
PreviewTime: 66766
Countdown: 0
SampleSet: Soft
StackLeniency: 0.7
Mode: 0
LetterboxInBreaks: 0
WidescreenStoryboard: 0

[Editor]
DistanceSpacing: 1
BeatDivisor: 4
GridSize: 16
TimelineZoom: 2.5

[Metadata]
Title:Noraneko Heart
TitleUnicode:野良猫ハート
Artist:Haruka Sora, Kotorii Yuuka, Kamishiro Misaki, Kiritani Hana
ArtistUnicode:遥そら、小鳥居夕花、神代岬、桐谷華
Creator:Asuka_-
Version:Insane
Source:ノラと皇女と野良猫ハート
Tags:eroge opening HARUKAZE oujo Hato to 黒木 未知 パトリシア・オブ・エンド 夕莉 シャチ 明日原 ユウキ Kuroki Michi Patricia of end Yuuri shachi Asuhara Yuuki Firis Mistlud KuranteMelodii makisokk Left
BeatmapID:1352605
BeatmapSetID:637579

[Difficulty]
HPDrainRate:6
CircleSize:4
OverallDifficulty:8
ApproachRate:9
SliderMultiplier:1.8
SliderTickRate:1

[Events]
//Background and Video events
0,0,"BG.jpg",0,0
//Break Periods
//Storyboard Layer 0 (Background)
//Storyboard Layer 1 (Fail)
//Storyboard Layer 2 (Pass)
//Storyboard Layer 3 (Foreground)
//Storyboard Sound Samples

[TimingPoints]
1674,370.37037037037,4,2,2,40,1,0
1674,-133.333333333333,4,2,2,40,0,0
7044,-133.333333333333,4,2,1,40,0,0
7599,-117.647058823529,4,2,1,40,0,0
15562,-117.647058823529,4,2,2,40,0,0
16488,-125,4,2,1,40,0,0
40099,-125,4,2,1,15,0,0
40192,-142.857142857143,4,2,1,40,0,0
52044,-111.111111111111,4,2,1,50,0,0
66859,-100,4,2,1,70,0,1
90562,-100,4,2,1,60,0,0
107785,-133.333333333333,4,2,1,60,0,0
108248,-133.333333333333,4,2,1,15,0,0
108340,-133.333333333333,4,2,1,45,0,0
111303,-100,4,2,1,15,0,0

[Colours]
Combo1 : 168,255,255
Combo2 : 251,0,0
Combo3 : 255,255,21
Combo4 : 0,191,0

[HitObjects]
32,303,1674,6,0,L|21:217,1,67.5000025749208,2|0,0:0|0:0,0:0:0:0:
128,296,2044,1,0,0:0:0:0:
128,296,2229,2,0,P|123:335|113:384,1,67.5000025749208,2|0,0:0|0:0,0:0:0:0:
222,255,2599,2,0,P|224:291|222:335,1,67.5000025749208,2|0,0:0|0:0,0:0:0:0:
311,208,2970,1,2,0:0:0:0:
311,208,3155,2,0,P|380:270|475:215,1,202.500007724762
503,14,4266,5,2,0:0:0:0:
385,98,4636,2,0,P|354:96|308:87,1,67.5000025749208,2|0,0:0|0:0,0:0:0:0:
240,29,5006,1,0,0:0:0:0:
240,29,5192,2,0,P|214:78|232:153,1,135.000005149842,2|0,0:0|0:0,0:0:0:0:
303,217,5748,1,2,0:0:0:0:
232,332,6118,2,0,P|169:320|94:308,1,135.000005149842,2|0,0:0|0:0,0:0:0:0:
12,366,6673,1,2,0:0:0:0:
19,152,7044,5,2,0:0:0:0:
86,211,7229,2,0,P|106:168|94:106,1,101.250003862381,6|0,0:0|0:0,0:0:0:0:
69,80,7599,6,0,P|99:89|155:94,1,76.5000014591217,2|0,0:0|0:0,0:0:0:0:
299,71,7970,1,8,0:0:0:0:
220,146,8155,2,0,P|210:184|203:220,1,76.5000014591217,2|0,0:0|0:0,0:0:0:0:
339,254,8525,2,0,P|332:211|330:175,1,76.5000014591217,2|8,0:0|0:0,0:0:0:0:
460,163,8896,6,0,P|446:221|428:316,1,153.000002918243,2|0,0:0|0:0,0:0:0:0:
330,369,9451,2,0,P|283:368|236:356,1,76.5000014591217,8|0,0:0|0:0,0:0:0:0:
153,305,9822,1,2,0:0:0:0:
269,258,10007,1,2,0:0:0:0:
69,258,10192,2,0,P|61:295|57:347,1,76.5000014591217,8|0,0:0|0:0,0:0:0:0:
233,154,10562,6,0,P|229:115|222:78,1,76.5000014591217,2|0,0:0|0:0,0:0:0:0:
131,29,10933,1,8,0:0:0:0:
39,149,11118,2,0,P|83:136|133:136,1,76.5000014591217,2|0,0:0|0:0,0:0:0:0:
233,153,11488,1,0,0:0:0:0:
211,324,11673,2,0,P|170:322|110:304,1,76.5000014591217,10|0,0:0|0:0,0:0:0:0:
36,261,12044,5,2,0:0:0:0:
94,147,12229,1,8,0:0:0:0:
176,240,12414,1,8,0:0:0:0:
0,160,12599,1,4,0:3:0:0:
0,160,12692,1,2,0:0:0:0:
0,160,12785,1,2,0:0:0:0:
116,43,12970,1,2,0:0:0:0:
99,241,13155,1,0,0:0:0:0:
217,98,13340,1,0,0:0:0:0:
210,312,13525,1,2,0:0:0:0:
429,161,13711,5,8,0:0:0:0:
389,339,13896,1,8,0:0:0:0:
294,55,14266,5,8,0:0:0:0:
298,251,14451,1,8,0:0:0:0:
173,28,14822,5,8,0:0:0:0:
142,255,15007,1,8,0:0:0:0:
0,57,15377,5,8,0:0:0:0:
35,313,15562,1,2,0:0:0:0:
54,340,15655,1,2,0:0:0:0:
84,354,15748,1,2,0:0:0:0:
116,361,15840,1,2,0:0:0:0:
149,353,15933,1,2,0:0:0:0:
178,337,16025,1,2,0:0:0:0:
206,318,16118,1,2,0:0:0:0:
238,308,16211,1,2,0:0:0:0:
271,310,16303,1,2,0:0:0:0:
305,325,16396,1,2,0:0:0:0:
328,353,16488,5,6,0:0:0:0:
486,349,16859,2,0,P|492:317|494:271,1,72,8|0,0:0|0:0,0:0:0:0:
387,223,17229,2,0,P|388:255|398:299,1,72,2|0,0:0|0:0,0:0:0:0:
449,139,17599,1,8,0:0:0:0:
296,259,17785,6,0,P|223:275|150:228,1,144,2|2,0:0|0:0,0:0:0:0:
90,161,18340,2,0,P|92:126|106:75,1,72,8|0,0:0|0:0,0:0:0:0:
170,14,18711,1,2,0:0:0:0:
242,82,18896,1,0,0:0:0:0:
354,16,19081,2,0,P|347:58|345:97,1,72,8|0,0:0|0:0,0:0:0:0:
423,194,19451,6,0,P|435:146|439:96,1,72,2|0,0:0|0:0,0:0:0:0:
292,197,19822,2,0,P|295:233|306:275,1,72,8|0,0:0|0:0,0:0:0:0:
487,358,20192,1,2,0:0:0:0:
388,317,20377,1,2,0:0:0:0:
472,252,20562,1,8,0:0:0:0:
317,372,20748,6,0,P|280:372|165:365,1,144,2|0,0:0|0:0,0:0:0:0:
37,274,21303,2,0,P|26:309|23:344,1,72,8|0,0:0|0:0,0:0:0:0:
191,173,21673,1,2,0:0:0:0:
137,276,21859,1,2,0:0:0:0:
77,187,22044,1,8,0:0:0:0:
253,250,22229,1,0,0:0:0:0:
13,240,22414,6,0,P|-5:177|45:109,1,144,2|8,0:0|0:0,0:0:0:0:
159,45,22970,2,0,P|195:47|243:58,1,72,2|2,0:0|0:0,0:0:0:0:
374,130,23340,1,2,0:0:0:0:
272,174,23525,1,8,0:0:0:0:
452,291,23711,6,0,P|457:253|492:124,1,144,2|2,0:0|0:0,0:0:0:0:
367,58,24266,2,0,P|370:96|375:147,1,72,8|0,0:0|0:0,0:0:0:0:
316,283,24636,2,0,P|279:291|233:289,1,72,2|0,0:0|0:0,0:0:0:0:
150,119,25007,2,0,P|183:111|231:110,1,72,8|0,0:0|0:0,0:0:0:0:
373,129,25377,5,2,0:0:0:0:
282,192,25562,1,0,0:0:0:0:
428,236,25748,1,8,0:0:0:0:
269,302,25933,1,2,0:0:0:0:
434,367,26118,2,0,P|474:363|527:354,1,72,2|0,0:0|0:0,0:0:0:0:
428,236,26488,1,8,0:0:0:0:
269,302,26673,6,0,P|274:244|287:157,1,144,2|0,0:0|0:0,0:0:0:0:
325,59,27229,1,8,0:0:0:0:
195,138,27414,2,0,P|187:102|182:48,1,72,2|0,0:0|0:0,0:0:0:0:
361,182,27785,1,2,0:0:0:0:
181,236,27970,1,8,0:0:0:0:
181,236,28062,1,8,0:0:0:0:
181,236,28155,1,8,0:0:0:0:
181,236,28248,1,8,0:0:0:0:
181,236,28340,1,12,0:0:0:0:
474,41,28711,6,0,P|470:77|459:123,1,72,8|0,0:0|0:0,0:0:0:0:
369,206,29081,2,0,P|362:174|358:130,1,72,2|0,0:0|0:0,0:0:0:0:
285,62,29451,1,8,0:0:0:0:
230,238,29636,6,0,P|182:273|103:254,1,144,2|0,0:0|0:0,0:0:0:0:
57,83,30192,2,0,P|53:125|41:171,1,72,8|0,0:0|0:0,0:0:0:0:
3,268,30562,1,2,0:0:0:0:
155,165,30748,1,2,0:0:0:0:
111,325,30933,2,0,P|102:293|104:236,1,72,8|0,0:0|0:0,0:0:0:0:
246,115,31303,6,0,P|257:156|260:210,1,72,2|0,0:0|0:0,0:0:0:0:
183,332,31673,2,0,P|147:333|96:319,1,72,8|0,0:0|0:0,0:0:0:0:
20,202,32044,1,2,0:0:0:0:
149,251,32229,1,2,0:0:0:0:
9,337,32414,1,8,0:0:0:0:
98,179,32599,6,0,P|168:160|229:214,1,144,2|2,0:0|0:0,0:0:0:0:
146,362,33155,2,0,P|110:367|74:369,1,72,8|2,0:0|0:0,0:0:0:0:
309,329,33525,1,2,0:0:0:0:
205,284,33711,1,0,0:0:0:0:
319,235,33896,1,8,0:0:0:0:
415,327,34081,1,2,0:0:0:0:
490,182,34266,6,0,P|495:213|498:253,1,72,6|0,0:0|0:0,0:0:0:0:
393,342,34636,2,0,P|370:346|289:347,1,72,8|0,0:0|0:0,0:0:0:0:
186,290,35007,1,2,0:0:0:0:
250,164,35192,1,2,0:0:0:0:
361,239,35377,1,8,0:0:0:0:
490,157,35562,6,0,P|482:110|475:76,1,72,2|0,0:0|0:0,0:0:0:0:
362,27,35933,1,0,0:0:0:0:
250,164,36118,2,0,P|287:161|334:150,1,72,8|0,0:0|0:0,0:0:0:0:
103,107,36488,1,2,0:0:0:0:
236,52,36673,1,2,0:0:0:0:
80,24,36859,1,8,0:0:0:0:
173,162,37044,1,0,0:0:0:0:
48,352,37229,6,0,P|52:320|68:268,1,72,2|0,0:0|0:0,0:0:0:0:
173,162,37599,1,8,0:0:0:0:
268,268,37785,1,8,0:0:0:0:
268,268,37877,1,8,0:0:0:0:
268,268,37970,1,8,0:0:0:0:
158,138,38155,2,0,P|117:141|74:171,1,72,2|8,0:0|0:0,0:0:0:0:
77,41,38525,6,0,P|102:52|148:53,1,72,6|0,0:0|0:0,0:0:0:0:
295,132,38896,1,2,0:0:0:0:
232,23,39081,1,8,0:0:0:0:
400,11,39266,2,0,P|389:52|386:98,1,72,2|0,0:0|0:0,0:0:0:0:
361,272,39636,5,4,0:3:0:0:
265,205,39822,2,0,P|212:195|157:216,1,108,4|0,0:3|0:0,0:0:0:0:
129,223,40192,5,6,0:3:0:0:
129,223,40377,2,0,L|145:95,1,125.999996154785,4|0,0:3|0:0,0:0:0:0:
239,29,40933,2,0,L|245:100,1,62.9999980773926,0|2,0:0|0:0,0:0:0:0:
338,116,41303,2,0,L|355:35,1,62.9999980773926,4|0,0:3|0:0,0:0:0:0:
299,239,41673,5,2,0:0:0:0:
299,239,41859,2,0,P|356:226|434:223,1,125.999996154785,2|0,0:0|0:0,0:0:0:0:
306,350,42414,2,0,P|274:347|232:342,1,62.9999980773926,0|2,0:0|0:0,0:0:0:0:
138,277,42785,2,0,P|168:271|220:266,1,62.9999980773926,8|2,0:3|0:0,0:0:0:0:
49,303,43155,6,0,P|47:335|41:366,1,62.9999980773926,2|0,0:0|0:0,0:0:0:0:
19,151,43525,1,0,0:0:0:0:
19,150,43711,2,0,P|9:181|6:212,1,62.9999980773926,2|0,0:0|0:0,0:0:0:0:
153,107,44081,1,2,0:0:0:0:
94,191,44266,1,8,0:0:0:0:
58,52,44451,6,0,P|112:70|197:69,1,125.999996154785,2|0,0:0|0:0,0:0:0:0:
261,24,45007,1,2,0:0:0:0:
340,192,45192,2,0,P|364:144|341:60,1,125.999996154785,2|2,0:0|0:0,0:0:0:0:
260,24,45748,1,8,0:0:0:0:
194,97,45933,1,0,0:0:0:0:
60,24,46118,6,0,P|54:55|46:101,1,62.9999980773926,2|0,0:0|0:0,0:0:0:0:
128,237,46488,2,0,P|122:206|119:170,1,62.9999980773926,2|0,0:0|0:0,0:0:0:0:
206,35,46859,2,0,P|199:68|193:101,1,62.9999980773926,2|2,0:0|0:0,0:0:0:0:
298,222,47229,2,0,P|295:191|287:141,1,62.9999980773926,4|0,0:3|0:0,0:0:0:0:
377,44,47599,5,2,0:0:0:0:
377,44,47785,1,2,0:0:0:0:
489,148,47970,2,0,P|460:140|408:136,1,62.9999980773926,2|8,0:0|0:0,0:0:0:0:
302,231,48340,2,0,P|336:231|384:224,1,62.9999980773926,2|2,0:0|0:0,0:0:0:0:
490,313,48711,2,0,P|457:324|417:330,1,62.9999980773926,8|0,0:0|0:0,0:0:0:0:
238,370,49081,6,0,P|232:318|221:238,1,125.999996154785,4|2,0:3|0:0,0:0:0:0:
195,125,49636,1,8,0:0:0:0:
447,198,50007,1,2,0:0:0:0:
359,242,50192,1,8,0:0:0:0:
329,78,50377,6,0,P|386:74|470:63,1,125.999996154785,6|2,0:0|0:0,0:0:0:0:
185,122,50933,1,8,0:0:0:0:
258,19,51118,1,2,0:0:0:0:
326,194,51303,1,8,0:0:0:0:
285,225,51396,1,8,0:0:0:0:
232,236,51488,1,8,0:0:0:0:
176,231,51581,1,8,0:0:0:0:
130,211,51673,1,10,0:0:0:0:
40,86,51859,1,4,0:3:0:0:
8,263,52044,6,0,P|1:308|-1:369,1,80.9999975280763,6|0,0:0|0:0,0:0:0:0:
248,316,52414,2,0,P|244:273|234:231,1,80.9999975280763,8|0,0:0|0:0,0:0:0:0:
134,108,52785,1,2,0:0:0:0:
309,162,52970,1,2,0:0:0:0:
164,23,53155,2,0,P|120:22|69:44,1,80.9999975280763,8|0,0:0|0:0,0:0:0:0:
79,243,53525,6,0,P|120:255|167:249,1,80.9999975280763,2|0,0:0|0:0,0:0:0:0:
340,366,53896,2,0,P|346:327|356:282,1,80.9999975280763,8|0,0:0|0:0,0:0:0:0:
461,137,54266,1,2,0:0:0:0:
320,189,54451,1,0,0:0:0:0:
423,54,54636,2,0,P|465:43|515:46,1,80.9999975280763,8|0,0:0|0:0,0:0:0:0:
222,216,55007,6,0,P|228:173|239:121,1,80.9999975280763,2|8,0:0|0:0,0:0:0:0:
235,136,55285,1,8,0:0:0:0:
235,136,55377,1,8,0:0:0:0:
156,299,55562,1,8,0:0:0:0:
432,225,55933,1,8,0:0:0:0:
59,339,56303,6,0,P|64:298|72:242,1,80.9999975280763,6|0,0:0|0:0,0:0:0:0:
129,67,56673,1,2,0:0:0:0:
0,121,56859,1,8,0:0:0:0:
240,131,57044,1,2,0:0:0:0:
148,330,57229,1,8,0:0:0:0:
111,287,57322,1,8,0:0:0:0:
118,239,57414,1,8,0:0:0:0:
159,203,57507,1,8,0:0:0:0:
208,208,57599,1,8,0:0:0:0:
241,254,57692,1,8,0:0:0:0:
233,300,57785,1,8,0:0:0:0:
198,331,57877,1,8,0:0:0:0:
148,330,57970,6,0,P|113:331|58:322,1,80.9999975280763,6|0,0:0|0:0,0:0:0:0:
370,303,58340,2,0,P|408:302|479:312,1,80.9999975280763,8|0,0:0|0:0,0:0:0:0:
195,149,58711,1,2,0:0:0:0:
346,202,58896,1,2,0:0:0:0:
146,259,59081,1,8,0:0:0:0:
299,100,59266,6,0,P|341:92|389:92,1,80.9999975280763,6|0,0:0|0:0,0:0:0:0:
489,191,59636,1,2,0:0:0:0:
375,366,59822,2,0,P|373:324|364:268,1,80.9999975280763,8|0,0:0|0:0,0:0:0:0:
173,211,60192,1,2,0:0:0:0:
271,312,60377,1,0,0:0:0:0:
340,157,60562,1,8,0:0:0:0:
180,303,60748,1,2,0:0:0:0:
63,103,60933,6,0,P|55:138|49:191,1,80.9999975280763,6|0,0:0|0:0,0:0:0:0:
323,77,61303,2,0,P|334:117|340:157,1,80.9999975280763,8|0,0:0|0:0,0:0:0:0:
180,303,61673,1,2,0:0:0:0:
336,261,61859,1,2,0:0:0:0:
184,166,62044,1,8,0:0:0:0:
294,351,62229,6,0,P|367:361|427:297,1,161.999995056153,2|2,0:0|0:0,0:0:0:0:
498,62,62785,2,0,P|493:103|482:153,1,80.9999975280763,8|0,0:0|0:0,0:0:0:0:
336,261,63155,1,2,0:0:0:0:
509,230,63340,1,2,0:0:0:0:
274,170,63525,1,8,0:0:0:0:
162,368,63711,6,0,P|155:325|146:275,1,80.9999975280763,6|0,0:0|0:0,0:0:0:0:
60,154,64081,1,8,0:0:0:0:
266,229,64266,1,8,0:0:0:0:
166,121,64451,1,8,0:0:0:0:
166,121,64544,1,8,0:0:0:0:
166,121,64636,1,8,0:0:0:0:
344,66,64822,1,0,0:0:0:0:
266,229,65007,1,2,0:0:0:0:
469,167,65192,5,8,0:0:0:0:
57,237,65562,1,8,0:0:0:0:
454,298,65933,1,8,0:0:0:0:
237,45,66303,5,4,0:3:0:0:
237,45,66396,1,4,0:3:0:0:
237,45,66488,2,0,P|245:76|199:50,1,121.499996292114,6|0,0:0|0:0,0:0:0:0:
209,32,66859,5,6,0:0:0:0:
110,107,67044,1,0,0:0:0:0:
279,177,67229,1,8,0:0:0:0:
100,347,67414,2,0,P|87:306|80:257,1,90,2|0,0:0|0:0,0:0:0:0:
304,96,67785,1,0,0:0:0:0:
213,256,67970,1,8,0:0:0:0:
163,21,68155,6,0,P|195:11|258:10,1,90,2|0,0:0|0:0,0:0:0:0:
391,25,68525,1,2,0:0:0:0:
222,103,68711,1,8,0:0:0:0:
374,273,68896,2,0,P|417:266|463:246,1,90,2|0,0:0|0:0,0:0:0:0:
222,103,69266,1,2,0:0:0:0:
198,329,69451,2,0,P|241:341|286:342,1,90,8|0,0:0|0:0,0:0:0:0:
459,247,69822,5,2,0:0:0:0:
285,175,70007,1,0,0:0:0:0:
460,102,70192,1,8,0:0:0:0:
286,341,70377,2,0,P|242:340|196:327,1,90,2|0,0:0|0:0,0:0:0:0:
224,94,70748,2,0,P|265:82|318:78,1,90,2|8,0:0|0:0,0:0:0:0:
65,338,71118,6,0,P|71:299|79:228,1,90,2|0,0:0|0:0,0:0:0:0:
219,83,71488,1,2,0:0:0:0:
47,137,71673,1,8,0:0:0:0:
226,337,71859,2,0,P|217:293|211:245,1,90,2|0,0:0|0:0,0:0:0:0:
219,83,72229,1,2,0:0:0:0:
88,280,72414,2,0,P|48:281|-9:265,1,90,8|2,0:0|0:0,0:0:0:0:
235,46,72785,6,0,P|273:42|340:60,1,90,2|0,0:0|0:0,0:0:0:0:
461,129,73155,1,8,0:0:0:0:
266,263,73340,2,0,P|251:213|249:160,1,90,2|0,0:0|0:0,0:0:0:0:
495,94,73711,2,0,P|508:135|512:191,1,90,2|8,0:0|0:0,0:0:0:0:
148,218,74081,6,0,P|163:135|187:25,1,180,2|0,0:0|0:0,0:0:0:0:
411,24,74636,2,0,P|365:37|295:41,1,90,8|0,0:0|0:0,0:0:0:0:
93,14,75007,1,2,0:0:0:0:
261,123,75192,1,2,0:0:0:0:
51,146,75377,1,8,0:0:0:0:
219,20,75562,1,0,0:0:0:0:
149,292,75748,6,0,P|105:291|54:279,1,90,6|0,0:0|0:0,0:0:0:0:
294,137,76118,1,8,0:0:0:0:
119,199,76303,1,0,0:0:0:0:
297,370,76488,2,0,P|304:327|318:273,1,90,2|0,0:0|0:0,0:0:0:0:
386,143,76859,1,8,0:0:0:0:
174,336,77044,6,0,P|126:338|77:326,1,90,6|0,0:0|0:0,0:0:0:0:
20,104,77414,1,8,0:0:0:0:
174,181,77599,1,8,0:0:0:0:
35,243,77785,1,8,0:0:0:0:
35,243,77877,1,8,0:0:0:0:
35,243,77970,2,0,P|45:210|61:180,1,45,8|8,0:3|0:3,0:0:0:0:
148,96,78155,2,0,P|173:93|213:100,1,45,4|4,0:3|0:3,0:0:0:0:
317,167,78340,1,8,0:0:0:0:
340,215,78433,1,8,0:0:0:0:
345,269,78525,1,8,0:0:0:0:
333,321,78618,1,8,0:0:0:0:
299,360,78711,5,6,0:0:0:0:
60,308,78896,1,0,0:0:0:0:
240,250,79081,1,8,0:0:0:0:
84,101,79266,2,0,P|86:145|92:190,1,90,2|0,0:0|0:0,0:0:0:0:
143,353,79636,1,2,0:0:0:0:
240,250,79822,1,8,0:0:0:0:
394,383,80007,6,0,P|347:379|296:366,1,90,2|0,0:0|0:0,0:0:0:0:
156,281,80377,1,2,0:0:0:0:
320,214,80563,1,8,0:0:0:0:
463,317,80748,2,0,P|471:264|484:214,1,90,2|0,0:0|0:0,0:0:0:0:
511,129,81118,1,2,0:0:0:0:
356,301,81303,2,0,P|310:301|259:289,1,90,8|0,0:0|0:0,0:0:0:0:
72,204,81673,5,6,0:0:0:0:
234,136,81859,1,8,0:0:0:0:
234,136,81951,1,8,0:0:0:0:
234,136,82044,1,8,0:0:0:0:
151,373,82229,2,0,P|145:323|136:274,1,90,6|0,0:0|0:0,0:0:0:0:
418,196,82599,2,0,P|406:243|394:302,1,90,6|0,0:0|0:0,0:0:0:0:
145,24,82970,6,0,P|150:66|157:118,1,90,6|0,0:0|0:0,0:0:0:0:
251,291,83340,1,2,0:0:0:0:
335,145,83525,1,8,0:0:0:0:
111,236,83711,2,0,P|98:279|90:323,1,90,2|2,0:0|0:0,0:0:0:0:
335,145,84081,1,2,0:0:0:0:
100,48,84266,1,8,0:0:0:0:
57,92,84359,1,8,0:0:0:0:
47,149,84451,1,8,0:0:0:0:
67,203,84544,1,8,0:0:0:0:
111,236,84636,6,0,P|150:245|215:252,1,90,6|0,0:0|0:0,0:0:0:0:
399,199,85007,1,8,0:0:0:0:
301,19,85192,2,0,P|253:25|204:38,1,90,2|0,0:0|0:0,0:0:0:0:
369,294,85562,2,0,P|399:295|461:282,1,90,2|8,0:0|0:0,0:0:0:0:
160,175,85933,6,0,P|146:276|136:362,1,180,2|0,0:0|0:0,0:0:0:0:
45,97,86488,2,0,P|48:139|57:199,1,90,8|0,0:0|0:0,0:0:0:0:
231,18,86859,1,2,0:0:0:0:
80,76,87044,1,2,0:0:0:0:
294,157,87229,1,8,0:0:0:0:
176,371,87414,6,0,P|134:295|183:213,1,180,6|0,0:0|0:0,0:0:0:0:
425,290,87970,2,0,P|415:340|407:388,1,90,8|0,0:0|0:0,0:0:0:0:
460,110,88340,1,2,0:0:0:0:
319,261,88525,1,2,0:0:0:0:
496,214,88711,1,8,0:0:0:0:
238,357,88896,6,0,P|233:306|224:160,1,180,6|0,0:0|0:0,0:0:0:0:
333,118,89451,2,0,P|349:165|343:215,1,90,8|0,0:0|0:0,0:0:0:0:
115,231,89822,2,0,P|102:181|110:131,1,90,2|0,0:0|0:0,0:0:0:0:
373,43,90192,1,8,0:0:0:0:
409,88,90285,1,8,0:0:0:0:
427,144,90377,1,8,0:0:0:0:
426,202,90470,1,8,0:0:0:0:
415,261,90562,5,6,0:0:0:0:
123,329,91859,6,0,P|131:253|150:323,1,180,4|8,1:2|0:0,0:0:0:0:
162,318,92414,1,4,1:2:0:0:
445,348,92970,1,2,0:0:0:0:
445,348,93062,1,2,0:0:0:0:
445,348,93155,2,0,P|453:302|474:233,1,90,0|0,1:0|0:0,0:0:0:0:
511,142,93525,6,0,P|469:154|391:148,1,90,6|0,0:0|0:0,0:0:0:0:
290,92,93896,1,8,0:0:0:0:
210,238,94081,2,0,P|203:197|191:146,1,90,2|0,0:0|0:0,0:0:0:0:
319,323,94451,2,0,P|332:275|348:224,1,90,2|8,0:0|0:0,0:0:0:0:
487,122,94822,6,0,P|443:130|368:133,1,90,2|0,0:0|0:0,0:0:0:0:
205,118,95192,1,2,0:0:0:0:
309,61,95377,1,8,0:0:0:0:
167,206,95562,2,0,P|159:123|143:22,1,180,2|0,0:0|0:0,0:0:0:0:
51,151,96118,1,8,0:0:0:0:
122,290,96303,1,2,0:0:0:0:
122,290,96396,1,2,0:0:0:0:
122,290,96488,6,0,P|164:297|228:297,1,90,6|0,0:0|0:0,0:0:0:0:
368,238,96859,1,8,0:0:0:0:
289,124,97044,2,0,P|279:172|271:227,1,90,2|0,0:0|0:0,0:0:0:0:
443,60,97414,2,0,P|449:100|456:161,1,90,2|8,0:0|0:0,0:0:0:0:
446,335,97785,6,0,P|439:295|423:227,1,90,2|0,0:0|0:0,0:0:0:0:
334,139,98155,1,2,0:0:0:0:
232,272,98340,2,0,P|275:268|335:246,1,90,8|0,0:0|0:0,0:0:0:0:
168,112,98711,1,4,0:3:0:0:
130,137,98803,1,4,0:3:0:0:
107,177,98896,1,8,0:0:0:0:
100,222,98988,1,8,0:0:0:0:
103,267,99081,1,4,0:3:0:0:
126,309,99173,1,4,0:3:0:0:
164,342,99266,1,8,0:0:0:0:
210,360,99359,1,8,0:0:0:0:
258,360,99451,6,0,P|299:356|348:338,1,90,6|0,0:0|0:0,0:0:0:0:
482,257,99822,1,8,0:0:0:0:
356,125,100007,2,0,P|351:164|341:226,1,90,2|0,0:0|0:0,0:0:0:0:
219,47,100377,2,0,P|222:85|226:137,1,90,2|8,0:0|0:0,0:0:0:0:
193,340,100748,6,0,P|157:338|92:329,1,90,2|0,0:0|0:0,0:0:0:0:
61,166,101118,1,2,0:0:0:0:
154,254,101303,1,8,0:0:0:0:
289,107,101488,2,0,P|280:156|270:231,1,90,2|0,0:0|0:0,0:0:0:0:
373,336,101859,1,8,0:0:0:0:
403,293,101951,1,8,0:0:0:0:
410,238,102044,1,8,0:0:0:0:
387,186,102136,1,8,0:0:0:0:
370,129,102229,1,8,0:0:0:0:
380,73,102322,1,8,0:0:0:0:
402,31,102414,6,0,P|415:86|419:133,1,90,6|0,0:0|0:0,0:0:0:0:
319,259,102785,1,8,0:0:0:0:
493,172,102970,1,2,0:0:0:0:
320,97,103155,1,8,0:0:0:0:
412,242,103340,1,2,0:0:0:0:
480,48,103525,1,8,0:0:0:0:
281,178,103711,1,2,0:0:0:0:
108,30,103896,6,0,L|94:140,1,90,6|0,0:0|0:0,0:0:0:0:
281,178,104266,2,0,L|273:82,1,90,8|0,0:0|0:0,0:0:0:0:
371,315,104636,1,8,0:0:0:0:
325,317,104729,1,8,0:0:0:0:
279,320,104822,1,8,0:0:0:0:
236,320,104914,1,8,0:0:0:0:
191,322,105007,1,8,0:0:0:0:
77,283,105192,2,0,P|70:330|62:396,1,90,2|0,0:0|0:0,0:0:0:0:
173,172,105562,5,6,0:0:0:0:
5,231,105748,2,0,P|1:194|1:132,1,90,2|0,0:0|0:0,0:0:0:0:
252,199,106118,5,6,0:0:0:0:
80,121,106303,2,0,P|89:80|111:31,1,90,2|0,0:0|0:0,0:0:0:0:
278,277,106673,5,6,0:0:0:0:
193,73,106859,2,0,P|226:48|285:28,1,90,2|0,0:0|0:0,0:0:0:0:
221,327,107229,5,6,0:0:0:0:
318,110,107414,2,0,P|354:110|416:128,1,90,2|0,0:0|0:0,0:0:0:0:
424,363,107785,6,0,P|435:293|465:357,1,168.750006437302,6|0,0:0|0:0,0:0:0:0:
256,192,108340,12,0,111303,0:0:0:0:
