osu file format v14

[General]
AudioFilename: audio.mp3
AudioLeadIn: 0
PreviewTime: 66766
Countdown: 0
SampleSet: Soft
StackLeniency: 0.7
Mode: 0
LetterboxInBreaks: 0
WidescreenStoryboard: 0

[Editor]
Bookmarks: 16488,66859,93525
DistanceSpacing: 1
BeatDivisor: 4
GridSize: 32
TimelineZoom: 1

[Metadata]
Title:Noraneko Heart
TitleUnicode:野良猫ハート
Artist:Haruka Sora, Kotorii Yuuka, Kamishiro Misaki, Kiritani Hana
ArtistUnicode:遥そら、小鳥居夕花、神代岬、桐谷華
Creator:Asuka_-
Version:Collab Easy
Source:ノラと皇女と野良猫ハート
Tags:eroge opening HARUKAZE oujo Hato to 黒木 未知 パトリシア・オブ・エンド 夕莉 シャチ 明日原 ユウキ Kuroki Michi Patricia of end Yuuri shachi Asuhara Yuuki Firis Mistlud KuranteMelodii makisokk Left
BeatmapID:1352603
BeatmapSetID:637579

[Difficulty]
HPDrainRate:2
CircleSize:3
OverallDifficulty:2
ApproachRate:3
SliderMultiplier:0.8
SliderTickRate:1

[Events]
//Background and Video events
0,0,"BG.jpg",0,0
//Break Periods
//Storyboard Layer 0 (Background)
//Storyboard Layer 1 (Fail)
//Storyboard Layer 2 (Pass)
//Storyboard Layer 3 (Foreground)
//Storyboard Sound Samples

[TimingPoints]
1674,370.37037037037,4,2,2,40,1,0
7044,-100,4,2,1,40,0,0
15562,-100,4,2,2,40,0,0
16488,-100,4,2,1,50,0,0
40099,-100,4,2,1,15,0,0
40192,-100,4,2,1,40,0,0
52044,-100,4,2,1,50,0,0
66859,-100,4,2,1,70,0,1
90562,-100,4,2,1,60,0,0
108248,-100,4,2,1,15,0,0
108340,-100,4,2,1,45,0,0
111303,-100,4,2,1,15,0,0

[Colours]
Combo1 : 168,255,255
Combo2 : 251,0,0
Combo3 : 255,255,21
Combo4 : 0,191,0

[HitObjects]
39,46,1674,6,0,P|81:22|159:37,1,120,2|2,0:0|0:0,0:0:0:0:
209,84,2599,1,2,0:0:0:0:
160,147,2970,2,0,P|149:223|141:305,1,160,2|0,0:0|0:0,0:0:0:0:
238,376,4266,1,2,0:0:0:0:
316,360,4636,6,0,P|360:348|435:366,2,120,2|2|2,0:0|0:0|0:0,0:0:0:0:
238,376,6118,2,0,P|235:309|231:256,1,120,2|2,0:0|0:0,0:0:0:0:
302,159,7229,1,6,0:0:0:0:
265,88,7599,6,0,P|197:81|157:113,1,120,2|2,0:0|0:0,0:0:0:0:
134,186,8525,1,2,0:0:0:0:
161,261,8896,2,0,P|205:290|270:280,1,120,2|8,0:0|0:0,0:0:0:0:
341,245,9822,2,0,P|349:209|355:166,1,80,2|8,0:0|0:0,0:0:0:0:
319,94,10562,6,0,P|272:63|205:73,2,120,2|2|10,0:0|0:0|0:0,0:0:0:0:
354,166,12044,2,0,P|354:238|333:330,1,160,2|2,0:0|0:0,0:0:0:0:
137,355,13711,6,0,P|83:358|6:369,1,120,8|8,0:0|0:0,0:0:0:0:
25,246,14822,2,0,P|87:238|161:234,1,120,8|8,0:0|0:0,0:0:0:0:
3,98,16488,5,6,0:0:0:0:
62,44,16859,2,0,P|105:49|158:41,1,80,8|2,0:0|0:0,0:0:0:0:
219,62,17599,1,8,0:0:0:0:
282,111,17970,2,0,P|267:148|265:191,2,80,2|8|2,0:0|0:0|0:0,0:0:0:0:
355,77,19081,1,8,0:0:0:0:
290,29,19451,6,0,L|194:24,1,80,2|8,0:0|0:0,0:0:0:0:
132,45,20192,2,0,B|104:120|104:120|106:168,2,120,2|2|8,0:0|0:0|0:0,0:0:0:0:
210,24,21673,1,2,0:0:0:0:
280,62,22044,1,8,0:0:0:0:
298,139,22414,6,0,L|281:228,1,80,2|8,0:0|0:0,0:0:0:0:
282,297,23155,2,0,P|243:299|195:318,1,80,2|8,0:0|0:0,0:0:0:0:
132,348,23896,2,0,P|63:317|67:225,1,160,2|2,0:0|0:0,0:0:0:0:
93,169,25007,1,8,0:0:0:0:
70,93,25377,2,0,B|107:81|107:81|241:102,1,160,2|2,0:0|0:0,0:0:0:0:
326,166,26673,6,0,L|337:249,1,80,2|0,0:0|0:0,0:0:0:0:
278,301,27414,2,0,B|198:292|198:292|149:297,1,120,2|8,0:0|0:0,0:0:0:0:
80,277,28340,1,12,0:0:0:0:
44,202,28711,6,0,P|43:167|69:126,1,80,8|2,0:0|0:0,0:0:0:0:
127,78,29451,1,8,0:0:0:0:
206,89,29822,2,0,L|294:79,1,80,0|8,0:0|0:0,0:0:0:0:
354,40,30562,1,2,0:0:0:0:
424,78,30933,1,8,0:0:0:0:
493,122,31303,6,0,L|503:213,1,80,2|8,0:0|0:0,0:0:0:0:
492,281,32044,2,0,P|437:332|388:324,2,120,2|2|8,0:0|0:0|0:0,0:0:0:0:
444,216,33525,1,2,0:0:0:0:
366,195,33896,1,8,0:0:0:0:
289,218,34266,6,0,L|260:137,1,80,6|8,0:0|0:0,0:0:0:0:
203,87,35007,1,2,0:0:0:0:
84,70,35562,2,0,P|59:144|81:188,1,120,2|8,0:0|0:0,0:0:0:0:
134,231,36488,1,2,0:0:0:0:
204,193,36859,1,8,0:0:0:0:
274,230,37229,6,0,B|321:246|321:246|357:242,1,80,2|8,0:0|0:0,0:0:0:0:
431,241,37970,2,0,P|458:167|447:122,1,120,8|2,0:0|0:0,0:0:0:0:
407,61,38896,1,2,0:0:0:0:
334,94,39266,2,0,P|258:112|207:91,1,120,2|4,0:0|0:3,0:0:0:0:
139,73,40192,6,0,B|121:150|121:150|135:320,1,240,4|4,0:3|0:3,0:0:0:0:
210,286,41673,2,0,P|384:277|434:316,1,240,2|8,0:0|0:3,0:0:0:0:
503,276,43155,6,0,L|514:148,1,120,2|2,0:0|0:0,0:0:0:0:
488,80,44081,1,2,0:0:0:0:
412,105,44451,2,0,P|294:120|247:94,1,160,2|2,0:0|0:0,0:0:0:0:
144,134,45748,1,8,0:0:0:0:
196,194,46118,6,0,L|188:358,1,160,2|2,0:0|0:0,0:0:0:0:
110,374,47229,1,4,0:3:0:0:
49,321,47599,2,0,L|56:161,1,160,2|2,0:0|0:0,0:0:0:0:
112,103,48711,1,8,0:0:0:0:
190,115,49081,2,0,B|269:129|269:129|386:102,1,200,4|2,0:3|0:0,0:0:0:0:
457,136,50377,6,0,L|465:271,1,120,2|8,0:0|0:0,0:0:0:0:
396,299,51303,1,8,0:0:0:0:
317,281,51673,1,10,0:0:0:0:
241,309,52044,6,0,P|198:322|156:317,1,80,6|8,0:0|0:0,0:0:0:0:
94,278,52785,2,0,L|87:197,1,80,2|8,0:0|0:0,0:0:0:0:
8,186,53525,2,0,L|1:106,1,80,2|8,0:0|0:0,0:0:0:0:
45,39,54266,2,0,P|82:46|135:27,1,80,2|8,0:0|0:0,0:0:0:0:
200,54,55007,5,2,0:0:0:0:
317,28,55562,1,8,0:0:0:0:
385,69,55933,1,8,0:0:0:0:
454,30,56303,2,0,B|465:58|465:58|456:161,1,120,6|8,0:0|0:0,0:0:0:0:
405,212,57229,2,0,L|326:228,1,80,8|8,0:0|0:0,0:0:0:0:
260,272,57970,5,6,0:0:0:0:
296,342,58340,2,0,P|334:359|383:347,1,80,8|2,0:0|0:0,0:0:0:0:
407,237,59266,2,0,B|405:204|405:204|423:71|423:71|410:28,1,200,2|0,0:0|0:0,0:0:0:0:
343,77,60562,1,8,0:0:0:0:
269,42,60933,6,0,L|186:52,1,80,6|8,0:0|0:0,0:0:0:0:
110,40,61673,1,2,0:0:0:0:
40,138,62229,2,0,B|64:297|64:297|59:344,1,200,2|2,0:0|0:0,0:0:0:0:
256,192,63711,12,2,65192,0:0:0:0:
118,79,66859,6,0,L|104:202,1,120,6|2,0:0|0:0,0:0:0:0:
135,271,67785,1,0,0:0:0:0:
209,240,68155,2,0,P|287:226|335:248,1,120,2|8,0:0|0:0,0:0:0:0:
395,274,69081,1,0,0:0:0:0:
471,251,69451,1,8,0:0:0:0:
509,180,69822,6,0,L|523:44,1,120,2|2,0:0|0:0,0:0:0:0:
453,18,70748,1,2,0:0:0:0:
382,56,71118,2,0,P|305:73|263:51,1,120,2|8,0:0|0:0,0:0:0:0:
192,37,72044,1,0,0:0:0:0:
119,71,72414,1,8,0:0:0:0:
49,110,72785,6,0,P|37:155|44:188,1,80,2|8,0:0|0:0,0:0:0:0:
88,252,73525,1,0,0:0:0:0:
166,235,73896,1,8,0:0:0:0:
243,253,74266,2,0,L|237:345,2,80,0|8|2,0:0|0:0|0:0,0:0:0:0:
318,224,75377,1,8,0:0:0:0:
396,237,75748,6,0,B|442:213|442:213|483:208,1,80,6|8,0:0|0:0,0:0:0:0:
508,280,76488,2,0,P|477:347|426:340,1,120,2|6,0:0|0:0,0:0:0:0:
328,302,77599,1,8,0:0:0:0:
253,330,77970,2,0,L|170:304,1,80,8|8,0:3|0:0,0:0:0:0:
148,230,78711,5,6,0:0:0:0:
90,173,79081,2,0,L|94:42,1,120,8|2,0:0|0:0,0:0:0:0:
173,42,80007,2,0,P|252:55|290:35,1,120,2|8,0:0|0:0,0:0:0:0:
362,59,80933,2,0,P|403:42|447:44,1,80,0|8,0:0|0:0,0:0:0:0:
510,76,81673,5,6,0:0:0:0:
460,185,82229,1,6,0:0:0:0:
381,170,82599,1,6,0:0:0:0:
306,198,82970,2,0,P|256:207|187:181,1,120,6|8,0:0|0:0,0:0:0:0:
123,142,83896,1,2,0:0:0:0:
48,171,84266,1,8,0:0:0:0:
24,247,84636,6,0,B|25:338|25:338|43:371,1,120,6|2,0:0|0:0,0:0:0:0:
118,366,85562,1,2,0:0:0:0:
190,332,85933,2,0,B|275:317|275:317|311:323,1,120,2|8,0:0|0:0,0:0:0:0:
384,347,86859,1,2,0:0:0:0:
485,283,87414,6,0,P|460:210|512:105,1,200,6|2,0:0|0:0,0:0:0:0:
409,41,88896,2,0,L|281:51,1,120,6|8,0:0|0:0,0:0:0:0:
221,92,89822,1,2,0:0:0:0:
144,69,90192,1,8,0:0:0:0:
256,192,90562,12,6,91859,0:0:0:0:
452,365,93525,6,0,P|481:305|465:242,1,120,6|2,0:0|0:0,0:0:0:0:
411,202,94451,1,2,0:0:0:0:
350,254,94822,2,0,P|271:264|177:271,1,160,2|2,0:0|0:0,0:0:0:0:
72,248,96118,1,8,0:0:0:0:
8,199,96488,6,0,P|1:130|34:84,1,120,6|2,0:0|0:0,0:0:0:0:
93,44,97414,1,2,0:0:0:0:
160,87,97785,2,0,P|217:90|288:91,1,120,2|8,0:0|0:0,0:0:0:0:
346,46,98711,2,0,P|380:44|429:48,1,80,4|4,0:3|0:3,0:0:0:0:
491,92,99451,6,0,P|505:148|475:219,1,120,6|2,0:0|0:0,0:0:0:0:
426,259,100377,1,2,0:0:0:0:
360,212,100748,2,0,P|318:207|272:222,1,80,2|2,0:0|0:0,0:0:0:0:
233,279,101488,2,0,P|166:298|103:278,1,120,2|8,0:0|0:0,0:0:0:0:
47,249,102414,6,0,P|39:217|35:154,1,80,6|8,0:0|0:0,0:0:0:0:
25,90,103155,2,0,P|46:47|79:20,1,80,8|8,0:0|0:0,0:0:0:0:
149,17,103896,2,0,P|192:17|237:34,1,80,8|8,0:0|0:0,0:0:0:0:
292,73,104636,2,0,P|348:76|417:60,1,120,8|2,0:0|0:0,0:0:0:0:
481,26,105562,6,0,P|498:84|486:150,1,120,6|6,0:0|0:0,0:0:0:0:
372,177,106673,2,0,P|357:244|377:306,1,120,6|6,0:0|0:0,0:0:0:0:
466,363,107785,1,6,0:0:0:0:
256,192,108340,12,0,111303,0:0:0:0:
