osu file format v14

[General]
AudioFilename: nora.mp3
AudioLeadIn: 0
PreviewTime: 65492
Countdown: 0
SampleSet: Soft
StackLeniency: 0.7
Mode: 0
LetterboxInBreaks: 0
WidescreenStoryboard: 0

[Editor]
DistanceSpacing: 0.8
BeatDivisor: 2
GridSize: 32
TimelineZoom: 0.4999998

[Metadata]
Title:Noraneko Heart
TitleUnicode:野良猫ハート
Artist:Haruka Sora, Kotorii Yuuka, Kamishiro Misaki, Kiritani Hana
ArtistUnicode:遥そら、小鳥居夕花、神代岬、桐谷華
Creator:-Nanaka-
Version:Easy
Source:ノラと皇女と野良猫ハート -Nora,Princess,and Stray Cat.-
Tags:Nora to Koujyo to Noraneko Heart Harukaze Opening eroge Visual Novel Momochikun -Maruk-
BeatmapID:1065794
BeatmapSetID:500496

[Difficulty]
HPDrainRate:2
CircleSize:3
OverallDifficulty:2
ApproachRate:3
SliderMultiplier:1
SliderTickRate:1

[Events]
//Background and Video events
0,0,"BG2.jpg",0,0
Video,-1300,"Nora.avi"
//Break Periods
//Storyboard Layer 0 (Background)
//Storyboard Layer 1 (Fail)
//Storyboard Layer 2 (Pass)
//Storyboard Layer 3 (Foreground)
//Storyboard Sound Samples

[TimingPoints]
-1082,370.37037037037,4,2,1,50,1,0
399,-100,4,2,1,50,0,0
1325,-100,4,2,1,40,0,0
1695,-100,4,2,1,50,0,0
5955,-100,4,2,1,60,0,0
6325,-100,4,2,1,70,0,0
15214,-100,4,2,1,60,0,0
38547,-100,4,2,1,50,0,0
38917,-100,4,2,1,50,0,0
44843,-100,4,2,1,60,0,0
49103,-100,4,2,1,75,0,0
50399,-100,4,2,1,80,0,0
50769,-100,4,2,1,70,0,0
55029,-100,4,2,1,90,0,0
55584,-100,4,2,1,80,0,0
55955,-100,4,2,1,60,0,0
56325,-100,4,2,1,70,0,0
65584,-100,4,2,1,80,0,1
76695,-100,4,2,1,60,0,1
76973,-100,4,2,1,70,0,0
77066,-100,4,2,1,80,0,0
77436,-100,4,2,1,80,0,1
80955,-100,4,2,1,100,0,1
81325,-100,4,2,1,90,0,1
81695,-100,4,2,1,100,0,1
82251,-100,4,2,1,80,0,1
82992,-100,4,2,1,70,0,1
83362,-100,4,2,1,80,0,1
89288,-100,4,2,1,100,0,0
89311,-100,4,2,1,50,0,0
90584,-100,4,2,1,80,0,1
91140,-100,4,2,1,80,0,0
92251,-100,4,2,1,70,0,0
107066,-100,4,2,1,50,0,0
107158,-100,4,2,1,30,0,0

[Colours]
Combo1 : 58,58,58
Combo2 : 253,242,104
Combo3 : 114,56,56
Combo4 : 253,111,34
Combo5 : 238,236,225

[HitObjects]
409,83,399,6,0,P|396:153|385:239,1,150,4|2,0:1|0:0,0:0:0:0:
379,311,1325,1,2,0:3:0:0:
303,283,1695,2,0,P|209:244|101:232,1,200,4|2,0:1|0:0,0:0:0:0:
23,313,2992,1,2,0:0:0:0:
30,233,3362,6,0,B|31:199|45:178|45:178|32:141|32:141|47:84,2,150,4|2|2,0:1|0:3|0:0,0:0:0:0:
23,313,4843,2,0,P|81:260|159:252,2,150,4|4|8,0:1|0:1|0:0,0:0:0:0:
85,362,6325,6,0,L|245:328,1,150,6|2,3:2|0:0,0:0:0:0:
311,340,7251,1,2,0:0:0:0:
351,271,7621,2,0,P|368:203|375:123,1,150,2|8,3:2|0:0,0:0:0:0:
314,70,8547,2,0,P|265:97|206:109,1,100,2|10,3:2|0:0,0:0:0:0:
170,46,9288,6,0,P|194:114|204:197,2,150,2|2|10,3:0|0:0|0:0,0:0:0:0:
90,47,10769,2,0,P|74:96|68:150,1,100,4|8,3:2|0:0,0:0:0:0:
69,224,11510,2,0,P|134:278|212:291,1,150,2|0,3:2|3:0,0:0:0:0:
273,267,12436,6,0,P|309:207|323:96,1,150,8|8,0:0|0:0,0:0:0:0:
388,231,13547,2,0,P|405:304|445:374,1,150,8|8,0:0|0:0,0:0:0:0:
205,324,15214,6,0,L|92:298,1,100,4|8,3:2|0:0,0:0:0:0:
50,245,15955,2,0,P|29:182|32:89,2,150,2|2|8,3:2|0:0|0:0,0:0:0:0:
108,302,17436,1,2,0:0:0:0:
138,228,17806,1,8,0:0:0:0:
209,263,18177,6,0,P|247:240|336:223,1,100,2|8,3:2|0:0,0:0:0:0:
377,246,18917,2,0,P|410:181|407:96,2,150,2|2|8,3:2|0:0|0:0,0:0:0:0:
319,302,20399,1,2,0:0:0:0:
300,224,20769,1,8,0:0:0:0:
241,278,21140,6,0,L|120:247,1,100,2|8,3:2|0:0,0:0:0:0:
99,186,21880,2,0,P|118:256|122:356,2,150,2|2|8,0:0|0:0|0:0,0:0:0:0:
74,109,23362,1,2,0:0:0:0:
140,64,23732,6,0,L|250:86,1,100,8|2,0:0|3:2,0:0:0:0:
310,118,24473,2,0,P|381:88|436:27,1,150,8|2,0:0|3:2,0:0:0:0:
488,90,25399,2,0,P|505:141|512:203,1,100,4|2,3:2|3:2,0:0:0:0:
455,244,26140,2,0,P|383:229|284:209,1,150,4|8,3:2|0:0,0:0:0:0:
240,257,27066,5,4,3:2:0:0:
224,178,27436,2,0,L|204:66,1,100,8|2,0:0|3:2,0:0:0:0:
261,21,28177,2,0,P|305:52|367:62,1,100,8|2,0:0|3:2,0:0:0:0:
397,126,28917,2,0,L|419:22,2,100,8|2|8,0:0|0:0|0:0,0:0:0:0:
406,205,30029,6,0,P|424:251|433:306,1,100,2|8,3:2|0:0,0:0:0:0:
372,353,30769,2,0,P|307:319|209:313,2,150,2|2|8,3:2|0:3|0:0,0:0:0:0:
433,301,32251,2,0,P|449:246|456:178,1,100,2|8,0:0|0:0,0:0:0:0:
399,146,32992,6,0,L|274:169,1,100,4|8,3:2|0:0,0:0:0:0:
244,221,33732,2,0,P|184:178|98:165,2,150,2|4|8,3:2|3:2|0:0,0:0:0:0:
292,285,35214,2,0,L|428:268,1,100,2|8,3:2|0:0,0:0:0:0:
462,309,35955,5,4,3:2:0:0:
481,231,36325,2,0,P|496:155|507:59,1,150,10|2,0:0|0:0,0:0:0:0:
449,25,37251,2,0,L|325:50,1,100,6|10,3:2|0:0,0:0:0:0:
277,76,37992,2,0,L|111:48,1,150,2|8,3:2|0:3,0:0:0:0:
73,108,38917,6,0,P|102:196|108:307,2,200,4|2|2,0:0|0:0|3:2,0:0:0:0:
54,29,40769,1,2,0:0:0:0:
130,51,41140,2,0,L|249:73,1,100,2|6,0:0|1:3,0:0:0:0:
305,50,41880,6,0,P|384:63|438:148,1,150,2|10,3:2|0:3,0:0:0:0:
449,190,42806,1,4,0:3:0:0:
440,269,43177,2,0,P|416:320|370:366,1,100,2|2,3:2|3:2,0:0:0:0:
314,318,43917,2,0,P|251:284|148:288,1,150,4|0,1:3|1:0,0:0:0:0:
96,301,44843,6,0,P|64:263|45:201,1,100,2|2,3:2|0:0,0:0:0:0:
99,155,45584,2,0,L|206:175,1,100,2|2,0:0|1:2,0:0:0:0:
268,209,46325,2,0,P|292:164|297:104,2,100,2|2|2,3:2|0:0|0:0,0:0:0:0:
218,272,47436,1,2,1:2:0:0:
278,323,47806,2,0,B|306:310|339:306|339:306|409:337|409:337|465:324|474:255,1,250,2|4,3:2|0:3,0:0:0:0:
407,214,49103,6,0,P|329:187|248:171,1,150,4|8,3:2|0:0,0:0:0:0:
185,193,50029,1,8,0:0:0:0:
114,154,50399,1,12,0:0:0:0:
70,221,50769,6,0,P|85:268|95:336,1,100,4|8,3:2|0:0,0:0:0:0:
157,365,51510,2,0,L|267:338,1,100,2|8,3:2|0:0,0:0:0:0:
321,298,52251,2,0,P|371:308|441:338,1,100,2|8,3:2|0:0,0:0:0:0:
490,356,52992,2,0,L|511:234,1,100,2|8,0:0|0:0,0:0:0:0:
491,179,53732,6,0,P|422:198|323:215,1,150,8|8,0:0|0:2,0:0:0:0:
268,186,54658,1,8,0:2:0:0:
196,150,55029,2,0,P|127:131|28:114,1,150,4|8,3:2|0:2,0:0:0:0:
14,188,55955,2,0,P|33:237|47:304,1,100,8|8,0:0|0:0,0:0:0:0:
98,341,56695,6,0,L|237:302,1,100,4|8,3:2|0:0,0:0:0:0:
266,279,57436,2,0,P|311:337|415:364,2,150,2|4|8,3:2|3:2|0:0,0:0:0:0:
230,207,58917,1,2,3:2:0:0:
184,272,59287,1,8,0:0:0:0:
151,198,59658,6,0,P|137:154|125:86,1,100,4|8,3:2|0:0,0:0:0:0:
189,52,60399,2,0,P|246:87|347:106,2,150,2|4|8,3:0|3:2|0:0,0:0:0:0:
114,23,61880,6,0,P|52:48|5:155,2,150,2|4|10,0:3|3:2|0:0,0:0:0:0:
130,101,63362,2,0,P|147:176|159:265,1,150,10|10,0:0|0:0,0:0:0:0:
137,325,64288,1,10,0:0:0:0:
214,306,64658,2,0,L|377:260,1,150,10|8,0:0|0:1,0:0:0:0:
431,297,65584,6,0,P|448:221|460:122,1,150,4|2,3:2|0:0,0:0:0:0:
430,74,66510,1,2,3:2:0:0:
360,114,66880,2,0,P|287:104|184:60,1,150,2|10,3:0|0:0,0:0:0:0:
157,22,67806,1,0,3:0:0:0:
77,15,68177,1,8,0:0:0:0:
24,75,68547,6,0,P|33:126|50:197,1,100,2|8,3:0|0:0,0:0:0:0:
76,246,69288,2,0,P|141:214|244:225,2,150,2|2|8,3:2|3:0|0:0,0:0:0:0:
75,325,70769,2,0,P|118:356|180:372,1,100,2|10,3:2|0:0,0:0:0:0:
242,374,71510,6,0,P|323:366|397:335,1,150,4|2,3:2|0:0,0:0:0:0:
454,298,72436,1,2,3:2:0:0:
472,220,72806,2,0,L|502:66,1,150,2|10,3:0|0:0,0:0:0:0:
445,15,73732,1,2,3:2:0:0:
365,4,74103,1,10,0:0:0:0:
306,58,74473,6,0,L|329:186,1,100,4|8,3:2|0:0,0:0:0:0:
282,224,75214,2,0,P|219:184|133:175,2,150,2|4|8,3:0|3:2|3:2,0:0:0:0:
337,281,76695,2,0,L|446:257,1,100,10|2,3:0|3:0,0:0:0:0:
493,204,77436,6,0,P|449:146|373:104,1,150,4|2,3:2|0:0,0:0:0:0:
303,97,78362,1,2,3:2:0:0:
244,151,78732,2,0,P|165:120|99:49,1,150,2|10,3:0|0:0,0:0:0:0:
49,35,79658,1,0,3:0:0:0:
5,102,80029,1,8,0:0:0:0:
18,182,80399,6,0,P|27:246|52:336,1,150,4|8,3:2|0:0,0:0:0:0:
116,371,81325,1,8,0:0:0:0:
183,328,81695,2,0,P|261:332|356:376,1,150,4|8,3:2|0:0,0:0:0:0:
398,320,82621,2,0,P|415:271|424:203,1,100,2|8,3:2|0:0,0:0:0:0:
373,160,83362,6,0,P|293:153|215:104,1,150,4|2,3:2|0:0,0:0:0:0:
172,67,84288,1,2,3:2:0:0:
101,104,84658,2,0,P|116:178|130:267,1,150,4|10,3:2|0:0,0:0:0:0:
190,302,85584,6,0,P|126:268|39:273,2,150,2|4|10,3:2|3:2|0:0,0:0:0:0:
255,349,87066,2,0,P|332:340|396:290,2,150,2|4|10,3:0|3:2|0:0,0:0:0:0:
190,302,88547,2,0,P|168:257|160:165,1,100,2|8,3:0|0:1,0:0:0:0:
165,128,89288,6,0,B|209:136|225:164|225:164|277:156|312:130|312:130|362:166|423:175,1,250,4|2,3:2|0:0,0:0:0:0:
457,129,90584,2,0,L|423:288,1,150,2|8,1:3|3:2,0:0:0:0:
405,353,91510,1,2,0:3:0:0:
345,299,91880,1,8,0:1:0:0:
277,342,92251,6,0,P|202:344|122:303,1,150,4|2,3:2|0:0,0:0:0:0:
73,262,93177,1,2,3:2:0:0:
104,188,93547,2,0,P|119:144|122:65,1,100,2|2,3:2|3:2,0:0:0:0:
179,32,94288,2,0,L|336:72,1,150,2|8,3:2|0:0,0:0:0:0:
399,39,95214,6,0,P|470:68|498:167,1,150,4|2,3:2|3:2,0:0:0:0:
456,198,96140,1,2,3:2:0:0:
499,264,96510,2,0,P|468:330|360:363,1,150,4|12,3:2|0:0,0:0:0:0:
321,360,97436,2,0,L|177:337,1,100,8|10,0:0|0:0,0:0:0:0:
145,368,98177,6,0,P|132:314|126:206,1,150,4|2,3:2|0:0,0:0:0:0:
138,140,99103,1,2,3:2:0:0:
198,87,99473,2,0,P|238:108|305:120,1,100,4|10,3:2|0:0,0:0:0:0:
366,92,100214,2,0,P|437:135|458:228,1,150,6|4,3:2|0:3,0:0:0:0:
412,259,101140,6,0,L|279:235,1,100,4|10,3:2|0:0,0:0:0:0:
248,288,101880,2,0,L|125:307,1,100,10|10,0:0|0:0,0:0:0:0:
82,259,102621,2,0,P|104:211|112:135,1,100,10|10,0:0|0:0,0:0:0:0:
67,99,103362,6,0,P|124:148|224:164,2,150,8|10|10,0:0|0:0|0:0,0:0:0:0:
97,25,104843,2,0,P|169:39|237:95,2,150,4|4|4,3:2|3:2|3:2,0:0:0:0:
38,129,106510,2,0,P|52:206|70:323,1,150,4|4,3:2|0:1,0:0:0:0:
256,192,107158,12,0,110029,0:0:0:0:
