osu file format v14

[General]
AudioFilename: Untitled.mp3
AudioLeadIn: 0
PreviewTime: 44980
Countdown: 0
SampleSet: Normal
StackLeniency: 0.7
Mode: 1
LetterboxInBreaks: 0
WidescreenStoryboard: 1

[Editor]
DistanceSpacing: 0.5
BeatDivisor: 4
GridSize: 32
TimelineZoom: 1.9

[Metadata]
Title:Ai no Uta -words of love-
TitleUnicode:愛の詩 -words of love-
Artist:Haruka Chisuga
ArtistUnicode:千菅 春香
Creator:igorsprite
Version:Muzukashii
Source:学戦都市アスタリスク
Tags:Gakusen Toshi Asterisk the war Toudou Kirin von Riessfeld Julis-Alexia Sasamiya Saya Amagiri Ayato Enfield Claudia zsPixel
BeatmapID:1476828
BeatmapSetID:519022

[Difficulty]
HPDrainRate:6
CircleSize:4
OverallDifficulty:5
ApproachRate:10
SliderMultiplier:1.4
SliderTickRate:1

[Events]
//Background and Video events
0,0,"dad.jpg",0,0
//Break Periods
//Storyboard Layer 0 (Background)
//Storyboard Layer 1 (Fail)
//Storyboard Layer 2 (Pass)
//Storyboard Layer 3 (Foreground)
//Storyboard Layer 4 (Overlay)
//Storyboard Sound Samples

[TimingPoints]
532,441.176470588235,4,1,0,40,1,0
21267,-100,4,1,0,85,0,0
43105,-100,4,1,0,50,0,0
44208,-100,4,1,0,70,0,0
44649,-100,4,1,0,85,0,1
74649,-100,4,1,0,85,0,0
75090,-100,4,1,0,25,0,0
76414,-100,4,1,0,20,0,0
87664,-100,4,1,0,10,0,0

[HitObjects]
320,192,532,5,0,0:0:0:0:
320,192,973,1,0,0:0:0:0:
148,123,1193,1,2,0:0:0:0:
213,107,1414,1,0,0:0:0:0:
320,192,1634,1,0,0:0:0:0:
213,107,2076,1,0,0:0:0:0:
320,192,2296,1,2,0:0:0:0:
320,192,2737,1,2,0:0:0:0:
320,192,3179,1,0,0:0:0:0:
126,110,3620,1,0,0:0:0:0:
126,110,3840,1,2,0:0:0:0:
254,117,4061,1,0,0:0:0:0:
192,192,4502,1,0,0:0:0:0:
192,192,4943,1,0,0:0:0:0:
192,192,5164,1,0,0:0:0:0:
192,192,5384,1,2,0:0:0:0:
192,192,5605,1,2,0:0:0:0:
320,192,5826,1,0,0:0:0:0:
320,192,6267,1,2,0:0:0:0:
192,192,6487,1,0,0:0:0:0:
320,192,6708,1,0,0:0:0:0:
320,192,7149,1,8,0:0:0:0:
320,192,7370,1,0,0:0:0:0:
192,192,7590,1,2,0:0:0:0:
256,118,8252,1,2,0:0:0:0:
192,192,8473,1,2,0:0:0:0:
155,10,8693,1,0,0:0:0:0:
192,192,8914,1,2,0:0:0:0:
192,192,9134,1,2,0:0:0:0:
192,192,9355,1,0,0:0:0:0:
161,55,9576,1,0,0:0:0:0:
192,192,9796,1,2,0:0:0:0:
192,192,10237,1,0,0:0:0:0:
192,192,10679,1,2,0:0:0:0:
192,192,10899,1,0,0:0:0:0:
192,192,11340,1,0,0:0:0:0:
192,192,11561,1,2,0:0:0:0:
191,12,11781,1,0,0:0:0:0:
192,192,12443,1,0,0:0:0:0:
192,192,12884,1,0,0:0:0:0:
192,192,13326,1,2,0:0:0:0:
320,192,13546,1,0,0:0:0:0:
320,192,13987,1,0,0:0:0:0:
192,192,14208,1,2,0:0:0:0:
320,192,14649,1,0,0:0:0:0:
192,192,15090,1,2,0:0:0:0:
320,192,15310,1,0,0:0:0:0:
320,192,15531,1,2,0:0:0:0:
192,192,15752,1,2,0:0:0:0:
212,62,15973,1,0,0:0:0:0:
212,62,16193,1,0,0:0:0:0:
320,192,16414,1,2,0:0:0:0:
192,192,16855,1,0,0:0:0:0:
320,192,17517,1,0,0:0:0:0:
192,192,17737,1,0,0:0:0:0:
165,20,17958,1,2,0:0:0:0:
192,192,18620,1,2,0:0:0:0:
320,192,19061,1,0,0:0:0:0:
192,192,19502,1,2,0:0:0:0:
117,333,19723,1,0,0:0:0:0:
320,192,19943,1,2,0:0:0:0:
192,192,20384,1,2,0:0:0:0:
320,192,20605,1,0,0:0:0:0:
320,192,21046,1,0,0:0:0:0:
192,192,21267,1,2,0:0:0:0:
320,192,21708,1,4,0:0:0:0:
201,61,21929,1,2,0:0:0:0:
201,61,22039,1,2,0:0:0:0:
192,192,22149,1,2,0:0:0:0:
192,192,22370,1,2,0:0:0:0:
320,192,22591,1,0,0:0:0:0:
192,192,23032,1,2,0:0:0:0:
192,192,23252,1,2,0:0:0:0:
320,192,23473,1,0,0:0:0:0:
192,192,23693,1,2,0:0:0:0:
192,192,24134,1,2,0:0:0:0:
192,106,24576,1,0,0:0:0:0:
320,192,25017,1,0,0:0:0:0:
320,192,25348,1,2,0:0:0:0:
320,192,25458,1,0,0:0:0:0:
192,192,25679,1,2,0:0:0:0:
320,192,26340,1,0,0:0:0:0:
192,192,26561,1,2,0:0:0:0:
192,192,26781,1,2,0:0:0:0:
320,192,27002,1,0,0:0:0:0:
192,192,27333,1,2,0:0:0:0:
186,52,27554,1,0,0:0:0:0:
320,192,27774,1,2,0:0:0:0:
320,192,28105,1,0,0:0:0:0:
192,192,28325,1,2,0:0:0:0:
192,192,28546,1,2,0:0:0:0:
192,192,29208,1,2,0:0:0:0:
320,192,29649,1,0,0:0:0:0:
192,192,29870,1,2,0:0:0:0:
192,192,30090,1,2,0:0:0:0:
320,192,30311,1,0,0:0:0:0:
320,192,30532,1,0,0:0:0:0:
320,192,30752,1,2,0:0:0:0:
226,127,31193,1,2,0:0:0:0:
245,231,31634,1,0,0:0:0:0:
320,192,32076,1,0,0:0:0:0:
320,192,32406,1,0,0:0:0:0:
221,83,32517,1,0,0:0:0:0:
246,134,32737,1,2,0:0:0:0:
320,192,33399,1,0,0:0:0:0:
192,192,33620,1,2,0:0:0:0:
320,192,34061,1,0,0:0:0:0:
236,130,34281,1,2,0:0:0:0:
233,105,34392,1,2,0:0:0:0:
225,183,34612,1,0,0:0:0:0:
221,173,34833,1,2,0:0:0:0:
291,190,35164,1,2,0:0:0:0:
192,192,35385,1,2,0:0:0:0:
192,192,35605,1,2,0:0:0:0:
192,192,35826,1,0,0:0:0:0:
192,192,36267,1,0,0:0:0:0:
320,192,36487,1,2,0:0:0:0:
192,192,36929,1,2,0:0:0:0:
320,192,37591,1,0,0:0:0:0:
280,213,38031,1,2,0:0:0:0:
320,192,38252,1,0,0:0:0:0:
320,192,38362,1,0,0:0:0:0:
320,192,38693,1,0,0:0:0:0:
192,192,38914,1,2,0:0:0:0:
320,192,39355,1,4,0:0:0:0:
192,192,39796,1,2,0:0:0:0:
320,192,40017,1,4,0:0:0:0:
192,192,40458,1,0,0:0:0:0:
192,192,40679,1,6,0:0:0:0:
256,192,40899,12,0,42884,0:0:0:0:
256,120,43105,6,2,L|252:164,10,35
320,192,44649,5,4,0:0:0:0:
192,192,45090,1,2,0:0:0:0:
296,33,45201,5,2,0:0:0:0:
192,192,45311,1,2,0:0:0:0:
320,192,45531,1,2,0:0:0:0:
320,192,45752,1,0,0:0:0:0:
201,85,45862,1,0,0:0:0:0:
184,113,46083,1,0,0:0:0:0:
320,192,46304,1,2,0:0:0:0:
306,146,46745,1,0,0:0:0:0:
320,192,47186,1,2,0:0:0:0:
223,119,47406,1,2,0:0:0:0:
223,119,47517,1,0,0:0:0:0:
192,192,47737,1,2,0:0:0:0:
211,133,47958,1,2,0:0:0:0:
320,192,48179,1,4,0:0:0:0:
192,192,48620,1,0,0:0:0:0:
192,192,48730,1,0,0:0:0:0:
320,192,48840,1,0,0:0:0:0:
192,192,49061,1,0,0:0:0:0:
320,192,49281,1,2,0:0:0:0:
192,192,49392,1,2,0:0:0:0:
192,192,49612,1,0,0:0:0:0:
320,192,49833,1,2,0:0:0:0:
207,138,50274,1,0,0:0:0:0:
192,192,50384,1,2,0:0:0:0:
320,192,50715,1,0,0:0:0:0:
320,192,51046,1,2,0:0:0:0:
320,192,51156,1,2,0:0:0:0:
192,192,51267,1,2,0:0:0:0:
192,192,51487,1,2,0:0:0:0:
320,192,51708,1,4,0:0:0:0:
320,192,51929,1,0,0:0:0:0:
226,117,52039,1,0,0:0:0:0:
320,192,52259,1,2,0:0:0:0:
320,192,52480,1,0,0:0:0:0:
192,192,52701,1,0,0:0:0:0:
192,192,53031,1,2,0:0:0:0:
320,192,53473,1,0,0:0:0:0:
192,192,53693,1,2,0:0:0:0:
192,192,53804,1,2,0:0:0:0:
320,192,54024,1,0,0:0:0:0:
320,192,54245,1,0,0:0:0:0:
192,192,54576,1,2,0:0:0:0:
192,192,54796,1,2,0:0:0:0:
320,192,55017,1,0,0:0:0:0:
320,192,55237,1,2,0:0:0:0:
320,192,55458,1,0,0:0:0:0:
320,192,55568,1,0,0:0:0:0:
192,192,55789,1,0,0:0:0:0:
192,192,56009,1,2,0:0:0:0:
320,192,56340,1,0,0:0:0:0:
192,192,56561,1,2,0:0:0:0:
192,192,56781,1,2,0:0:0:0:
320,192,57002,1,0,0:0:0:0:
250,158,57333,1,0,0:0:0:0:
250,158,57443,1,2,0:0:0:0:
250,158,57774,1,2,0:0:0:0:
250,158,57884,1,0,0:0:0:0:
320,192,58105,1,0,0:0:0:0:
192,192,58326,1,2,0:0:0:0:
320,192,58767,1,4,0:0:0:0:
320,192,59208,1,2,0:0:0:0:
320,192,59318,1,2,0:0:0:0:
192,192,59429,1,2,0:0:0:0:
320,192,59649,1,0,0:0:0:0:
192,192,59870,1,0,0:0:0:0:
192,192,59980,1,0,0:0:0:0:
320,192,60201,1,0,0:0:0:0:
320,192,60421,1,2,0:0:0:0:
246,107,60752,1,0,0:0:0:0:
186,127,60862,1,2,0:0:0:0:
320,192,61083,1,2,0:0:0:0:
211,175,61303,1,0,0:0:0:0:
223,119,61523,1,2,0:0:0:0:
223,119,61634,1,2,0:0:0:0:
150,59,61855,1,0,0:0:0:0:
150,59,62076,1,2,0:0:0:0:
320,192,62296,1,4,0:0:0:0:
192,192,62737,1,2,0:0:0:0:
320,192,62848,1,2,0:0:0:0:
192,192,62958,1,2,0:0:0:0:
320,192,63179,1,0,0:0:0:0:
320,192,63399,1,0,0:0:0:0:
192,192,63509,1,0,0:0:0:0:
192,192,63730,1,2,0:0:0:0:
320,192,63951,1,0,0:0:0:0:
244,79,64281,1,0,0:0:0:0:
244,79,64392,1,0,0:0:0:0:
192,192,64612,1,2,0:0:0:0:
320,192,64833,1,0,0:0:0:0:
320,192,65164,1,2,0:0:0:0:
320,192,65274,1,2,0:0:0:0:
192,192,65384,1,2,0:0:0:0:
320,192,65605,1,0,0:0:0:0:
320,192,65826,1,4,0:0:0:0:
236,57,66046,1,0,0:0:0:0:
192,192,66156,1,0,0:0:0:0:
192,192,66377,1,2,0:0:0:0:
320,192,66598,1,0,0:0:0:0:
192,192,66818,1,0,0:0:0:0:
192,192,67039,1,2,0:0:0:0:
320,192,67590,1,4,0:0:0:0:
192,192,67811,1,2,0:0:0:0:
192,192,67921,1,2,0:0:0:0:
320,192,68142,1,0,0:0:0:0:
320,192,68362,1,2,0:0:0:0:
256,77,68583,1,0,0:0:0:0:
256,77,68804,1,0,0:0:0:0:
320,192,69024,1,2,0:0:0:0:
325,108,69355,1,4,0:0:0:0:
320,192,69796,1,2,0:0:0:0:
320,192,69906,1,2,0:0:0:0:
192,192,70017,1,2,0:0:0:0:
320,192,70237,1,0,0:0:0:0:
192,192,70458,1,2,0:0:0:0:
192,192,70568,1,2,0:0:0:0:
320,192,70789,1,0,0:0:0:0:
320,192,71010,1,2,0:0:0:0:
192,192,71561,1,2,0:0:0:0:
320,192,72002,1,0,0:0:0:0:
192,192,72443,1,2,0:0:0:0:
320,192,72664,1,0,0:0:0:0:
320,192,72884,1,0,0:0:0:0:
192,192,73105,1,2,0:0:0:0:
320,192,73326,1,2,0:0:0:0:
320,192,73436,1,2,0:0:0:0:
192,192,73546,1,2,0:0:0:0:
320,192,73767,1,0,0:0:0:0:
192,192,73987,1,2,0:0:0:0:
171,34,74098,1,2,0:0:0:0:
251,97,74318,1,0,0:0:0:0:
320,192,74649,1,4,0:0:0:0:
192,192,76414,1,0,0:0:0:0:
320,192,76855,1,0,0:0:0:0:
320,192,77296,1,0,0:0:0:0:
320,192,77737,1,2,0:0:0:0:
192,192,78179,1,0,0:0:0:0:
320,192,79061,1,0,0:0:0:0:
274,174,81267,1,2,0:0:0:0:
274,174,81487,1,2,0:0:0:0:
274,174,81598,1,2,0:0:0:0:
274,174,81708,1,0,0:0:0:0:
192,192,83473,1,2,0:0:0:0:
192,192,83914,1,2,0:0:0:0:
320,192,84355,1,0,0:0:0:0:
320,192,84796,1,0,0:0:0:0:
192,192,85237,1,2,0:0:0:0:
320,192,87002,1,2,0:0:0:0:
192,192,87443,1,0,0:0:0:0:
320,192,87664,1,2,0:0:0:0:
