osu file format v14

[General]
AudioFilename: Untitled.mp3
AudioLeadIn: 0
PreviewTime: 44980
Countdown: 0
SampleSet: Normal
StackLeniency: 0.7
Mode: 1
LetterboxInBreaks: 0
WidescreenStoryboard: 1

[Editor]
DistanceSpacing: 0.5
BeatDivisor: 4
GridSize: 16
TimelineZoom: 1.9

[Metadata]
Title:Ai no Uta -words of love-
TitleUnicode:愛の詩 -words of love-
Artist:Haruka Chisuga
ArtistUnicode:千菅 春香
Creator:igorsprite
Version:Futsuu
Source:学戦都市アスタリスク
Tags:Gakusen Toshi Asterisk the war Toudou Kirin von Riessfeld Julis-Alexia Sasamiya Saya Amagiri Ayato Enfield Claudia zsPixel
BeatmapID:1476827
BeatmapSetID:519022

[Difficulty]
HPDrainRate:7
CircleSize:4
OverallDifficulty:4
ApproachRate:10
SliderMultiplier:1.4
SliderTickRate:1

[Events]
//Background and Video events
0,0,"dad.jpg",0,0
//Break Periods
//Storyboard Layer 0 (Background)
//Storyboard Layer 1 (Fail)
//Storyboard Layer 2 (Pass)
//Storyboard Layer 3 (Foreground)
//Storyboard Layer 4 (Overlay)
//Storyboard Sound Samples

[TimingPoints]
532,441.176470588235,4,1,0,40,1,0
21708,-100,4,1,0,70,0,0
39355,-100,4,1,0,80,0,0
44649,-100,4,1,0,75,0,1
74649,-100,4,1,0,75,0,0
75090,-100,4,1,0,25,0,0
87002,-100,4,1,0,20,0,0
87664,-100,4,1,0,10,0,0

[HitObjects]
320,192,532,5,0,0:0:0:0:
320,192,973,1,0,0:0:0:0:
320,192,1414,1,0,0:0:0:0:
192,192,2296,1,0,0:0:0:0:
192,192,2737,1,2,0:0:0:0:
192,192,3179,1,0,0:0:0:0:
320,192,4061,1,2,0:0:0:0:
320,192,4502,1,0,0:0:0:0:
320,192,4943,1,2,0:0:0:0:
320,192,5826,1,0,0:0:0:0:
320,192,6267,1,0,0:0:0:0:
320,192,6708,1,2,0:0:0:0:
192,192,7590,1,2,0:0:0:0:
192,192,8031,1,2,0:0:0:0:
192,192,8473,1,2,0:0:0:0:
192,192,9355,1,0,0:0:0:0:
192,192,9796,1,2,0:0:0:0:
192,192,10237,1,0,0:0:0:0:
192,192,11120,1,2,0:0:0:0:
192,192,11561,1,0,0:0:0:0:
192,192,12002,1,2,0:0:0:0:
192,192,12884,1,2,0:0:0:0:
192,192,13326,1,2,0:0:0:0:
192,192,13767,1,0,0:0:0:0:
320,192,14649,5,0,0:0:0:0:
320,192,15090,1,0,0:0:0:0:
320,192,15531,1,0,0:0:0:0:
192,192,15973,1,2,0:0:0:0:
320,192,16414,1,0,0:0:0:0:
320,192,16855,1,0,0:0:0:0:
192,192,17737,1,2,0:0:0:0:
320,192,18179,1,0,0:0:0:0:
320,192,18620,1,0,0:0:0:0:
192,192,19502,1,2,0:0:0:0:
320,192,19944,1,0,0:0:0:0:
192,192,20385,1,2,0:0:0:0:
320,192,20827,1,0,0:0:0:0:
320,192,21708,1,4,0:0:0:0:
192,192,22149,1,2,0:0:0:0:
320,192,22590,1,0,0:0:0:0:
320,192,23031,1,0,0:0:0:0:
320,192,23252,1,0,0:0:0:0:
192,192,23472,1,2,0:0:0:0:
192,192,23914,1,2,0:0:0:0:
192,192,24354,1,2,0:0:0:0:
192,192,24575,1,2,0:0:0:0:
192,192,24796,1,0,0:0:0:0:
320,192,25237,1,0,0:0:0:0:
192,192,25679,1,2,0:0:0:0:
320,192,26340,1,0,0:0:0:0:
192,192,26561,1,2,0:0:0:0:
320,192,27002,1,0,0:0:0:0:
320,192,27443,1,2,0:0:0:0:
192,192,28105,1,2,0:0:0:0:
320,192,28325,1,0,0:0:0:0:
320,192,28546,1,0,0:0:0:0:
192,192,29208,1,2,0:0:0:0:
320,192,29870,1,0,0:0:0:0:
192,192,30090,1,2,0:0:0:0:
320,192,30531,1,0,0:0:0:0:
192,192,30973,1,2,0:0:0:0:
320,192,31414,1,0,0:0:0:0:
192,192,31855,1,2,0:0:0:0:
320,192,32296,1,0,0:0:0:0:
320,192,32517,1,0,0:0:0:0:
192,192,32737,1,2,0:0:0:0:
320,192,33399,1,0,0:0:0:0:
192,192,33620,1,2,0:0:0:0:
320,192,34061,1,0,0:0:0:0:
192,192,34502,1,2,0:0:0:0:
320,192,34943,1,0,0:0:0:0:
192,192,35384,1,2,0:0:0:0:
192,192,35605,1,2,0:0:0:0:
320,192,35826,1,0,0:0:0:0:
320,192,36267,1,2,0:0:0:0:
320,192,36708,1,0,0:0:0:0:
192,192,36929,1,2,0:0:0:0:
192,192,37149,1,2,0:0:0:0:
320,192,37590,1,0,0:0:0:0:
320,192,38031,1,2,0:0:0:0:
320,192,38252,1,0,0:0:0:0:
320,192,38693,1,0,0:0:0:0:
192,192,38914,1,2,0:0:0:0:
320,192,39355,1,4,0:0:0:0:
320,192,40017,1,4,0:0:0:0:
192,192,40679,1,6,0:0:0:0:
256,192,40899,12,0,44208,0:0:0:0:
320,192,44649,5,4,0:0:0:0:
192,192,45090,1,2,0:0:0:0:
320,192,45311,1,0,0:0:0:0:
192,192,45531,1,2,0:0:0:0:
192,192,45973,1,0,0:0:0:0:
320,192,46414,1,0,0:0:0:0:
320,192,47296,1,0,0:0:0:0:
192,192,47737,1,2,0:0:0:0:
320,192,48179,1,0,0:0:0:0:
192,192,48620,1,2,0:0:0:0:
320,192,48840,1,0,0:0:0:0:
192,192,49061,1,2,0:0:0:0:
192,192,49502,1,2,0:0:0:0:
320,192,49943,1,0,0:0:0:0:
192,192,50384,1,2,0:0:0:0:
320,192,50605,1,0,0:0:0:0:
320,192,50826,1,0,0:0:0:0:
192,192,51267,1,2,0:0:0:0:
320,192,51708,1,4,0:0:0:0:
192,192,52149,1,2,0:0:0:0:
320,192,52370,1,0,0:0:0:0:
192,192,52590,1,2,0:0:0:0:
320,192,53473,1,2,0:0:0:0:
192,192,53914,1,0,0:0:0:0:
320,192,54355,1,0,0:0:0:0:
192,192,54796,1,2,0:0:0:0:
192,192,55017,1,2,0:0:0:0:
320,192,55237,1,0,0:0:0:0:
192,192,55679,1,2,0:0:0:0:
320,192,56120,1,0,0:0:0:0:
192,192,56341,1,2,0:0:0:0:
320,192,56782,1,0,0:0:0:0:
192,192,57223,1,2,0:0:0:0:
320,192,57664,1,0,0:0:0:0:
320,192,58105,1,0,0:0:0:0:
192,192,58326,1,2,0:0:0:0:
320,192,58767,1,4,0:0:0:0:
192,192,59208,1,2,0:0:0:0:
192,192,59429,1,2,0:0:0:0:
320,192,59649,1,0,0:0:0:0:
192,192,60090,1,2,0:0:0:0:
320,192,60531,1,0,0:0:0:0:
320,192,61414,1,0,0:0:0:0:
192,192,61855,1,2,0:0:0:0:
320,192,62296,1,0,0:0:0:0:
192,192,62737,1,2,0:0:0:0:
192,192,62958,1,2,0:0:0:0:
320,192,63179,1,0,0:0:0:0:
192,192,63620,1,2,0:0:0:0:
320,192,64061,1,0,0:0:0:0:
192,192,64502,1,2,0:0:0:0:
320,192,64943,1,0,0:0:0:0:
320,192,65826,1,4,0:0:0:0:
320,192,66046,1,0,0:0:0:0:
192,192,66267,1,2,0:0:0:0:
192,192,66708,1,0,0:0:0:0:
192,192,67149,1,2,0:0:0:0:
320,192,67590,1,4,0:0:0:0:
320,192,67811,1,0,0:0:0:0:
192,192,68031,1,2,0:0:0:0:
320,192,68473,1,0,0:0:0:0:
192,192,68914,1,2,0:0:0:0:
320,192,69355,1,4,0:0:0:0:
192,192,69796,1,2,0:0:0:0:
320,192,70017,1,0,0:0:0:0:
192,192,70237,1,2,0:0:0:0:
192,192,70679,1,2,0:0:0:0:
320,192,71120,1,0,0:0:0:0:
192,192,71561,1,2,0:0:0:0:
320,192,72002,1,0,0:0:0:0:
192,192,72443,1,2,0:0:0:0:
320,192,72884,1,0,0:0:0:0:
192,192,73326,1,2,0:0:0:0:
320,192,73546,1,0,0:0:0:0:
192,192,73767,1,2,0:0:0:0:
192,192,74208,1,2,0:0:0:0:
320,192,74649,1,4,0:0:0:0:
320,192,76414,1,0,0:0:0:0:
320,192,76855,1,0,0:0:0:0:
192,192,77296,1,0,0:0:0:0:
320,192,77737,1,2,0:0:0:0:
192,192,78179,1,0,0:0:0:0:
192,192,79061,1,0,0:0:0:0:
192,192,83473,1,2,0:0:0:0:
320,192,83914,1,0,0:0:0:0:
192,192,84355,1,2,0:0:0:0:
320,192,84796,1,0,0:0:0:0:
192,192,85237,1,2,0:0:0:0:
320,192,87002,1,2,0:0:0:0:
192,192,87443,1,0,0:0:0:0:
320,192,87664,1,2,0:0:0:0:
