osu file format v14

[General]
AudioFilename: audio.mp3
AudioLeadIn: 0
PreviewTime: 54777
Countdown: 0
SampleSet: Soft
StackLeniency: 0.7
Mode: 2
LetterboxInBreaks: 0
WidescreenStoryboard: 1

[Editor]
Bookmarks: 5894,6260,6443,6626,8638,8821,10102,10285,11748,11931,12114,12297,12480,14675,15955,16138,17602,17785,17968,18151,18333,18699,18882,19248,19431,19614,19797,20163,20529,20712,20894,21077,21260,21626,21809,22358,22541,22724,22907,23090,23273,23455,23638,23821,24004,24187,24370,24553,24736,24919,25102,25285,25468,25651,25833,26016,26199,26382,26565,26748,26931,27114,27297,27480,27663,27846,28029,28212,28394,28577,29309,30041,30773,32968,33151,33699,34431,34797,35163,35712,35894,36077,36626,38090,39004,39187,39370,39553,41016,41748,41931,42114,42297,42480,43029,43577,43943,44492,44675,44858,45407,45955,46138,46321,46504,46870,47602,47785,47968,48151,48333,48516,48699,48882,49797,50529,51260,51992,52724,53090,53273,53455,53638,53821,54004,54187,54370,54553,54736,54919,55102,55285
DistanceSpacing: 1
BeatDivisor: 4
GridSize: 4
TimelineZoom: 1

[Metadata]
Title:Sakura no Koro
TitleUnicode:桜の頃
Artist:Harugasumi
ArtistUnicode:春霞
Creator:Spectator
Version:Platter
Source:アイドルマスター シンデレラガールズ
Tags:THE IDOLM@STER CINDERELLA GIRLS Starlight Stage Oriental 隠田遼平 桜アス恵 TRYTONELABO 依田 芳乃 Yoshino Yorita 道明寺 歌鈴 Karin Domyoji 脇山 珠美 Tamami Wakiyama 小早川 紗枝 Sae Kobayakawa
BeatmapID:1524173
BeatmapSetID:721836

[Difficulty]
HPDrainRate:5
CircleSize:4
OverallDifficulty:8
ApproachRate:8
SliderMultiplier:1.5
SliderTickRate:1

[Events]
//Background and Video events
0,0,"sakura_no_koro.jpg",0,0
//Break Periods
2,91454,96558
//Storyboard Layer 0 (Background)
//Storyboard Layer 1 (Fail)
//Storyboard Layer 2 (Pass)
//Storyboard Layer 3 (Foreground)
//Storyboard Sound Samples

[TimingPoints]
723,365.853658536585,4,2,1,27,1,0
1454,-100,4,2,1,30,0,0
2186,-100,4,2,1,33,0,0
3649,-100,4,2,10,73,0,0
4015,-100,4,2,11,73,0,0
4198,-100,4,2,13,73,0,0
4381,-100,4,2,14,73,0,0
6393,-100,4,2,11,73,0,0
6576,-100,4,2,25,73,0,0
7857,-100,4,2,12,73,0,0
8040,-100,4,2,26,73,0,0
8771,-100,4,2,2,40,0,0
9503,-100,4,2,23,73,0,0
9686,-100,4,2,24,73,0,0
9869,-100,4,2,11,73,0,0
10052,-100,4,2,13,73,0,0
10235,-100,4,2,14,73,0,0
12247,-100,4,2,11,73,0,0
12430,-100,4,2,25,73,0,0
13710,-100,4,2,12,73,0,0
13893,-100,4,2,36,73,0,0
15357,-100,4,2,10,77,0,0
15540,-100,4,2,24,77,0,0
15723,-100,4,2,11,77,0,0
15906,-100,4,2,13,77,0,0
16088,-100,4,2,14,77,0,0
16454,-100,4,2,11,77,0,0
16637,-100,4,2,13,77,0,0
17003,-100,4,2,10,77,0,0
17186,-100,4,2,11,77,0,0
17369,-100,4,2,13,77,0,0
17552,-100,4,2,25,77,0,0
17918,-100,4,2,11,77,0,0
18284,-100,4,2,10,77,0,0
18467,-100,4,2,24,77,0,0
18649,-100,4,2,11,77,0,0
18832,-100,4,2,13,77,0,0
19015,-100,4,2,14,77,0,0
19381,-100,4,2,11,77,0,0
19564,-100,4,2,13,77,0,0
20113,-100,4,2,11,77,0,0
20296,-100,4,2,13,77,0,0
20479,-100,4,2,25,77,0,0
20662,-100,4,2,24,77,0,0
20845,-100,4,2,11,77,0,0
21028,-100,4,2,13,77,0,0
21210,-100,4,2,22,77,0,0
21393,-100,4,2,24,58,0,0
21576,-100,4,2,11,58,0,0
21759,-100,4,2,44,58,0,0
21942,-100,4,2,14,58,0,0
22125,-100,4,2,24,58,0,0
22308,-100,4,2,11,58,0,0
22491,-100,4,2,25,58,0,0
22674,-100,4,2,53,80,0,0
22857,-100,4,2,24,61,0,0
23040,-100,4,2,11,61,0,0
23223,-100,4,2,44,61,0,0
23406,-100,4,2,14,61,0,0
23588,-100,4,2,24,61,0,0
23771,-100,4,2,11,61,0,0
23954,-100,4,2,54,56,0,0
24137,-100,4,2,43,56,0,0
24320,-100,4,2,44,75,0,0
24503,-100,4,2,11,75,0,0
24686,-100,4,2,54,72,0,0
24869,-100,4,2,24,56,0,0
25052,-100,4,2,53,62,0,0
25235,-100,4,2,10,62,0,0
25418,-100,4,2,43,62,0,0
25601,-100,4,2,34,62,0,0
25784,-100,4,2,24,62,0,0
25967,-100,4,2,54,70,0,0
26149,-100,4,2,11,70,0,0
26332,-100,4,2,44,70,0,0
27064,-100,4,2,11,70,0,0
27796,-100,4,2,43,70,0,0
28528,-100,4,2,34,70,0,0
30723,-100,4,2,24,70,0,0
30906,-100,4,2,14,70,0,0
31454,-100,4,2,44,70,0,0
32186,-100,4,2,13,70,0,0
32552,-100,4,2,11,70,0,0
32918,-100,4,2,25,70,0,0
33467,-100,4,2,27,70,0,0
33649,-100,4,2,44,70,0,0
33832,-100,4,2,25,70,0,0
34381,-100,4,2,14,70,0,0
35296,-100,4,2,14,5,0,0
35479,-100,4,2,14,70,0,0
36759,-100,4,2,24,70,0,0
36942,-100,4,2,11,70,0,0
37125,-100,4,2,14,70,0,0
37308,-100,4,2,20,70,0,0
37674,-100,4,2,20,5,0,0
37857,-100,4,2,20,70,0,0
38040,-100,4,2,13,70,0,0
38406,-100,4,2,11,70,0,0
38771,-100,4,2,55,74,0,0
39503,-100,4,2,54,74,0,0
39686,-100,4,2,64,74,0,0
39869,-100,4,2,54,74,0,0
40052,-100,4,2,44,74,0,0
40235,-100,4,2,28,74,0,0
40601,-100,4,2,28,5,0,0
40784,-100,4,2,65,74,0,0
41332,-100,4,2,28,74,0,0
41698,-100,4,2,28,74,0,0
42247,-100,4,2,54,74,0,0
42430,-100,4,2,14,74,0,0
42613,-100,4,2,28,74,0,0
43162,-100,4,2,65,74,0,0
43528,-100,4,2,65,5,0,0
43710,-100,4,2,65,74,0,0
43893,-100,4,2,14,74,0,0
44076,-100,4,2,66,74,0,0
44259,-100,4,2,54,74,0,0
44625,-100,4,2,34,74,0,0
45357,-100,4,2,34,74,0,0
45540,-100,4,2,27,74,0,0
45723,-100,4,2,74,74,0,0
45906,-100,4,2,44,74,0,0
46088,-100,4,2,14,74,0,0
46271,-100,4,2,28,74,0,0
46454,-100,4,2,75,74,0,0
46637,-100,4,2,45,74,0,0
47552,-100,4,2,30,74,0,0
47918,-100,4,2,30,5,0,0
48284,-100,4,2,32,77,0,0
49015,-100,4,2,32,77,0,0
49747,-100,4,2,12,77,0,0
50479,-100,4,2,74,77,0,0
50845,-100,4,2,23,77,0,0
51028,-100,4,2,31,77,0,0
51210,-100,4,2,34,77,0,0
51393,-100,4,2,24,77,0,0
51576,-100,4,2,11,77,0,0
51759,-100,4,2,24,77,0,0
51942,-100,4,2,11,77,0,0
52125,-100,4,2,13,90,0,0
52308,-100,4,2,14,90,0,0
52491,-100,4,2,13,90,0,0
52674,-100,4,2,14,90,0,0
52857,-100,4,2,25,90,0,0
53040,-100,4,2,74,79,0,0
53406,-100,4,2,74,5,0,0
53588,-100,4,2,74,75,0,0
53771,-100,4,2,1,40,0,0
53954,-100,4,2,14,30,0,0
54869,-100,4,2,1,45,0,0
56332,-83.3333333333333,4,2,1,40,0,1
58162,-83.3333333333333,4,2,1,43,0,1
58802,-83.3333333333333,4,2,1,39,0,1
60723,-83.3333333333333,4,2,1,40,0,1
60997,-83.3333333333333,4,2,1,5,0,1
61088,-83.3333333333333,4,2,1,40,0,1
61363,-83.3333333333333,4,2,1,5,0,1
61454,-83.3333333333333,4,2,1,40,0,1
61729,-83.3333333333333,4,2,1,5,0,1
61820,-83.3333333333333,4,2,1,40,0,1
62095,-83.3333333333333,4,2,1,5,0,1
62186,-83.3333333333333,4,2,1,35,0,1
63741,-83.3333333333333,4,2,1,21,0,1
63924,-83.3333333333333,4,2,1,35,0,1
65113,-83.3333333333333,4,2,1,37,0,1
66576,-83.3333333333333,4,2,1,42,0,1
67948,-83.3333333333333,4,2,1,40,0,0
68040,-83.3333333333333,4,2,1,40,0,1
70967,-83.3333333333333,4,2,1,39,0,1
72430,-83.3333333333333,4,2,1,37,0,1
73528,-83.3333333333333,4,2,1,5,0,1
73710,-83.3333333333333,4,2,1,38,0,1
76820,-83.3333333333333,4,2,1,39,0,1
79747,-83.3333333333333,4,2,1,43,0,1
81393,-83.3333333333333,4,2,1,5,0,1
81576,-83.3333333333333,4,2,1,41,0,1
81759,-83.3333333333333,4,2,1,5,0,1
81942,-83.3333333333333,4,2,1,43,0,1
82125,-83.3333333333333,4,2,1,5,0,1
82308,-83.3333333333333,4,2,1,45,0,1
82491,-83.3333333333333,4,2,1,5,0,1
82582,-83.3333333333333,4,2,1,5,0,0
82674,-83.3333333333333,4,2,3,45,0,1
82765,-83.3333333333333,4,2,3,45,0,0
85601,-83.3333333333333,4,2,3,45,0,0
85784,-83.3333333333333,4,2,3,24,0,0
100235,-83.3333333333333,4,2,1,30,0,0
102430,-83.3333333333333,4,2,1,35,0,0
103162,-83.3333333333333,4,2,3,35,0,0
103893,-83.3333333333333,4,2,0,37,0,1
104259,-83.3333333333333,4,2,0,5,0,1
104442,-83.3333333333333,4,2,0,20,0,1
104625,-83.3333333333333,4,2,0,49,0,1
104808,-83.3333333333333,4,2,1,35,0,1
112308,-83.3333333333333,4,2,1,5,0,1
112491,-83.3333333333333,4,2,1,35,0,1
114777,-83.3333333333333,4,2,1,35,0,0
114869,-83.3333333333333,4,2,1,37,0,1
116332,-83.3333333333333,4,2,1,40,0,1
116515,-83.3333333333333,4,2,1,5,0,1
116698,-83.3333333333333,4,2,1,41,0,1
116881,-83.3333333333333,4,2,1,5,0,1
117064,-83.3333333333333,4,2,1,42,0,1
117247,-83.3333333333333,4,2,1,5,0,1
117430,-83.3333333333333,4,2,1,43,0,1
117613,-83.3333333333333,4,2,1,20,0,1
117704,-83.3333333333333,4,2,1,20,0,0
117796,-83.3333333333333,4,2,1,20,0,1
117887,-83.3333333333333,4,2,1,20,0,0
120723,-83.3333333333333,4,2,3,20,0,0
120906,-83.3333333333333,4,2,3,16,0,0

[Colours]
Combo1 : 243,137,204
Combo2 : 253,189,83
Combo3 : 201,149,249
Combo4 : 248,103,103

[HitObjects]
144,308,723,5,0,1:0:0:0:
99,238,906,1,0,0:0:0:0:
127,161,1088,1,8,0:0:0:0:
205,136,1271,1,0,0:0:0:0:
368,308,1454,5,8,0:0:0:0:
413,238,1637,1,0,0:0:0:0:
385,161,1819,1,8,0:0:0:0:
307,136,2002,1,0,0:0:0:0:
195,274,2186,6,0,L|180:181,1,75,8|0,0:0|0:0,0:0:0:0:
350,179,2552,2,0,L|365:86,1,75,0|0,0:0|0:0,0:0:0:0:
188,54,2918,1,8,0:0:0:0:
362,335,3649,6,0,P|374:277|313:203,1,150,2|2,0:0|0:0,0:0:0:0:
243,138,4198,1,2,0:0:0:0:
332,81,4381,1,2,0:0:0:0:
116,187,6393,1,2,0:0:0:0:
107,95,6576,1,2,0:0:0:0:
319,172,7857,1,2,0:0:0:0:
223,202,8040,1,10,0:0:0:0:
400,333,9503,6,0,P|415:283|401:236,1,75,2|2,0:0|0:0,0:0:0:0:
303,222,9869,2,0,P|273:194|280:150,1,75,2|2,0:0|0:0,0:0:0:0:
396,107,10235,1,2,0:0:0:0:
222,273,11881,6,0,P|171:234|201:155,1,150,0|2,0:0|0:0,0:0:0:0:
296,164,12430,1,2,0:0:0:0:
126,132,13710,1,2,0:0:0:0:
239,130,13893,1,10,0:0:0:0:
94,277,15357,5,2,0:0:0:0:
40,224,15540,1,2,0:0:0:0:
21,151,15723,1,2,0:0:0:0:
50,81,15906,1,2,0:0:0:0:
120,55,16088,1,2,0:0:0:0:
316,135,16454,1,2,0:0:0:0:
203,161,16637,1,2,0:0:0:0:
321,167,17003,1,2,0:0:0:0:
197,190,17186,2,0,P|173:155|185:101,1,75,2|2,0:0|0:0,0:0:0:0:
334,229,17552,2,0,P|382:196|335:111,1,150,2|2,0:0|0:0,0:0:0:0:
128,298,18284,5,2,0:0:0:0:
74,245,18467,1,2,0:0:0:0:
55,172,18650,1,2,0:0:0:0:
84,102,18833,1,2,0:0:0:0:
154,76,19015,1,2,0:0:0:0:
330,177,19381,1,2,0:0:0:0:
432,164,19564,1,2,0:0:0:0:
321,227,19930,1,2,0:0:0:0:
435,184,20113,2,0,L|449:96,1,75,2|2,0:0|0:0,0:0:0:0:
323,183,20479,2,0,L|239:179,1,75,2|2,0:0|0:0,0:0:0:0:
133,87,20845,2,0,L|237:97,1,75,2|2,0:0|0:0,0:0:0:0:
326,310,21210,5,2,0:0:0:0:
382,260,21393,1,2,0:0:0:0:
387,185,21576,1,2,0:0:0:0:
333,132,21759,1,2,0:0:0:0:
238,104,21942,2,0,L|151:103,1,75,2|2,0:0|0:0,0:0:0:0:
283,226,22308,2,0,L|361:229,1,75,2|2,0:0|0:0,0:0:0:0:
239,344,22674,5,2,0:0:0:0:
183,294,22857,1,2,0:0:0:0:
178,219,23040,1,2,0:0:0:0:
232,166,23223,1,2,0:0:0:0:
327,138,23406,2,0,L|414:137,1,75,2|2,0:0|0:0,0:0:0:0:
465,324,23772,2,0,L|387:327,1,75,2|2,0:0|0:0,0:0:0:0:
244,248,24137,5,2,0:0:0:0:
371,307,24320,1,2,0:0:0:0:
244,358,24503,1,10,0:0:0:0:
358,211,24686,1,2,0:0:0:0:
230,212,24869,2,0,P|200:169|212:117,1,75,10|2,0:0|0:0,0:0:0:0:
332,147,25235,2,0,P|318:101|339:67,1,75,2|2,0:0|0:0,0:0:0:0:
461,252,25601,2,0,P|472:209|481:152,1,75,2|2,0:0|0:0,0:0:0:0:
323,138,25967,2,0,L|242:132,1,75,2|2,0:0|0:0,0:0:0:0:
393,49,26332,1,2,0:0:0:0:
61,80,27064,1,2,0:0:0:0:
426,280,27796,1,10,0:0:0:0:
61,339,28528,5,2,0:0:0:0:
183,233,28893,1,8,0:0:0:0:
331,339,29259,1,8,0:0:0:0:
483,184,29625,1,8,0:0:0:0:
272,103,29991,1,8,0:0:0:0:
91,240,30723,1,2,0:0:0:0:
197,216,30906,1,10,0:0:0:0:
371,298,31454,2,0,P|405:242|345:156,1,150,2|0,0:0|0:0,0:0:0:0:
91,162,32186,1,6,0:0:0:0:
372,157,32552,1,2,0:0:0:0:
78,245,32918,6,0,P|84:176|166:129,1,150,2|0,0:0|0:0,0:0:0:0:
231,77,33467,1,2,0:0:0:0:
337,124,33649,1,2,0:0:0:0:
202,172,33832,1,10,0:0:0:0:
351,330,34381,2,0,P|395:302|455:209,1,150,10|0,0:0|0:0,0:0:0:0:
255,160,35113,1,0,0:0:0:0:
410,159,35479,1,0,0:0:0:0:
215,267,35845,6,0,L|200:187,1,75,10|0,0:0|0:0,0:0:0:0:
311,134,36210,2,0,L|326:52,1,75,0|0,0:0|0:0,0:0:0:0:
188,133,36759,1,10,0:0:0:0:
298,132,36942,1,2,0:0:0:0:
186,152,37125,1,2,0:0:0:0:
304,250,37308,2,0,P|369:230|316:115,1,225,10|0,0:0|0:0,0:0:0:0:
180,156,38040,2,0,P|138:125|186:50,1,150,14|2,0:0|0:0,0:0:0:0:
393,331,38771,6,0,P|432:284|394:208,1,150,10|0,0:0|0:0,0:0:0:0:
191,228,39503,1,10,0:0:0:0:
137,175,39686,1,2,0:0:0:0:
123,101,39869,1,2,0:0:0:0:
171,43,40052,1,2,0:0:0:0:
245,36,40235,1,10,0:0:0:0:
28,98,40784,1,2,0:0:0:0:
270,331,41332,2,0,P|294:282|286:232,1,75,2|0,0:0|0:0,0:0:0:0:
197,177,41698,1,10,0:0:0:0:
307,254,42064,5,0,0:0:0:0:
191,219,42247,2,0,P|158:169|234:105,1,150,2|10,0:0|0:0,0:0:0:0:
340,125,42796,2,0,L|327:32,1,75,0|0,0:0|0:0,0:0:0:0:
199,259,43162,2,0,P|138:221|216:111,1,225,10|2,0:0|0:0,0:0:0:0:
364,185,43893,2,0,L|262:172,1,75,6|2,0:0|0:0,0:0:0:0:
160,159,44259,1,10,0:0:0:0:
110,306,44625,6,0,P|63:241|178:157,1,225,2|0,0:0|0:0,0:0:0:0:
277,233,45357,2,0,P|296:187|281:140,1,75,10|2,0:0|0:0,0:0:0:0:
162,136,45723,2,0,P|143:90|158:43,1,75,10|2,0:0|0:0,0:0:0:0:
300,87,46088,2,0,L|402:85,1,75,10|2,0:0|0:0,0:0:0:0:
204,261,46454,2,0,L|98:262,1,75,10|2,0:0|0:0,0:0:0:0:
391,291,47552,2,0,P|466:245|374:94,1,300,2|10,0:0|0:0,0:0:0:0:
125,162,48649,1,0,0:0:0:0:
404,306,49015,2,0,P|445:274|437:173,1,150,2|0,0:0|0:0,0:0:0:0:
186,121,49747,1,6,0:0:0:0:
390,277,50113,2,0,L|406:188,1,75,0|0,0:0|0:0,0:0:0:0:
271,256,50479,6,0,P|199:222|216:152,1,150,2|2,0:0|1:2,0:0:0:0:
325,163,51028,1,2,0:0:0:0:
200,333,51210,1,2,1:2:0:0:
148,278,51393,1,2,1:2:0:0:
172,207,51576,1,2,0:0:0:0:
242,180,51759,1,2,0:0:0:0:
399,230,51942,1,2,0:0:0:0:
451,175,52125,1,2,1:2:0:0:
427,104,52308,1,2,0:0:0:0:
357,77,52491,1,2,1:2:0:0:
187,135,52674,2,0,L|86:127,1,75,2|6,0:0|1:2,0:0:0:0:
399,345,53040,6,0,P|446:303|372:188,1,225,2|0,0:0|0:0,0:0:0:0:
208,312,53771,2,0,P|105:224|224:50,1,375,8|0,0:0|0:0,0:0:0:0:
346,292,54869,5,8,0:0:0:0:
166,173,55235,1,0,0:0:0:0:
352,87,55601,1,4,1:0:0:0:
212,163,55784,2,0,P|155:136|125:52,1,150,8|0,2:3|0:0,0:0:0:0:
409,317,56332,6,0,P|449:265|392:174,1,179.999994506836,4|4,1:0|0:3,0:0:0:0:
167,179,57064,1,8,1:0:0:0:
385,240,57430,1,0,0:0:0:0:
154,271,57796,2,0,P|82:253|34:142,1,179.999994506836,2|4,0:3|1:0,0:0:0:0:
142,116,58345,1,0,0:0:0:0:
293,147,58528,1,8,1:0:0:0:
180,223,58710,2,0,P|129:173|196:104,1,179.999994506836,0|0,0:3|0:0,0:0:0:0:
315,269,59259,6,0,P|367:216|305:138,1,179.999994506836,4|4,1:0|3:0,0:0:0:0:
200,145,59808,1,0,0:0:0:0:
323,143,59991,1,8,0:0:0:0:
86,155,60357,1,0,0:0:0:0:
346,343,60723,2,0,L|359:234,1,89.9999972534181,0|0,2:2|0:0,0:0:0:0:
206,228,61088,2,0,L|193:119,1,89.9999972534181,8|0,2:0|0:0,0:0:0:0:
348,177,61454,2,0,L|464:171,1,89.9999972534181,2|0,3:0|0:0,0:0:0:0:
289,332,61820,2,0,L|162:343,1,89.9999972534181,0|0,2:0|0:0,0:0:0:0:
352,349,62186,6,0,P|263:292|348:183,1,269.999991760254,4|0,1:1|0:0,0:0:0:0:
464,278,62918,2,0,P|411:247|348:248,1,89.9999972534181,8|0,1:1|0:0,0:0:0:0:
238,286,63284,2,0,L|346:280,1,89.9999972534181,0|0,0:0|0:0,0:0:0:0:
77,340,63649,1,0,3:0:0:0:
271,346,64015,2,0,P|296:305|273:240,1,89.9999972534181,2|0,0:0|0:0,0:0:0:0:
156,195,64381,1,8,0:1:0:0:
266,124,64564,1,0,0:0:0:0:
146,225,64747,2,0,L|42:210,1,89.9999972534181,0|0,0:0|3:0,0:0:0:0:
220,316,65113,6,0,L|401:287,1,179.999994506836,4|0,1:0|0:0,0:0:0:0:
287,209,65662,1,8,2:0:0:0:
413,156,65845,1,0,0:0:0:0:
271,193,66028,2,0,P|213:146|282:83,1,179.999994506836,0|0,0:0|0:0,0:0:0:0:
139,258,66576,6,0,L|248:252,1,89.9999972534181,8|8,2:1|2:1,0:0:0:0:
376,177,66942,2,0,L|261:167,1,89.9999972534181,4|0,1:0|0:0,0:0:0:0:
34,301,67308,2,0,L|26:203,1,89.9999972534181,2|0,0:3|3:0,0:0:0:0:
166,197,67674,1,4,3:0:0:0:
28,198,67857,1,4,3:0:0:0:
300,318,68040,6,0,P|400:263|294:197,1,269.999991760254,4|0,1:2|2:0,0:0:0:0:
38,198,68771,2,0,P|45:131|135:74,1,179.999994506836,4|0,1:2|0:0,0:0:0:0:
258,78,69320,1,0,0:0:0:0:
140,240,69503,6,0,P|92:188|160:112,1,179.999994506836,4|0,1:0|1:0,0:0:0:0:
264,112,70052,1,0,0:0:0:0:
144,112,70235,1,8,0:1:0:0:
296,248,70418,2,0,P|356:216|284:152,1,179.999994506836,8|0,0:0|0:0,0:0:0:0:
140,336,70967,6,0,L|336:320,1,179.999994506836,0|0,1:0|0:0,0:0:0:0:
448,232,71515,1,0,0:0:0:0:
316,176,71698,1,8,0:1:0:0:
104,256,72064,1,0,0:0:0:0:
370,348,72430,2,0,P|460:275|450:190,1,179.999994506836,0|10,0:0|0:3,0:0:0:0:
345,221,72979,2,0,L|151:221,1,179.999994506836
27,140,73527,2,0,L|131:141,1,89.9999972534181
368,319,73893,6,0,P|431:283|398:169,1,179.999994506836,4|0,0:0|0:0,0:0:0:0:
302,170,74442,2,0,P|251:113|309:37,1,179.999994506836,0|8,0:0|0:0,0:0:0:0:
425,43,74991,1,8,0:1:0:0:
312,96,75174,1,8,0:1:0:0:
440,283,75357,2,0,P|431:217|306:166,1,179.999994506836,0|4,0:0|1:3,0:0:0:0:
109,163,76088,1,8,1:0:0:0:
319,296,76454,2,0,L|409:286,1,89.9999972534181,0|8,0:0|0:0,0:0:0:0:
265,328,76820,6,0,P|348:271|246:152,1,269.999991760254,4|8,0:0|0:0,0:0:0:0:
145,153,77552,1,0,0:0:0:0:
272,278,77735,2,0,L|463:284,1,179.999994506836,0|0,2:0|0:0,0:0:0:0:
306,347,78284,2,0,P|252:302|288:206,1,179.999994506836,0|4,2:0|1:0,0:0:0:0:
401,207,78832,1,0,0:0:0:0:
130,161,79015,1,2,1:3:0:0:
279,296,79381,2,0,P|325:255|313:205,1,89.9999972534181,2|0,0:0|0:0,0:0:0:0:
65,227,79747,6,0,P|48:160|153:102,1,179.999994506836,4|0,1:0|2:0,0:0:0:0:
447,227,80479,2,0,P|464:160|359:102,1,179.999994506836,10|2,1:3|0:0,0:0:0:0:
260,82,81028,1,0,0:0:0:0:
395,158,81210,1,4,1:1:0:0:
164,292,81576,1,4,1:0:0:0:
402,243,81942,1,4,1:3:0:0:
58,166,82308,1,4,1:0:0:0:
352,366,82674,1,0,2:0:0:0:
252,194,85601,1,0,2:2:0:0:
256,192,85784,12,0,88528,0:0:0:0:
256,192,97308,12,0,99503,0:0:0:0:
321,282,100235,6,0,P|378:256|302:191,1,179.999994506836,0|4,1:0|1:0,0:0:0:0:
166,317,100967,2,0,L|153:209,1,89.9999972534181,0|0,1:0|1:0,0:0:0:0:
242,173,101332,2,0,L|254:69,1,89.9999972534181,0|0,1:0|1:0,0:0:0:0:
143,308,101698,6,0,P|87:274|87:213,1,89.9999972534181,8|0,0:0|0:0,0:0:0:0:
205,177,102064,2,0,L|327:176,1,89.9999972534181,8|0,0:0|0:0,0:0:0:0:
421,309,102430,2,0,L|439:214,1,89.9999972534181,8|0,1:2|1:2,0:0:0:0:
165,181,102796,2,0,L|147:86,1,89.9999972534181,8|0,1:2|1:2,0:0:0:0:
295,298,103162,6,0,P|376:248|280:141,1,269.999991760254,0|0,2:0|0:0,0:0:0:0:
50,223,103893,2,0,P|41:161|197:50,1,269.999991760254,4|0,0:0|0:0,0:0:0:0:
291,280,104625,2,0,L|483:269,1,179.999994506836,4|8,0:0|1:2,0:0:0:0:
305,173,105174,1,0,0:0:0:0:
406,212,105357,1,12,1:2:0:0:
154,238,105540,2,0,P|117:199|197:120,1,179.999994506836,0|4,1:0|1:3,0:0:0:0:
62,210,106088,6,0,L|258:218,1,179.999994506836,4|2,1:2|0:0,0:0:0:0:
388,147,106637,1,0,0:0:0:0:
251,138,106820,1,8,1:0:0:0:
77,295,107186,1,0,0:0:0:0:
382,357,107552,6,0,P|397:303|304:215,1,179.999994506836,4|2,1:0|0:0,0:0:0:0:
214,215,108101,1,0,0:0:0:0:
327,289,108284,2,0,P|407:266|437:167,1,179.999994506836,8|8,1:0|1:0,0:0:0:0:
301,173,108832,1,0,1:0:0:0:
173,252,109015,6,0,P|93:214|108:127,1,179.999994506836,4|0,1:2|0:0,0:0:0:0:
247,299,109564,2,0,P|308:235|241:206,1,179.999994506836,0|0,0:0|0:0,0:0:0:0:
108,256,110113,2,0,L|101:152,1,89.9999972534181,8|0,0:0|0:0,0:0:0:0:
275,249,110479,2,0,L|458:241,1,179.999994506836,2|4,0:3|1:0,0:0:0:0:
218,326,111210,2,0,P|169:278|240:193,1,179.999994506836,8|0,1:0|0:0,0:0:0:0:
339,198,111759,1,0,0:0:0:0:
91,264,111942,6,0,P|41:202|159:106,1,269.999991760254,4|0,1:2|0:0,0:0:0:0:
301,106,112674,1,8,1:0:0:0:
156,273,112857,2,0,P|86:219|143:154,1,179.999994506836,2|0,0:0|0:0,0:0:0:0:
401,310,113406,6,0,P|421:264|400:200,1,89.9999972534181,4|0,1:0|0:0,0:0:0:0:
295,186,113771,1,4,1:0:0:0:
417,185,113954,1,0,0:0:0:0:
167,240,114137,2,0,P|120:172|192:108,1,179.999994506836,8|8,1:0|1:2,0:0:0:0:
320,108,114686,1,0,1:0:0:0:
80,152,114869,6,0,P|32:112|100:40,1,179.999994506836,4|4,1:2|1:3,0:0:0:0:
341,239,115601,1,4,1:0:0:0:
105,310,115967,2,0,L|84:192,1,89.9999972534181,8|0,1:0|0:0,0:0:0:0:
221,266,116332,6,0,L|326:250,1,89.9999972534181,4|0,1:0|0:0,0:0:0:0:
171,159,116698,2,0,L|67:138,1,89.9999972534181,4|0,1:0|0:0,0:0:0:0:
329,188,117064,6,0,L|434:172,1,89.9999972534181,4|0,1:0|0:0,0:0:0:0:
250,79,117430,2,0,L|146:58,1,89.9999972534181,4|0,1:0|0:0,0:0:0:0:
463,49,117796,5,0,0:3:0:0:
256,179,120723,1,0,0:3:0:0:
256,192,120906,12,0,124381,0:0:0:0:
