osu file format v14

[General]
AudioFilename: audio.mp3
AudioLeadIn: 0
PreviewTime: 54777
Countdown: 0
SampleSet: Soft
StackLeniency: 0.7
Mode: 2
LetterboxInBreaks: 0
WidescreenStoryboard: 0

[Editor]
Bookmarks: 5894,6260,6443,6626,8638,8821,10102,10285,11748,11931,12114,12297,12480,14675,15955,16138,17602,17785,17968,18151,18333,18699,18882,19248,19431,19614,19797,20163,20529,20712,20894,21077,21260,21626,21809,22358,22541,22724,22907,23090,23273,23455,23638,23821,24004,24187,24370,24553,24736,24919,25102,25285,25468,25651,25833,26016,26199,26382,26565,26748,26931,27114,27297,27480,27663,27846,28029,28212,28394,28577,29309,30041,30773,32968,33151,33699,34431,34797,35163,35712,35894,36077,36626,38090,39004,39187,39370,39553,41016,41748,41931,42114,42297,42480,43029,43577,43943,44492,44675,44858,45407,45955,46138,46321,46504,46870,47602,47785,47968,48151,48333,48516,48699,48882,49797,50529,51260,51992,52724,53090,53273,53455,53638,53821,54004,54187,54370,54553,54736,54919,55102,55285
DistanceSpacing: 1
BeatDivisor: 4
GridSize: 4
TimelineZoom: 1

[Metadata]
Title:Sakura no Koro
TitleUnicode:桜の頃
Artist:Harugasumi
ArtistUnicode:春霞
Creator:Spectator
Version:Cherry Blossoms
Source:アイドルマスター シンデレラガールズ
Tags:THE IDOLM@STER CINDERELLA GIRLS Starlight Stage Oriental 隠田遼平 桜アス恵 TRYTONELABO 依田 芳乃 Yoshino Yorita 道明寺 歌鈴 Karin Domyoji 脇山 珠美 Tamami Wakiyama 小早川 紗枝 Sae Kobayakawa
BeatmapID:1524174
BeatmapSetID:721836

[Difficulty]
HPDrainRate:6
CircleSize:4
OverallDifficulty:8.5
ApproachRate:8.5
SliderMultiplier:1.6
SliderTickRate:1

[Events]
//Background and Video events
0,0,"sakura_no_koro.jpg",0,0
//Break Periods
2,91454,96633
//Storyboard Layer 0 (Background)
//Storyboard Layer 1 (Fail)
//Storyboard Layer 2 (Pass)
//Storyboard Layer 3 (Foreground)
//Storyboard Sound Samples

[TimingPoints]
723,365.853658536585,4,2,1,27,1,0
1454,-100,4,2,1,30,0,0
2186,-100,4,2,1,33,0,0
3649,-100,4,2,10,60,0,0
4015,-100,4,2,11,60,0,0
4198,-100,4,2,13,60,0,0
4381,-100,4,2,14,60,0,0
6393,-100,4,2,11,60,0,0
6576,-100,4,2,25,60,0,0
7857,-100,4,2,12,60,0,0
8040,-100,4,2,26,60,0,0
8771,-100,4,2,2,40,0,0
9503,-100,4,2,23,60,0,0
9686,-100,4,2,24,60,0,0
9869,-100,4,2,11,60,0,0
10052,-100,4,2,13,60,0,0
10235,-100,4,2,14,60,0,0
12247,-100,4,2,11,60,0,0
12430,-100,4,2,25,60,0,0
13710,-100,4,2,12,60,0,0
13893,-100,4,2,36,60,0,0
15357,-100,4,2,10,63,0,0
15540,-100,4,2,24,63,0,0
15723,-100,4,2,11,63,0,0
15906,-100,4,2,13,63,0,0
16088,-100,4,2,14,63,0,0
16454,-100,4,2,11,63,0,0
16637,-100,4,2,13,63,0,0
17003,-100,4,2,10,63,0,0
17186,-100,4,2,11,63,0,0
17369,-100,4,2,13,63,0,0
17552,-100,4,2,25,63,0,0
17918,-100,4,2,11,63,0,0
18284,-100,4,2,10,63,0,0
18467,-100,4,2,24,63,0,0
18649,-100,4,2,11,63,0,0
18832,-100,4,2,13,63,0,0
19015,-100,4,2,14,63,0,0
19381,-100,4,2,11,63,0,0
19564,-100,4,2,13,63,0,0
20113,-100,4,2,11,63,0,0
20296,-100,4,2,13,63,0,0
20479,-100,4,2,25,63,0,0
20662,-100,4,2,24,63,0,0
20845,-100,4,2,11,63,0,0
21028,-100,4,2,13,63,0,0
21210,-100,4,2,22,63,0,0
21393,-100,4,2,24,50,0,0
21576,-100,4,2,11,50,0,0
21759,-100,4,2,44,50,0,0
21942,-100,4,2,14,50,0,0
22125,-100,4,2,24,50,0,0
22308,-100,4,2,11,50,0,0
22491,-100,4,2,25,50,0,0
22674,-100,4,2,53,70,0,0
22857,-100,4,2,24,49,0,0
23040,-100,4,2,11,49,0,0
23223,-100,4,2,44,49,0,0
23406,-100,4,2,14,49,0,0
23588,-100,4,2,24,49,0,0
23771,-100,4,2,11,49,0,0
23954,-100,4,2,54,52,0,0
24137,-100,4,2,43,52,0,0
24320,-100,4,2,44,63,0,0
24503,-100,4,2,11,63,0,0
24686,-100,4,2,54,60,0,0
24869,-100,4,2,24,50,0,0
25052,-100,4,2,53,55,0,0
25235,-100,4,2,10,55,0,0
25418,-100,4,2,43,55,0,0
25601,-100,4,2,34,55,0,0
25784,-100,4,2,24,55,0,0
25967,-100,4,2,54,60,0,0
26149,-100,4,2,11,60,0,0
26332,-100,4,2,44,60,0,0
27064,-100,4,2,11,60,0,0
27796,-100,4,2,43,60,0,0
28528,-100,4,2,34,60,0,0
30723,-100,4,2,24,60,0,0
30906,-100,4,2,14,60,0,0
31454,-100,4,2,44,60,0,0
32186,-100,4,2,13,60,0,0
32552,-100,4,2,11,60,0,0
32918,-100,4,2,25,60,0,0
33467,-100,4,2,27,60,0,0
33649,-100,4,2,44,60,0,0
33832,-100,4,2,25,60,0,0
34381,-100,4,2,14,60,0,0
35296,-100,4,2,14,5,0,0
35479,-100,4,2,14,60,0,0
36759,-100,4,2,24,60,0,0
36942,-100,4,2,11,60,0,0
37125,-100,4,2,14,60,0,0
37308,-100,4,2,20,60,0,0
37674,-100,4,2,20,5,0,0
37857,-100,4,2,20,60,0,0
38040,-100,4,2,13,60,0,0
38406,-100,4,2,11,60,0,0
38771,-100,4,2,55,63,0,0
39503,-100,4,2,54,63,0,0
39686,-100,4,2,64,63,0,0
39869,-100,4,2,54,63,0,0
40052,-100,4,2,44,63,0,0
40235,-100,4,2,28,63,0,0
40601,-100,4,2,28,5,0,0
40784,-100,4,2,65,63,0,0
41332,-100,4,2,28,63,0,0
41698,-100,4,2,28,63,0,0
42247,-100,4,2,54,63,0,0
42430,-100,4,2,14,63,0,0
42613,-100,4,2,28,63,0,0
43162,-100,4,2,65,63,0,0
43528,-100,4,2,65,5,0,0
43710,-100,4,2,65,63,0,0
43893,-100,4,2,14,63,0,0
44076,-100,4,2,66,63,0,0
44259,-100,4,2,54,63,0,0
44625,-100,4,2,34,63,0,0
45357,-100,4,2,34,63,0,0
45540,-100,4,2,27,63,0,0
45723,-100,4,2,74,63,0,0
45906,-100,4,2,44,63,0,0
46088,-100,4,2,14,63,0,0
46271,-100,4,2,28,63,0,0
46454,-100,4,2,75,63,0,0
46637,-100,4,2,45,63,0,0
47552,-100,4,2,30,63,0,0
47918,-100,4,2,30,5,0,0
48284,-100,4,2,32,65,0,0
49015,-100,4,2,32,65,0,0
49747,-100,4,2,12,65,0,0
50479,-100,4,2,74,65,0,0
50845,-100,4,2,23,65,0,0
51028,-100,4,2,31,65,0,0
51210,-100,4,2,34,65,0,0
51393,-100,4,2,24,65,0,0
51576,-100,4,2,11,65,0,0
51759,-100,4,2,24,65,0,0
51942,-100,4,2,11,65,0,0
52125,-100,4,2,13,70,0,0
52308,-100,4,2,14,70,0,0
52491,-100,4,2,13,70,0,0
52674,-100,4,2,14,70,0,0
52857,-100,4,2,25,70,0,0
53040,-100,4,2,74,75,0,0
53406,-100,4,2,74,5,0,0
53588,-100,4,2,74,60,0,0
53771,-100,4,2,1,40,0,0
53954,-100,4,2,14,30,0,0
54869,-100,4,2,1,45,0,0
56332,-83.3333333333333,4,2,1,40,0,1
58162,-83.3333333333333,4,2,1,43,0,1
58802,-83.3333333333333,4,2,1,39,0,1
60723,-83.3333333333333,4,2,1,40,0,1
60997,-83.3333333333333,4,2,1,5,0,1
61088,-83.3333333333333,4,2,1,40,0,1
61363,-83.3333333333333,4,2,1,5,0,1
61454,-83.3333333333333,4,2,1,40,0,1
61729,-83.3333333333333,4,2,1,5,0,1
61820,-83.3333333333333,4,2,1,40,0,1
62095,-83.3333333333333,4,2,1,5,0,1
62186,-83.3333333333333,4,2,1,35,0,1
63741,-83.3333333333333,4,2,1,21,0,1
63924,-83.3333333333333,4,2,1,35,0,1
65113,-83.3333333333333,4,2,1,37,0,1
66576,-83.3333333333333,4,2,1,42,0,1
67948,-83.3333333333333,4,2,1,40,0,0
68040,-83.3333333333333,4,2,1,40,0,1
70967,-83.3333333333333,4,2,1,39,0,1
72430,-83.3333333333333,4,2,1,37,0,1
73528,-83.3333333333333,4,2,1,5,0,1
73710,-83.3333333333333,4,2,1,38,0,1
76820,-83.3333333333333,4,2,1,39,0,1
79747,-83.3333333333333,4,2,1,43,0,1
81393,-83.3333333333333,4,2,1,5,0,1
81576,-83.3333333333333,4,2,1,41,0,1
81759,-83.3333333333333,4,2,1,5,0,1
81942,-83.3333333333333,4,2,1,43,0,1
82125,-83.3333333333333,4,2,1,5,0,1
82308,-83.3333333333333,4,2,1,45,0,1
82491,-83.3333333333333,4,2,1,5,0,1
82582,-83.3333333333333,4,2,1,5,0,0
82674,-83.3333333333333,4,2,3,45,0,1
82765,-83.3333333333333,4,2,3,45,0,0
85601,-83.3333333333333,4,2,3,45,0,0
85784,-83.3333333333333,4,2,3,24,0,0
100235,-83.3333333333333,4,2,1,30,0,0
102430,-83.3333333333333,4,2,1,35,0,0
103162,-83.3333333333333,4,2,3,35,0,0
103893,-83.3333333333333,4,2,0,37,0,1
104259,-83.3333333333333,4,2,0,5,0,1
104442,-83.3333333333333,4,2,0,20,0,1
104625,-83.3333333333333,4,2,0,49,0,1
104808,-83.3333333333333,4,2,1,35,0,1
112308,-83.3333333333333,4,2,1,5,0,1
112491,-83.3333333333333,4,2,1,35,0,1
114777,-83.3333333333333,4,2,1,35,0,0
114869,-83.3333333333333,4,2,1,37,0,1
116332,-83.3333333333333,4,2,1,40,0,1
116515,-83.3333333333333,4,2,1,5,0,1
116698,-83.3333333333333,4,2,1,41,0,1
116881,-83.3333333333333,4,2,1,5,0,1
117064,-83.3333333333333,4,2,1,42,0,1
117247,-83.3333333333333,4,2,1,5,0,1
117430,-83.3333333333333,4,2,1,43,0,1
117613,-83.3333333333333,4,2,1,20,0,1
117704,-83.3333333333333,4,2,1,20,0,0
117796,-83.3333333333333,4,2,1,20,0,1
117887,-83.3333333333333,4,2,1,20,0,0
120723,-83.3333333333333,4,2,3,20,0,0
120906,-83.3333333333333,4,2,3,16,0,0

[Colours]
Combo1 : 243,137,204
Combo2 : 253,189,83
Combo3 : 201,149,249
Combo4 : 248,103,103

[HitObjects]
179,317,723,6,0,P|141:265|148:223,1,80,0|0,1:0|0:0,0:0:0:0:
297,217,1088,1,8,0:0:0:0:
235,134,1271,1,0,0:0:0:0:
363,223,1454,6,0,P|401:171|394:129,1,80,8|0,0:0|0:0,0:0:0:0:
245,123,1819,1,8,0:0:0:0:
307,40,2002,1,0,0:0:0:0:
158,110,2186,6,0,L|66:96,1,80,8|0,0:0|0:0,0:0:0:0:
322,275,2552,2,0,L|427:265,1,80
159,208,2918,1,8,0:0:0:0:
362,343,3649,5,2,0:0:0:0:
176,186,4015,1,2,0:0:0:0:
257,216,4198,1,2,0:0:0:0:
339,254,4381,1,2,0:0:0:0:
143,270,4747,1,0,0:0:0:0:
134,339,4930,1,0,0:0:0:0:
314,159,6393,5,2,0:0:0:0:
194,157,6576,1,2,0:0:0:0:
394,238,7857,5,2,0:0:0:0:
134,235,8040,1,10,0:0:0:0:
71,324,8771,2,0,L|64:150,1,160,2|0,2:3|0:0,0:0:0:0:
144,128,9320,1,0,0:0:0:0:
312,262,9503,5,2,0:0:0:0:
321,170,9686,1,2,0:0:0:0:
232,144,9869,1,2,0:0:0:0:
223,52,10052,1,2,0:0:0:0:
98,58,10235,1,2,0:0:0:0:
196,181,10601,1,0,0:0:0:0:
292,176,10784,1,0,0:0:0:0:
401,273,11881,6,0,P|429:213|390:131,1,160,0|2,0:0|0:0,0:0:0:0:
255,134,12430,1,2,0:0:0:0:
64,126,13345,1,0,0:0:0:0:
127,227,13710,1,2,0:0:0:0:
376,240,13893,6,0,P|431:180|366:129,1,160,10|0,0:0|0:0,0:0:0:0:
307,95,14442,1,0,0:0:0:0:
198,200,14625,2,0,L|188:105,1,80
334,207,14991,2,0,L|344:112,1,80
79,352,15357,5,2,0:0:0:0:
88,259,15540,1,2,0:0:0:0:
137,173,15723,1,2,0:0:0:0:
222,130,15906,1,2,0:0:0:0:
385,131,16089,1,2,0:0:0:0:
168,142,16454,1,2,0:0:0:0:
326,144,16637,1,2,0:0:0:0:
168,142,17003,5,2,0:0:0:0:
277,144,17186,2,2,P|300:94|289:46,1,80
132,77,17552,1,2,0:0:0:0:
411,79,17918,1,2,0:0:0:0:
69,335,18284,5,2,0:0:0:0:
148,294,18467,1,2,0:0:0:0:
175,212,18650,1,2,0:0:0:0:
148,133,18833,1,2,0:0:0:0:
16,81,19016,1,2,0:0:0:0:
258,164,19381,1,2,0:0:0:0:
116,214,19564,1,2,0:0:0:0:
345,229,19930,5,2,0:0:0:0:
203,230,20113,2,2,L|185:340,1,80
337,332,20479,2,2,L|433:323,1,80
289,256,20845,2,2,L|280:158,1,80
105,273,21210,5,2,0:0:0:0:
57,192,21393,1,2,0:0:0:0:
93,108,21576,1,2,0:0:0:0:
179,78,21759,1,2,0:0:0:0:
336,75,21942,1,2,0:0:0:0:
247,93,22125,1,2,0:0:0:0:
359,167,22308,1,2,0:0:0:0:
248,202,22490,1,2,0:0:0:0:
411,321,22674,6,2,P|428:277|421:224,1,80
360,159,23040,1,2,0:0:0:0:
248,158,23223,1,2,0:0:0:0:
372,158,23406,2,2,L|384:75,1,80
301,26,23771,1,2,0:0:0:0:
194,30,23954,1,2,0:0:0:0:
443,152,24137,5,2,0:0:0:0:
307,204,24320,1,2,0:0:0:0:
170,248,24503,1,10,0:0:0:0:
416,324,24686,1,2,0:0:0:0:
302,290,24869,1,10,0:0:0:0:
377,263,25052,1,2,0:0:0:0:
407,188,25235,1,2,0:0:0:0:
390,109,25418,1,2,0:0:0:0:
230,97,25601,5,2,0:0:0:0:
307,149,25784,1,2,0:0:0:0:
200,208,25967,1,2,0:0:0:0:
316,291,26149,1,2,0:0:0:0:
34,299,26332,1,2,0:0:0:0:
371,332,27064,6,0,P|387:262|339:194,1,160,2|0,0:0|0:0,0:0:0:0:
110,185,27796,1,10,0:0:0:0:
395,189,28162,1,0,0:0:0:0:
100,280,28528,2,0,P|72:240|76:184,1,80,2|0,0:0|0:0,0:0:0:0:
144,128,28893,1,8,0:0:0:0:
382,129,29259,1,8,0:0:0:0:
71,125,29625,1,8,0:0:0:0:
436,349,29991,6,0,P|456:279|411:181,1,160,8|0,0:0|0:0,0:0:0:0:
334,154,30540,1,0,0:0:0:0:
408,61,30723,1,2,0:0:0:0:
252,252,30906,2,0,P|196:224|184:120,1,160,10|0,0:0|0:0,0:0:0:0:
344,308,31454,2,0,P|384:268|332:184,1,160,2|0,0:0|0:0,0:0:0:0:
51,186,32186,1,6,0:0:0:0:
311,190,32552,1,2,0:0:0:0:
117,292,32918,6,0,P|86:212|154:149,1,160,2|0,0:0|0:0,0:0:0:0:
213,103,33467,1,2,0:0:0:0:
126,155,33649,1,2,0:0:0:0:
280,159,33832,2,0,L|462:140,1,160,10|0,0:0|0:0,0:0:0:0:
248,297,34381,6,0,P|207:261|264:192,1,160,10|0,0:0|0:0,0:0:0:0:
402,217,34930,2,0,P|459:170|389:35,1,240
292,32,35662,1,0,0:0:0:0:
136,100,35845,1,10,0:0:0:0:
337,303,36210,2,0,L|345:194,1,80
251,147,36576,1,0,0:0:0:0:
103,151,36759,1,10,0:0:0:0:
251,147,36942,2,0,L|353:143,1,80,2|2,0:0|0:0,0:0:0:0:
183,220,37308,6,0,P|117:169|197:53,1,240,10|0,0:0|0:0,0:0:0:0:
343,53,38040,1,14,0:0:0:0:
229,139,38406,1,2,0:0:0:0:
104,197,38588,2,0,L|94:148,1,40
261,197,38771,6,0,L|456:189,1,160,10|0,0:0|0:0,0:0:0:0:
320,188,39320,1,0,0:0:0:0:
162,228,39503,1,10,0:0:0:0:
311,172,39686,1,2,0:0:0:0:
191,145,39869,2,2,L|98:122,1,80
360,303,40235,6,0,P|437:231|350:153,1,240,10|2,0:0|0:0,0:0:0:0:
194,156,40967,1,8,0:0:0:0:
350,310,41332,2,0,P|378:266|342:190,1,120,2|0,0:0|0:0,0:0:0:0:
152,240,41698,6,0,P|100:196|168:144,1,160,10|0,0:0|0:0,0:0:0:0:
260,140,42247,1,2,0:0:0:0:
150,140,42430,1,2,0:0:0:0:
260,140,42613,2,0,P|200:121|98:141,1,160,10|0,0:0|0:0,0:0:0:0:
399,272,43162,6,0,P|459:240|387:120,1,240,10|2,0:0|0:0,0:0:0:0:
237,125,43893,1,6,0:0:0:0:
379,216,44076,1,2,0:0:0:0:
283,290,44259,1,10,0:0:0:0:
444,283,44625,5,2,0:0:0:0:
228,341,44991,1,0,0:0:0:0:
146,270,45174,1,0,0:0:0:0:
229,199,45357,1,10,0:0:0:0:
360,245,45540,1,2,0:0:0:0:
228,286,45723,1,10,0:0:0:0:
379,337,45906,2,0,L|386:280,1,40,2|0,0:0|0:0,0:0:0:0:
200,170,46088,1,10,0:0:0:0:
34,167,46271,1,2,0:0:0:0:
201,230,46454,1,10,0:0:0:0:
368,205,46637,1,2,0:0:0:0:
183,292,47552,6,0,P|99:224|202:194,1,240,2|0,0:0|0:0,0:0:0:0:
448,109,48284,2,0,P|459:185|414:274,1,160,10|0,0:0|0:0,0:0:0:0:
64,103,49015,2,0,P|53:179|98:268,1,160,2|0,0:0|0:0,0:0:0:0:
361,191,49747,1,6,0:0:0:0:
170,238,50113,2,0,L|252:236,1,80
110,346,50479,6,0,P|57:306|85:236,1,120,2|0,0:0|0:0,0:0:0:0:
233,162,50845,5,2,1:2:0:0:
375,154,51028,1,2,0:0:0:0:
249,254,51210,1,2,1:2:0:0:
422,253,51393,1,2,1:2:0:0:
140,248,51576,5,2,0:0:0:0:
298,249,51759,1,2,0:0:0:0:
158,266,51942,1,2,0:0:0:0:
336,148,52125,1,2,1:2:0:0:
207,66,52308,5,2,0:0:0:0:
388,344,52491,1,2,1:2:0:0:
88,344,52674,1,2,0:0:0:0:
248,341,52857,2,0,L|312:337,1,40,6|0,1:2|0:0,0:0:0:0:
116,208,53040,2,0,P|36:156|136:88,1,240,2|0,0:0|0:0,0:0:0:0:
392,80,53771,1,8,0:0:0:0:
256,192,53954,12,0,54686,0:0:0:0:
339,321,54869,5,8,0:0:0:0:
109,186,55235,1,0,0:0:0:0:
394,122,55601,1,4,1:0:0:0:
224,196,55784,2,0,P|152:158|119:84,1,160,8|0,2:3|0:0,0:0:0:0:
429,328,56332,6,0,P|453:262|369:166,1,191.999994140625,4|4,1:0|0:3,0:0:0:0:
225,165,56881,1,0,0:0:0:0:
407,244,57064,2,0,P|461:211|400:93,1,191.999994140625,8|0,1:0|0:0,0:0:0:0:
167,99,57796,1,0,0:0:0:0:
262,323,58162,1,4,1:0:0:0:
412,327,58345,1,0,0:0:0:0:
130,300,58528,1,8,1:0:0:0:
237,256,58710,2,0,P|276:204|197:115,1,191.999994140625,0|0,0:3|0:0,0:0:0:0:
43,223,59259,6,0,P|46:160|158:90,1,191.999994140625,4|4,1:0|3:0,0:0:0:0:
281,141,59808,1,0,0:0:0:0:
417,182,59991,2,0,P|440:122|332:52,1,191.999994140625,8|0,0:0|0:0,0:0:0:0:
120,340,60723,2,0,P|68:304|80:224,1,143.999995605469,0|0,2:2|0:0,0:0:0:0:
252,268,61088,2,0,P|296:240|256:164,1,143.999995605469,8|0,2:0|0:0,0:0:0:0:
116,159,61454,2,0,P|127:93|202:61,1,143.999995605469,2|0,3:0|0:0,0:0:0:0:
365,203,61820,2,0,P|409:175|369:99,1,143.999995605469,0|0,2:0|0:0,0:0:0:0:
190,303,62186,6,0,P|104:245|133:159,1,191.999994140625,4|0,1:1|1:0,0:0:0:0:
259,169,62735,1,0,0:0:0:0:
425,171,62918,1,8,1:1:0:0:
284,167,63101,1,0,0:0:0:0:
439,98,63284,1,0,0:0:0:0:
276,89,63467,1,0,0:0:0:0:
34,239,63649,5,8,0:0:0:0:
346,288,64015,1,2,0:0:0:0:
180,224,64198,1,0,0:0:0:0:
343,177,64381,1,8,0:1:0:0:
223,111,64564,1,0,0:0:0:0:
370,182,64747,2,0,P|396:132|363:70,1,95.9999970703126,0|0,0:0|3:0,0:0:0:0:
216,278,65113,6,0,P|140:240|155:135,1,191.999994140625,4|0,1:0|0:0,0:0:0:0:
287,193,65662,2,0,P|351:145|266:98,1,191.999994140625,8|0,2:0|0:0,0:0:0:0:
443,123,66210,2,0,L|455:21,1,95.9999970703126
143,176,66576,5,8,2:1:0:0:
295,180,66759,1,8,2:1:0:0:
143,176,66942,2,0,P|93:151|166:127,1,143.999995605469,4|0,1:0|0:0,0:0:0:0:
336,220,67308,1,2,0:3:0:0:
480,224,67491,1,0,3:0:0:0:
216,336,67674,1,4,3:0:0:0:
68,348,67857,2,4,L|52:268,1,47.9999985351563,4|4,3:0|3:0,3:0:0:0:
256,244,68040,6,0,P|304:188|212:96,1,191.999994140625,4|0,1:2|2:0,0:0:0:0:
103,96,68588,1,0,2:0:0:0:
369,306,68771,2,0,P|441:268|474:155,1,191.999994140625,4|0,1:2|0:0,0:0:0:0:
350,99,69320,2,0,L|296:85,1,47.9999985351563
112,222,69503,6,0,P|98:157|191:83,1,191.999994140625,4|0,1:0|1:0,0:0:0:0:
348,90,70052,1,0,0:0:0:0:
189,187,70235,2,0,P|153:146|156:97,1,95.9999970703126,8|8,0:1|0:0,0:0:0:0:
323,15,70601,1,2,0:0:0:0:
100,315,70967,6,0,P|96:247|207:186,1,191.999994140625,0|0,1:0|0:0,0:0:0:0:
336,184,71515,1,0,0:0:0:0:
173,128,71698,2,0,L|376:124,1,191.999994140625,8|0,0:1|0:0,0:0:0:0:
140,317,72430,6,0,P|81:277|96:189,1,143.999995605469
252,236,72796,2,0,L|368:226,1,95.9999970703126,4|0,1:3|0:0,0:0:0:0:
54,214,73162,2,0,P|48:146|207:24,1,287.999991210938,10|0,0:3|0:0,0:0:0:0:
453,282,73893,6,0,P|445:219|338:149,1,191.999994140625,4|0,0:0|0:0,0:0:0:0:
187,247,74442,2,0,L|171:152,1,95.9999970703126,0|8,0:0|0:1,0:0:0:0:
332,144,74808,2,0,L|348:49,1,95.9999970703126,8|8,0:0|0:1,0:0:0:0:
181,33,75174,1,8,0:1:0:0:
341,251,75357,6,0,P|399:206|320:130,1,191.999994140625,0|4,0:0|1:3,0:0:0:0:
160,192,76088,2,0,P|173:115|285:72,1,191.999994140625,8|0,1:0|0:0,0:0:0:0:
388,72,76637,1,8,0:0:0:0:
96,296,76820,6,0,P|49:277|105:177,1,191.999994140625,4|0,0:0|0:0,0:0:0:0:
343,278,77369,2,0,P|435:254|463:162,1,191.999994140625,8|0,0:0|2:0,0:0:0:0:
216,108,77918,1,0,0:0:0:0:
101,294,78284,6,4,P|38:235|128:180,1,191.999994140625,0|4,2:0|1:0,0:0:0:0:
236,168,78832,1,0,0:0:0:0:
97,172,79015,1,2,1:3:0:0:
322,242,79381,1,2,0:0:0:0:
457,243,79564,1,4,0:3:0:0:
144,280,79747,6,0,P|88:216|164:144,1,191.999994140625,4|0,1:0|2:0,0:0:0:0:
416,136,80479,1,10,1:3:0:0:
108,284,80845,2,0,L|84:176,1,95.9999970703126,2|0,0:0|0:0,0:0:0:0:
344,232,81210,6,0,P|403:184|388:108,1,143.999995605469,4|0,1:1|0:0,0:0:0:0:
228,198,81576,2,0,P|174:163|182:74,1,143.999995605469,4|0,1:0|0:0,0:0:0:0:
351,312,81942,2,0,P|400:300|499:353,1,143.999995605469,4|0,1:3|0:0,0:0:0:0:
268,226,82308,2,0,P|219:214|120:267,1,143.999995605469,4|0,1:0|0:0,0:0:0:0:
441,182,82674,5,0,2:0:0:0:
258,186,85601,1,0,2:2:0:0:
256,192,85784,8,0,88528,0:0:0:0:
256,192,97308,12,0,99503,0:0:0:0:
392,198,100235,5,0,1:0:0:0:
142,313,100601,2,0,P|101:251|187:185,1,191.999994140625,4|0,1:0|1:0,0:0:0:0:
341,122,101149,1,0,1:0:0:0:
173,172,101332,2,0,L|50:162,1,95.9999970703126,0|0,1:0|1:0,1:0:0:0:
390,342,101698,6,0,P|418:294|385:230,1,95.9999970703126,8|0,0:0|0:0,0:0:0:0:
122,342,102064,6,0,P|94:294|127:230,1,95.9999970703126,8|0,0:0|0:0,0:0:0:0:
436,158,102430,6,0,P|464:110|431:46,1,95.9999970703126,8|0,1:2|1:2,0:0:0:0:
76,158,102796,6,0,P|48:110|81:46,1,95.9999970703126,8|0,1:2|1:2,0:0:0:0:
256,88,103162,1,0,2:0:0:0:
131,219,103893,2,0,P|35:126|160:73,1,287.999991210938,4|0,0:0|0:0,0:0:0:0:
406,309,104625,6,0,P|447:256|423:175,1,143.999995605469,4|0,0:0|0:0,0:0:0:0:
257,212,104991,2,0,P|199:168|210:117,1,95.9999970703126,8|0,1:2|0:0,0:0:0:0:
251,83,105265,1,0,0:0:0:0:
427,261,105357,2,0,L|445:142,1,95.9999970703126,12|0,1:2|1:0,0:0:0:0:
266,91,105723,1,4,1:0:0:0:
405,91,105906,2,0,L|352:84,1,47.9999985351563,4|0,1:3|0:0,0:0:0:0:
160,240,106088,6,0,P|96:208|96:84,1,191.999994140625,4|2,1:2|0:0,0:0:0:0:
252,104,106637,1,0,0:0:0:0:
108,236,106820,1,8,1:0:0:0:
96,128,107003,1,0,1:0:0:0:
236,132,107186,1,0,0:0:0:0:
104,132,107369,1,0,0:0:0:0:
364,300,107552,6,0,P|400:256|376:176,1,143.999995605469,4|0,1:0|0:0,0:0:0:0:
200,172,107918,2,0,P|168:124|244:68,1,143.999995605469,2|0,0:0|0:0,0:0:0:0:
388,204,108284,2,0,P|448:176|476:72,1,143.999995605469,8|0,1:0|0:0,0:0:0:0:
248,80,108649,1,8,1:0:0:0:
90,78,108832,1,4,1:0:0:0:
368,320,109015,6,0,P|416:280|344:184,1,191.999994140625,4|0,1:2|0:0,0:0:0:0:
204,180,109564,2,0,P|200:120|320:48,1,191.999994140625
424,112,110113,1,8,0:0:0:0:
304,232,110296,2,0,L|236:228,1,47.9999985351563
64,296,110479,6,0,P|36:256|52:180,1,95.9999970703126,2|0,0:3|0:0,0:0:0:0:
176,140,110845,1,4,1:0:0:0:
48,120,111028,1,0,0:0:0:0:
212,252,111210,2,0,L|320:240,1,95.9999970703126,8|0,1:0|0:0,0:0:0:0:
472,288,111576,2,0,L|484:168,1,95.9999970703126
200,320,111942,6,0,P|112:264|208:152,1,287.999991210938,4|0,1:2|0:0,0:0:0:0:
380,152,112674,1,8,1:0:0:0:
112,152,112857,2,0,P|32:124|36:20,1,191.999994140625,2|0,0:0|0:0,0:0:0:0:
324,88,113406,5,4,1:0:0:0:
177,88,113588,1,0,0:0:0:0:
324,88,113771,1,4,1:0:0:0:
56,88,113954,1,0,0:0:0:0:
318,254,114137,1,8,1:0:0:0:
456,254,114320,1,0,1:0:0:0:
194,254,114503,1,8,1:2:0:0:
56,254,114686,1,4,1:3:0:0:
373,342,114869,6,0,P|417:303|363:227,1,143.999995605469,4|0,1:2|0:0,0:0:0:0:
138,222,115235,1,4,1:3:0:0:
384,216,115601,1,4,1:0:0:0:
138,222,115967,1,8,1:0:0:0:
366,263,116332,6,0,P|409:218|347:156,1,143.999995605469,4|0,1:0|0:0,0:0:0:0:
174,179,116698,6,0,P|131:134|193:72,1,143.999995605469,4|0,1:0|0:0,0:0:0:0:
427,111,117064,6,0,P|396:33|311:15,1,143.999995605469,4|0,1:0|0:0,0:0:0:0:
85,273,117430,6,0,P|116:351|201:369,1,143.999995605469,4|0,1:0|0:0,0:0:0:0:
438,143,117796,1,0,0:3:0:0:
256,182,120723,5,0,0:3:0:0:
256,192,120906,12,0,124564,0:0:0:0:
