osu file format v14

[General]
AudioFilename: audio.mp3
AudioLeadIn: 0
PreviewTime: 54445
Countdown: 0
SampleSet: None
StackLeniency: 0.7
Mode: 0
LetterboxInBreaks: 0
WidescreenStoryboard: 0

[Editor]
DistanceSpacing: 0.5
BeatDivisor: 4
GridSize: 4
TimelineZoom: 1

[Metadata]
Title:Yokubari Dreamer
TitleUnicode:欲張り Dreamer
Artist:Haru(Hanae Natsuki) x Choko(Tamura Yukari)
ArtistUnicode:ハル(花江夏樹)×ちょこ(田村ゆかり)
Creator:Mamiko
Version:Insane
Source:ラストピリオド -終わりなき螺旋の物語-
Tags:
BeatmapID:1908035
BeatmapSetID:913377

[Difficulty]
HPDrainRate:5
CircleSize:4
OverallDifficulty:8
ApproachRate:9
SliderMultiplier:1.6
SliderTickRate:1

[Events]
//Background and Video events
0,0,"bb.jpg",0,0
//Break Periods
//Storyboard Layer 0 (Background)
//Storyboard Layer 1 (Fail)
//Storyboard Layer 2 (Pass)
//Storyboard Layer 3 (Foreground)
//Storyboard Sound Samples

[TimingPoints]
660,428.571428571429,4,1,1,50,1,0
660,-133.333333333333,4,1,1,50,0,0
15231,-100,4,1,1,50,0,0
16517,-80,4,1,1,50,0,0
16945,-100,4,1,1,50,0,0
19517,-100,4,1,1,50,0,0
26374,-133.333333333333,4,2,1,50,0,0
27231,-80,4,2,1,50,0,0
27874,-133.333333333333,4,2,1,50,0,0
28945,-80,4,2,1,50,0,0
29374,-133.333333333333,4,2,1,50,0,0
29802,-100,4,1,1,50,0,0
33231,-133.333333333333,4,2,1,50,0,0
34088,-80,4,2,1,50,0,0
34731,-133.333333333333,4,2,1,50,0,0
35802,-80,4,2,1,50,0,0
36231,-133.333333333333,4,2,1,50,0,0
36660,-100,4,1,1,50,0,0
40088,-100,4,2,1,50,0,0
46945,-100,4,1,1,50,0,0
55517,-100,4,1,1,50,0,1
55945,-66.6666666666667,4,1,1,50,0,1
56374,-100,4,1,1,50,0,1
57660,-66.6666666666667,4,1,1,50,0,1
58302,-100,4,1,1,50,0,1
69660,-66.6666666666667,4,1,1,50,0,1
70088,-100,4,1,1,50,0,1
71374,-66.6666666666667,4,1,1,50,0,1
71802,-100,4,1,1,50,0,1
81231,-100,4,1,1,50,0,0
83374,-66.6666666666667,4,1,1,50,0,0
84017,-100,4,1,1,50,0,0
85088,-66.6666666666667,4,1,1,50,0,0
85517,-100,4,1,1,50,0,0

[Colours]
Combo1 : 128,128,64
Combo2 : 128,64,64
Combo3 : 255,128,192
Combo4 : 255,128,0

[HitObjects]
70,310,660,6,0,P|126:322|188:308,1,120.000004577637
243,241,1302,1,0,0:0:0:0:
243,241,1517,2,0,P|242:215|236:166,1,60.0000022888184
174,57,1945,2,0,P|170:86|169:116,1,60.0000022888184
332,274,2374,6,0,L|343:148,1,120.000004577637
424,92,3017,1,0,0:0:0:0:
424,92,3231,2,0,P|456:97|490:107,1,60.0000022888184
428,208,3660,1,0,0:0:0:0:
342,154,3874,1,0,0:0:0:0:
209,221,4088,6,0,L|73:244,1,120.000004577637
162,324,4731,1,0,0:0:0:0:
162,324,4838,1,0,0:0:0:0:
162,324,4945,2,0,L|236:335,1,60.0000022888184
293,268,5374,2,0,L|303:206,1,60.0000022888184
209,42,5802,6,0,L|227:185,1,120.000004577637
304,88,6445,1,0,0:0:0:0:
140,155,6660,2,0,L|74:174,1,60.0000022888184
82,171,6981,2,0,L|86:233,1,60.0000022888184
96,322,7302,1,0,0:0:0:0:
224,330,7517,6,0,B|192:301|192:301|212:214,1,120.000004577637
290,169,8160,1,0,0:0:0:0:
290,169,8267,1,0,0:0:0:0:
290,169,8374,2,0,L|348:158,1,60.0000022888184
374,271,8802,2,0,L|316:260,1,60.0000022888184
331,357,9231,5,0,0:0:0:0:
468,237,9552,1,0,0:0:0:0:
468,237,9660,1,0,0:0:0:0:
207,148,9874,1,0,0:0:0:0:
371,241,10088,5,0,0:0:0:0:
224,290,10410,1,0,0:0:0:0:
224,290,10518,1,0,0:0:0:0:
427,345,10731,1,0,0:0:0:0:
294,114,10945,6,0,P|281:172|289:233,1,120.000004577637
288,231,11588,1,0,0:0:0:0:
471,130,11802,2,0,L|397:144,1,60.0000022888184
397,132,12124,2,0,L|383:70,1,60.0000022888184
313,23,12445,1,0,0:0:0:0:
397,240,12660,5,0,0:0:0:0:
85,320,13088,1,0,0:0:0:0:
397,240,13517,5,0,0:0:0:0:
80,236,13945,2,0,L|74:158,1,60.0000022888184
85,320,14374,5,0,0:0:0:0:
264,56,15231,6,0,B|229:72|229:72|184:59,1,80
114,33,15552,2,0,L|83:125,1,80
62,190,15874,1,0,0:0:0:0:
252,319,16088,6,0,P|236:259|216:202,1,120
206,182,16517,6,0,L|190:285,1,100
352,323,16945,6,0,B|387:305|387:305|439:315,1,80
504,329,17267,2,0,L|517:237,1,80
488,172,17588,1,0,0:0:0:0:
329,68,17802,6,0,P|309:114|300:211,1,120
301,202,18231,5,0,0:0:0:0:
282,114,18445,1,0,0:0:0:0:
258,25,18660,2,0,L|228:15,4,20
403,104,19088,1,0,0:0:0:0:
429,99,19195,1,0,0:0:0:0:
455,95,19302,1,0,0:0:0:0:
417,338,19517,5,0,0:0:0:0:
280,258,19731,1,0,0:0:0:0:
280,258,19838,1,0,0:0:0:0:
280,258,19945,2,0,L|268:344,1,80
237,353,20267,1,0,0:0:0:0:
237,353,20374,6,0,L|184:343,1,40
56,329,20588,2,0,L|109:319,1,40
138,167,20802,2,0,L|147:276,1,80
220,129,21231,5,0,0:0:0:0:
199,94,21338,1,0,0:0:0:0:
166,73,21445,1,0,0:0:0:0:
127,68,21552,1,0,0:0:0:0:
90,82,21659,1,0,0:0:0:0:
53,227,21874,1,0,0:0:0:0:
308,106,22088,5,0,0:0:0:0:
254,216,22302,1,0,0:0:0:0:
138,167,22517,1,0,0:0:0:0:
393,58,22945,5,0,0:0:0:0:
474,164,23160,1,0,0:0:0:0:
446,167,23267,1,0,0:0:0:0:
418,171,23374,1,0,0:0:0:0:
298,247,23588,5,0,0:0:0:0:
298,247,23695,1,0,0:0:0:0:
298,247,23802,2,0,L|289:191,1,40
381,275,24017,2,0,L|374:314,1,40
238,321,24231,1,0,0:0:0:0:
473,286,24445,1,0,0:0:0:0:
341,124,24660,5,0,0:0:0:0:
216,82,24874,1,0,0:0:0:0:
193,89,24981,1,0,0:0:0:0:
174,101,25088,2,0,P|161:140|157:194,1,80
240,329,25517,6,0,L|233:279,1,40
157,317,25731,2,0,L|150:267,1,40
77,231,25945,2,0,B|62:269|62:269|77:318,1,80
331,313,26374,6,0,L|368:319,2,30.0000011444092,0|0|0,1:0|0:0|0:0,0:0:0:0:
284,220,26802,2,0,P|279:191|286:152,1,60.0000022888184
331,64,27231,6,0,L|229:76,1,100
231,75,27660,1,0,0:0:0:0:
368,170,27874,6,0,L|494:159,1,120.000004577637
499,270,28517,2,0,P|472:258|441:253,1,60.0000022888184
340,320,28945,6,0,L|226:332,1,100
125,312,29374,6,0,L|47:320,1,60.0000022888184
27,173,29802,5,0,0:0:0:0:
127,218,30017,1,0,0:0:0:0:
127,218,30124,1,0,0:0:0:0:
127,218,30231,1,0,0:0:0:0:
206,122,30445,1,0,0:0:0:0:
119,43,30660,2,0,L|112:126,1,80
224,224,31088,1,0,0:0:0:0:
452,180,31302,6,0,B|428:176|404:164|404:164|364:180|364:180|336:164|292:164,1,160
408,268,31945,1,0,0:0:0:0:
243,339,32160,1,0,0:0:0:0:
319,253,32374,2,0,P|327:293|331:333,1,80
166,282,32802,2,0,P|158:322|154:362,1,80
232,192,33231,6,0,L|216:48,1,120.000004577637
116,152,34088,6,0,L|104:44,1,100
104,52,34517,1,0,0:0:0:0:
28,248,34731,6,0,P|84:260|148:240,1,120.000004577637
216,296,35374,2,0,P|252:288|284:288,1,60.0000022888184
428,244,35802,6,0,B|448:284|448:284|432:364,1,100
280,188,36231,6,0,P|281:159|288:120,1,60.0000022888184
378,47,36660,5,0,0:0:0:0:
482,112,36874,1,0,0:0:0:0:
482,112,36981,1,0,0:0:0:0:
482,112,37088,1,0,0:0:0:0:
371,175,37302,1,0,0:0:0:0:
289,46,37517,2,0,P|255:26|202:22,1,80
107,196,37945,1,0,0:0:0:0:
212,111,38160,6,0,B|192:108|167:119|167:119|132:112|111:89|111:89|84:104|52:111,1,160
19,295,38802,1,0,0:0:0:0:
214,202,39017,1,0,0:0:0:0:
183,351,39231,2,0,P|122:340|154:266,1,160
350,324,40088,5,0,0:0:0:0:
303,318,40231,1,0,0:0:0:0:
254,310,40374,1,0,0:0:0:0:
172,298,40517,2,0,L|164:228,2,53.3333333333333
235,124,40945,2,0,B|264:159|264:159|244:237,1,106.666666666667
88,330,41374,2,0,L|78:257,1,53.3333333333333
71,192,41660,1,0,0:0:0:0:
44,82,41802,6,0,P|100:99|162:99,1,106.666666666667
236,63,42231,2,0,P|266:47|288:22,2,53.3333333333333
224,174,42660,1,0,0:0:0:0:
249,182,42802,1,0,0:0:0:0:
271,197,42945,1,0,0:0:0:0:
367,146,43088,2,0,P|361:119|363:93,2,53.3333333333333
350,280,43517,6,0,L|355:339,1,53.3333333333333
478,289,43802,1,0,0:0:0:0:
468,210,43945,2,0,L|413:217,1,53.3333333333333
260,303,44230,1,0,0:0:0:0:
189,249,44374,2,0,P|160:188|189:98,1,160
352,164,45231,6,0,P|409:172|462:103,1,106.666666666667
449,58,45660,2,0,P|404:30|353:39,1,106.666666666667
283,87,46088,1,0,0:0:0:0:
249,96,46231,1,0,0:0:0:0:
215,105,46374,1,0,0:0:0:0:
135,80,46517,2,0,P|127:54|128:2,2,53.3333333333333
172,191,46945,6,0,L|73:180,1,80
38,336,47374,2,0,P|76:330|118:297,1,80
269,196,47802,1,0,0:0:0:0:
197,352,48017,1,0,0:0:0:0:
182,262,48231,2,0,P|220:265|269:295,1,80
367,352,48660,6,0,L|358:261,1,80
475,145,49088,1,0,0:0:0:0:
511,222,49302,2,0,P|449:236|393:152,1,160
395,76,49945,1,0,0:0:0:0:
482,29,50160,1,0,0:0:0:0:
296,170,50374,6,0,L|152:152,1,120
149,161,50802,1,0,0:0:0:0:
103,39,51017,1,0,0:0:0:0:
149,161,51231,2,0,P|159:199|159:265,1,80
92,338,51660,1,0,0:0:0:0:
0,274,51874,1,0,0:0:0:0:
260,309,52088,5,0,0:0:0:0:
336,247,52302,1,0,0:0:0:0:
422,285,52517,1,0,0:0:0:0:
243,280,52731,5,0,0:0:0:0:
254,174,52945,1,0,0:0:0:0:
262,66,53160,1,0,0:0:0:0:
346,340,53374,5,0,0:0:0:0:
118,288,53588,1,0,0:0:0:0:
118,288,53695,1,0,0:0:0:0:
118,288,53802,5,0,0:0:0:0:
403,187,54124,1,0,0:0:0:0:
190,64,54445,1,0,0:0:0:0:
168,148,54660,5,0,0:0:0:0:
79,123,54874,2,0,L|34:110,1,40
250,217,55088,2,0,L|270:117,1,80
46,297,55517,6,0,B|121:269|121:269|156:288,1,120
216,351,55945,6,0,P|257:310|313:323,1,120.000004577637
408,325,56267,5,0,0:0:0:0:
408,325,56374,2,0,L|395:214,1,80
417,215,56695,1,0,0:0:0:0:
417,215,56802,2,0,L|354:205,1,40
260,183,57017,1,0,0:0:0:0:
348,76,57231,5,0,0:0:0:0:
193,241,57445,1,0,0:0:0:0:
193,241,57660,6,0,P|168:189|191:128,1,120.000004577637
249,80,57981,1,0,0:0:0:0:
249,80,58088,5,0,0:0:0:0:
340,288,58302,1,0,0:0:0:0:
340,288,58410,1,0,0:0:0:0:
340,288,58517,2,0,P|301:294|253:310,1,80
96,352,58945,6,0,P|97:316|104:268,1,80
224,204,59374,1,0,0:0:0:0:
182,93,59588,1,0,0:0:0:0:
182,93,59695,1,0,0:0:0:0:
182,93,59802,2,0,P|144:77|86:70,1,80
84,77,60124,2,0,L|70:163,1,80
0,97,60445,1,0,0:0:0:0:
262,141,60660,6,0,P|313:155|390:83,1,160
323,23,61302,1,0,0:0:0:0:
323,23,61410,1,0,0:0:0:0:
323,23,61517,1,0,0:0:0:0:
346,233,61731,1,0,0:0:0:0:
357,244,61838,2,0,L|408:239,1,40
326,332,62052,1,0,0:0:0:0:
315,343,62159,2,0,L|264:338,1,40
180,359,62374,6,0,L|166:257,1,80
158,202,62695,1,0,0:0:0:0:
158,202,62802,2,0,P|190:174|236:168,1,80
331,59,63231,6,0,L|345:161,1,80
353,216,63552,1,0,0:0:0:0:
353,216,63659,2,0,P|321:244|275:250,1,80
92,332,64088,6,0,P|20:290|36:204,1,160
200,288,64731,1,0,0:0:0:0:
127,73,64945,2,0,P|120:112|116:152,1,80
120,248,65267,2,0,P|116:208|109:168,1,80
12,128,65588,1,0,0:0:0:0:
293,194,65802,6,0,P|300:153|312:108,1,80
469,200,66231,1,0,0:0:0:0:
421,92,66445,1,0,0:0:0:0:
421,92,66552,1,0,0:0:0:0:
421,92,66660,1,0,0:0:0:0:
377,254,66874,5,0,0:0:0:0:
383,285,66981,1,0,0:0:0:0:
401,313,67088,1,0,0:0:0:0:
362,304,67195,1,0,0:0:0:0:
322,308,67302,1,0,0:0:0:0:
287,329,67410,1,0,0:0:0:0:
259,355,67517,6,0,L|164:342,1,80
91,326,67838,1,0,0:0:0:0:
91,326,67945,2,0,P|105:288|91:235,1,80
42,64,68374,2,0,B|79:97|79:97|166:84,1,120
231,74,68802,2,0,L|334:54,1,80
474,244,69231,6,0,P|438:264|390:256,1,80
332,336,69660,6,0,P|292:302|219:320,1,120.000004577637
144,359,70088,6,0,B|135:277,1,80
110,264,70410,1,0,0:0:0:0:
110,264,70517,1,0,0:0:0:0:
262,200,70731,1,0,0:0:0:0:
80,124,70945,5,0,0:0:0:0:
204,28,71160,1,0,0:0:0:0:
204,28,71374,6,0,L|176:187,1,120.000004577637
339,260,71802,5,0,0:0:0:0:
351,75,72017,2,0,L|301:86,1,40
343,165,72231,2,0,L|293:176,1,40
426,211,72445,1,0,0:0:0:0:
248,321,72660,6,0,P|204:305|153:308,1,80
139,317,72981,1,0,0:0:0:0:
139,317,73088,2,0,L|132:252,1,40
180,176,73302,1,0,0:0:0:0:
8,220,73517,6,0,P|52:220|98:197,1,80
190,82,73838,2,0,B|101:62,1,80
39,121,74160,1,0,0:0:0:0:
229,260,74374,6,0,P|248:296|248:348,1,80
134,277,74802,1,0,0:0:0:0:
280,175,75017,1,0,0:0:0:0:
280,175,75124,1,0,0:0:0:0:
280,175,75231,1,0,0:0:0:0:
339,317,75445,1,0,0:0:0:0:
355,330,75552,2,0,L|402:320,1,40
474,232,75767,1,0,0:0:0:0:
458,245,75874,2,0,L|411:235,1,40
366,157,76088,6,0,L|359:54,1,80
380,46,76410,1,0,0:0:0:0:
380,46,76517,1,0,0:0:0:0:
476,115,76731,1,0,0:0:0:0:
229,285,76945,6,0,L|222:182,1,80
243,174,77267,1,0,0:0:0:0:
243,174,77374,1,0,0:0:0:0:
339,243,77588,1,0,0:0:0:0:
104,352,77802,6,0,P|92:324|100:272,1,80
184,114,78231,1,0,0:0:0:0:
223,205,78445,2,0,L|166:218,1,40
101,188,78660,2,0,L|6:169,1,80
13,72,78981,2,0,L|91:87,1,80
172,35,79302,1,0,0:0:0:0:
298,148,79517,6,0,B|313:112|313:112|296:68,1,80
368,229,79945,1,0,0:0:0:0:
485,181,80160,1,0,0:0:0:0:
485,181,80267,1,0,0:0:0:0:
485,181,80374,1,0,0:0:0:0:
394,81,80588,6,0,L|399:137,1,40
448,308,80802,1,0,0:0:0:0:
420,302,80909,1,0,0:0:0:0:
392,297,81016,1,0,0:0:0:0:
365,294,81123,1,0,0:0:0:0:
337,292,81230,1,0,0:0:0:0:
67,337,82088,6,0,P|106:336|157:299,1,80
194,244,82410,2,0,L|287:261,1,80
272,258,82731,1,0,0:0:0:0:
82,235,82945,6,0,P|57:179|83:112,1,120
208,154,83374,6,0,L|145:166,1,60.0000022888184
145,61,83588,1,0,0:0:0:0:
145,61,83695,1,0,0:0:0:0:
145,61,83802,1,0,0:0:0:0:
281,206,84017,5,0,0:0:0:0:
306,215,84124,2,0,L|390:198,1,80
501,174,84445,1,0,0:0:0:0:
421,98,84660,6,0,L|406:227,1,120
479,324,85088,6,0,L|422:303,1,60.0000022888184
317,344,85302,1,0,0:0:0:0:
295,349,85410,1,0,0:0:0:0:
272,356,85517,6,0,L|264:270,1,80
261,237,85838,1,0,0:0:0:0:
261,237,85945,1,0,0:0:0:0:
158,338,86160,1,0,0:0:0:0:
40,264,86374,6,0,P|82:260|133:238,1,80
144,226,86695,1,0,0:0:0:0:
162,195,86802,2,0,L|156:148,1,40
82,113,87017,2,0,L|76:66,1,40
171,63,87231,5,0,0:0:0:0:
191,54,87338,1,0,0:0:0:0:
217,50,87445,2,0,P|234:69|249:96,1,40
306,184,87660,2,0,P|322:130|341:97,1,80
428,129,88088,5,0,0:0:0:0:
