osu file format v14

[General]
AudioFilename: audio.mp3
AudioLeadIn: 0
PreviewTime: 133784
Countdown: 1
SampleSet: Soft
StackLeniency: 0.7
Mode: 0
LetterboxInBreaks: 0
WidescreenStoryboard: 0

[Editor]
DistanceSpacing: 1.1
BeatDivisor: 4
GridSize: 8
TimelineZoom: 1

[Metadata]
Title:HEAVEN (cv:Rin)
TitleUnicode:歌ってみた
Artist:HarryP
ArtistUnicode:HarryP
Creator:Mokuteki
Version:xp
Source:
Tags:AmeSubs ty-oi Haruka rin seasonaltreats mokuteki
BeatmapID:887218
BeatmapSetID:408601

[Difficulty]
HPDrainRate:6
CircleSize:3.5
OverallDifficulty:7
ApproachRate:8.4
SliderMultiplier:2
SliderTickRate:1

[Events]
//Background and Video events
0,0,"sayonara.jpg",0,0
Video,0,"【Rin】 HEAVEN 歌ってみた.mp4"
//Break Periods
2,137230,316327
//Storyboard Layer 0 (Background)
//Storyboard Layer 1 (Fail)
//Storyboard Layer 2 (Pass)
//Storyboard Layer 3 (Foreground)
//Storyboard Sound Samples

[TimingPoints]
43281,468.75,4,3,1,10,1,0
43281,-133.333333333333,4,3,1,10,0,0
54765,-66.6666666666667,4,3,1,16,0,0
75390,-100,4,3,1,16,0,0
95077,-66.6666666666667,4,2,1,16,0,0
107031,-57.1428571428571,4,3,1,16,0,0
126249,-100,4,3,1,16,0,0

[HitObjects]
120,72,43281,5,0,0:0:0:0:
160,80,43515,1,0,0:0:0:0:
200,88,43749,1,0,0:0:0:0:
232,104,43984,2,0,P|248:144|248:184,1,75.0000028610231
300,239,44452,2,4,L|340:159,1,75.0000028610231
206,242,44921,1,0,0:0:0:0:
432,162,45156,6,0,L|389:224,1,75.0000028610231
432,80,45624,1,0,0:0:0:0:
416,64,45859,2,0,L|352:152,1,75.0000028610231
328,184,46327,1,0,0:0:0:0:
272,232,46562,1,0,0:0:0:0:
200,256,46796,1,0,0:0:0:0:
192,80,47031,5,0,0:0:0:0:
288,160,47265,1,0,0:0:0:0:
368,64,47499,1,0,0:0:0:0:
432,168,47734,2,0,B|288:248,1,150.000005722046
157,241,48437,2,0,L|225:271,1,75.0000028610231
315,151,48906,6,0,L|275:87,1,75.0000028610231
423,178,49374,1,0,0:0:0:0:
420,83,49609,1,0,0:0:0:0:
328,136,49843,1,0,0:0:0:0:
392,192,50077,1,0,0:0:0:0:
376,232,50195,1,0,0:0:0:0:
336,248,50312,1,0,0:0:0:0:
256,176,50546,1,0,0:0:0:0:
152,120,50781,5,0,0:0:0:0:
112,192,51015,1,0,0:0:0:0:
136,272,51249,1,0,0:0:0:0:
216,256,51484,2,0,L|168:336,1,75.0000028610231
325,268,51952,2,0,P|365:260|411:239,1,75.0000028610231
324,173,52421,1,0,0:0:0:0:
216,216,52656,5,0,0:0:0:0:
285,109,52890,2,0,P|327:98|375:122,1,75.0000028610231
296,280,53359,2,0,L|356:222,1,75.0000028610231
328,320,53827,1,0,0:0:0:0:
472,224,54062,1,0,0:0:0:0:
464,304,54296,2,0,L|376:248,1,75.0000028610231
360,104,54765,5,0,0:0:0:0:
272,248,55000,1,0,0:0:0:0:
160,128,55234,1,0,0:0:0:0:
176,256,55468,5,0,0:0:0:0:
336,144,55702,1,0,0:0:0:0:
256,264,55937,2,0,L|128:184,1,150.000005722046
360,192,56406,5,0,0:0:0:0:
72,40,56874,1,0,0:0:0:0:
129,202,57109,1,0,0:0:0:0:
248,88,57343,2,0,L|332:211,1,150.000005722046
332,211,57812,1,0,0:0:0:0:
192,120,58046,1,0,0:0:0:0:
368,120,58281,6,0,P|392:176|360:264,1,150.000005722046
464,144,58749,1,0,0:0:0:0:
432,336,58984,1,0,0:0:0:0:
440,240,59218,2,0,P|376:248|320:312,1,150.000005722046
232,264,59687,1,0,0:0:0:0:
248,96,59921,2,0,P|256:160|312:224,1,150.000005722046
136,80,60624,5,0,0:0:0:0:
152,208,60859,1,0,0:0:0:0:
120,56,61093,2,0,P|72:112|96:192,1,150.000005722046
304,64,61562,1,0,0:0:0:0:
200,200,61796,1,0,0:0:0:0:
144,64,62031,6,0,B|184:88|184:88|208:192,1,150.000005722046
248,320,62499,2,0,B|304:296|304:296|352:200,1,150.000005722046
296,112,62968,2,0,P|256:136|240:168,1,75.0000028610231,0|0,3:0|2:0,2:0:0:0:
216,192,63202,1,0,2:0:0:0:
208,232,63320,1,0,2:0:0:0:
216,272,63437,1,0,2:0:0:0:
248,296,63554,1,0,2:0:0:0:
280,312,63671,1,0,2:0:0:0:
360,232,63906,6,0,P|448:192|496:216,1,150.000005722046
432,280,64374,1,0,0:0:0:0:
360,264,64609,1,0,0:0:0:0:
360,136,64843,2,0,B|400:112|456:128|480:192|448:224,1,150.000005722046
328,224,65312,1,0,0:0:0:0:
240,160,65546,1,0,0:0:0:0:
248,272,65781,6,0,B|216:304|144:296|128:224,1,150.000005722046
296,112,66249,1,0,0:0:0:0:
240,208,66484,1,0,0:0:0:0:
128,160,66718,2,0,P|105:195|184:216,1,150.000005722046
296,96,67187,1,0,0:0:0:0:
352,104,67421,2,0,P|375:139|296:176,1,150.000005722046
240,168,68124,5,0,0:0:0:0:
88,168,68358,1,0,0:0:0:0:
224,312,68593,1,0,0:0:0:0:
368,96,68827,1,0,0:0:0:0:
248,232,69062,1,0,0:0:0:0:
424,304,69296,1,0,0:0:0:0:
248,296,69531,6,0,B|264:328|328:376|400:320,1,157.500006008148
408,312,69999,1,0,0:0:0:0:
176,104,70234,1,0,0:0:0:0:
336,200,70468,2,0,B|392:240|384:312|312:320,1,157.500006008148
288,328,70937,1,0,0:0:0:0:
440,168,71171,1,0,0:0:0:0:
104,312,71406,5,0,0:0:0:0:
240,80,71874,1,0,0:0:0:0:
320,192,72109,1,0,0:0:0:0:
168,216,72343,1,0,0:0:0:0:
80,88,72812,1,0,0:0:0:0:
296,296,73281,5,0,0:0:0:0:
232,160,73515,1,0,0:0:0:0:
392,152,73749,1,0,0:0:0:0:
80,192,74218,1,0,0:0:0:0:
272,296,74687,1,0,0:0:0:0:
400,80,74921,1,0,0:0:0:0:
216,88,75156,5,0,0:0:0:0:
208,192,75390,2,0,L|288:272,2,100
352,152,76093,2,0,L|472:120,1,100
288,232,76562,1,0,0:0:0:0:
328,192,76679,1,0,0:0:0:0:
360,152,76796,1,0,0:0:0:0:
408,280,77031,6,0,L|480:360,1,100
384,280,77499,1,0,0:0:0:0:
496,280,77734,1,0,0:0:0:0:
192,120,77968,2,0,L|296:64,1,100
200,232,78437,1,0,0:0:0:0:
400,144,78671,1,0,0:0:0:0:
200,56,78906,2,0,L|128:128,1,100
456,168,79374,5,0,0:0:0:0:
312,152,79609,1,0,0:0:0:0:
400,264,79843,2,0,L|312:312,1,100
200,208,80312,2,0,L|128:104,1,100
384,120,80781,5,0,0:0:0:0:
248,280,81249,1,0,0:0:0:0:
320,216,81484,1,0,0:0:0:0:
216,168,81718,2,0,L|336:232,1,100
416,296,82187,1,0,0:0:0:0:
352,176,82421,1,0,0:0:0:0:
440,136,82656,5,0,0:0:0:0:
400,224,82890,1,0,0:0:0:0:
312,176,83124,1,0,0:0:0:0:
384,288,83359,1,0,0:0:0:0:
360,64,83593,2,0,B|402:57|402:57|360:112,1,100
224,112,84062,5,0,0:0:0:0:
200,128,84179,1,0,0:0:0:0:
176,144,84296,2,0,B|160:184|160:184|224:184,1,100
336,80,84999,5,0,0:0:0:0:
392,192,85234,1,0,0:0:0:0:
168,184,85468,2,0,L|263:240,1,100
176,344,85937,1,0,0:0:0:0:
119,233,86171,1,0,0:0:0:0:
472,320,86406,5,0,0:0:0:0:
328,128,86640,1,0,0:0:0:0:
232,288,86874,1,0,0:0:0:0:
432,200,87109,1,0,0:0:0:0:
320,200,87343,2,0,P|349:244|400:272,1,100
176,200,87812,1,0,0:0:0:0:
144,160,87929,1,0,0:0:0:0:
144,104,88046,1,0,0:0:0:0:
312,168,88281,5,0,0:0:0:0:
64,48,88749,1,0,0:0:0:0:
176,120,88984,1,0,0:0:0:0:
144,256,89218,2,0,P|208:256|232:224,1,100
344,152,89687,1,0,0:0:0:0:
424,264,89921,1,0,0:0:0:0:
288,248,90156,6,0,P|232:200|224:168,1,100
312,168,90624,1,0,0:0:0:0:
96,136,90859,1,0,0:0:0:0:
168,280,91093,1,0,0:0:0:0:
344,72,91327,1,0,0:0:0:0:
448,168,91562,1,0,0:0:0:0:
200,64,91796,1,0,0:0:0:0:
311,167,92031,5,0,0:0:0:0:
144,112,92265,2,0,L|184:208,1,100
384,64,92734,1,0,0:0:0:0:
370,248,92968,2,0,L|311:167,1,100
182,204,93437,1,0,0:0:0:0:
448,272,93671,6,0,B|424:304|392:344|392:344|365:327|344:320|315:334|296:376|296:376|232:352|258:323|248:309,1,300
220,267,94609,1,0,0:0:0:0:
181,228,94726,1,0,0:0:0:0:
174,173,94843,1,0,0:0:0:0:
256,64,95077,1,0,0:0:0:0:
376,136,95312,1,0,0:0:0:0:
272,224,95546,1,0,0:0:0:0:
179,162,95781,6,0,B|151:78|-4:61|-25:211|39:256,1,300.000011444092
94,193,96484,1,0,0:0:0:0:
260,283,96718,1,0,0:0:0:0:
204,283,96835,1,0,0:0:0:0:
156,307,96952,1,0,0:0:0:0:
344,256,97187,1,0,0:0:0:0:
32,32,97421,6,0,P|56:120|120:72,1,150.000005722046
40,224,97890,1,0,0:0:0:0:
176,160,98124,1,0,0:0:0:0:
176,160,98241,1,0,0:0:0:0:
176,160,98359,1,0,0:0:0:0:
162,291,98593,2,0,P|242:331|312:336,1,150.000005722046
356,112,99062,1,0,0:0:0:0:
444,48,99296,1,0,0:0:0:0:
272,160,99531,6,0,P|248:216|302:287,1,150.000005722046
352,304,99999,1,0,0:0:0:0:
399,288,100116,1,0,0:0:0:0:
436,253,100234,1,0,0:0:0:0:
440,96,100468,1,0,0:0:0:0:
344,48,100702,1,0,0:0:0:0:
264,227,100937,1,0,0:0:0:0:
168,52,101171,1,0,0:0:0:0:
193,187,101406,1,0,0:0:0:0:
76,304,101640,1,0,0:0:0:0:
115,325,101757,1,0,0:0:0:0:
159,333,101874,1,0,0:0:0:0:
203,328,101991,1,0,0:0:0:0:
244,309,102108,1,0,0:0:0:0:
277,278,102225,1,0,0:0:0:0:
298,239,102343,1,0,0:0:0:0:
381,64,102577,1,0,0:0:0:0:
456,228,102812,1,0,0:0:0:0:
265,145,103046,1,0,0:0:0:0:
184,88,103281,6,0,P|168:144|224:216,1,150.000005722046
328,240,103749,1,0,0:0:0:0:
464,48,103984,1,0,0:0:0:0:
408,208,104218,2,0,L|344:72,1,150.000005722046
240,104,104687,1,0,0:0:0:0:
88,200,104921,1,0,0:0:0:0:
136,240,105038,1,0,0:0:0:0:
192,248,105156,1,0,0:0:0:0:
248,232,105273,1,0,0:0:0:0:
280,184,105390,1,0,0:0:0:0:
288,168,105624,6,0,B|336:128|312:88|256:48,1,150.000005722046
400,80,106093,2,0,B|368:136|400:176|464:184,1,150.000005722046
344,152,106445,1,0,0:0:0:0:
344,152,106562,1,0,0:0:0:0:
344,152,106679,1,0,0:0:0:0:
328,272,106796,2,0,L|200:192,1,150.000005722046
72,136,107265,5,0,0:0:0:0:
224,40,107499,1,0,0:0:0:0:
160,288,107734,2,0,P|128:232|32:288,1,175.00000166893
184,128,108202,1,0,0:0:0:0:
312,40,108437,1,0,0:0:0:0:
320,200,108671,1,0,0:0:0:0:
160,264,108906,5,0,0:0:0:0:
256,136,109140,1,0,0:0:0:0:
352,264,109374,1,0,0:0:0:0:
208,200,109609,1,0,0:0:0:0:
360,187,109843,2,0,P|368:259|278:286,1,175.00000166893
184,200,110312,2,0,P|104:272|192:282,1,175.00000166893
432,96,111249,6,0,L|322:243,1,175.00000166893
200,192,111718,1,0,0:0:0:0:
344,120,111952,1,0,0:0:0:0:
272,264,112187,1,0,0:0:0:0:
448,312,112421,1,0,0:0:0:0:
144,72,112656,5,0,0:0:0:0:
256,184,112890,1,0,0:0:0:0:
224,280,113124,1,0,0:0:0:0:
384,176,113359,1,0,0:0:0:0:
376,304,113593,1,0,0:0:0:0:
232,160,113827,1,0,0:0:0:0:
136,288,114062,1,0,0:0:0:0:
312,281,114296,2,0,P|279:241|212:309,1,175.00000166893
112,160,114765,5,0,0:0:0:0:
240,64,114999,1,0,0:0:0:0:
80,40,115234,1,0,0:0:0:0:
200,144,115468,1,0,0:0:0:0:
72,232,115702,1,0,0:0:0:0:
200,144,115937,1,0,0:0:0:0:
288,176,116171,1,0,0:0:0:0:
328,200,116288,1,0,0:0:0:0:
360,240,116406,1,0,0:0:0:0:
120,296,116640,5,0,0:0:0:0:
264,120,116874,1,0,0:0:0:0:
264,120,116991,1,0,0:0:0:0:
264,120,117109,1,0,0:0:0:0:
104,192,117343,1,0,0:0:0:0:
200,64,117577,1,0,0:0:0:0:
192,224,117812,1,0,0:0:0:0:
384,304,118046,1,0,0:0:0:0:
384,304,118281,6,0,L|264:248,1,122.500001168251
336,232,118749,1,0,0:0:0:0:
280,80,118984,1,0,0:0:0:0:
152,176,119218,2,0,P|112:224|80:160,1,122.500001168251
192,304,119687,1,0,0:0:0:0:
64,208,119921,1,0,0:0:0:0:
136,104,120156,6,0,P|176:56|208:120,1,122.500001168251
232,200,120741,1,0,0:0:0:0:
264,216,120859,1,0,0:0:0:0:
296,216,120976,1,0,0:0:0:0:
328,200,121093,2,0,P|392:184|320:328,1,367.500003504753
264,192,122031,6,0,P|280:163|368:128,1,122.500001168251
200,136,122499,1,0,0:0:0:0:
312,208,122734,1,0,0:0:0:0:
184,248,122968,1,0,0:0:0:0:
296,288,123202,2,0,L|192:208,1,122.500001168251
96,128,123671,1,0,0:0:0:0:
200,40,123906,6,0,P|272:56|320:80,1,122.500001168251
315,77,124374,1,0,0:0:0:0:
315,77,124609,1,0,0:0:0:0:
272,208,124843,1,0,0:0:0:0:
272,208,125077,2,0,B|208:208|128:240|128:240|184:328|352:288,1,367.500003504753
80,264,126249,6,0,P|104:224|136:208,1,70
240,280,126718,1,0,0:0:0:0:
256,152,126952,2,0,P|328:152|352:160,1,70
440,232,127421,1,0,0:0:0:0:
432,96,127656,5,0,0:0:0:0:
368,208,127890,1,0,0:0:0:0:
304,96,128124,1,0,0:0:0:0:
184,168,128359,1,0,0:0:0:0:
64,96,128593,2,0,L|136:152,1,70
128,264,129062,2,0,B|174:254|208:264|208:264|228:237|272:224,1,140
192,88,129882,2,0,L|224:144,1,35
352,192,130234,5,0,0:0:0:0:
280,24,130468,1,0,0:0:0:0:
208,168,130702,1,0,0:0:0:0:
176,168,130820,1,0,0:0:0:0:
152,192,130937,1,0,0:0:0:0:
136,224,131054,1,0,0:0:0:0:
136,256,131171,1,0,0:0:0:0:
152,288,131288,1,0,0:0:0:0:
256,192,131406,12,0,133046,0:0:0:0:
224,192,133281,5,0,0:0:0:0:
280,120,133515,1,0,0:0:0:0:
336,192,133749,1,0,0:0:0:0:
288,272,133984,1,0,0:0:0:0:
208,224,134218,1,0,0:0:0:0:
256,112,134452,1,0,0:0:0:0:
128,64,134687,1,0,0:0:0:0:
80,176,134921,1,0,0:0:0:0:
208,224,135156,5,0,0:0:0:0:
152,120,135390,1,0,0:0:0:0:
104,232,135624,1,0,0:0:0:0:
216,280,135859,1,0,0:0:0:0:
264,176,136093,1,0,0:0:0:0:
144,168,136327,1,0,0:0:0:0:
240,96,136562,1,0,0:0:0:0:
240,216,136796,2,0,L|304:280,1,70
238,222,317031,5,0,0:0:0:0:
238,161,317265,1,0,0:0:0:0:
291,192,317499,1,0,0:0:0:0:
220,253,317734,1,0,0:0:0:0:
220,130,317968,1,0,0:0:0:0:
326,192,318202,1,0,0:0:0:0:
194,299,318437,1,0,0:0:0:0:
194,84,318671,1,0,0:0:0:0:
379,192,318906,5,0,0:0:0:0:
168,204,319140,1,0,0:0:0:0:
289,110,319374,1,0,0:0:0:0:
310,261,319609,1,0,0:0:0:0:
208,128,319843,1,0,0:0:0:0:
392,120,320077,1,0,0:0:0:0:
304,168,320312,1,0,0:0:0:0:
472,232,320546,1,0,0:0:0:0:
344,328,320781,5,0,0:0:0:0:
