osu file format v14

[General]
AudioFilename: audio.mp3
AudioLeadIn: 0
PreviewTime: -1
Countdown: 1
SampleSet: None
StackLeniency: 0.7
Mode: 0
LetterboxInBreaks: 0
WidescreenStoryboard: 0

[Editor]
DistanceSpacing: 1.8
BeatDivisor: 8
GridSize: 32
TimelineZoom: 1

[Metadata]
Title:Sign of the Times
TitleUnicode:Sign of the Times
Artist:Harry Styles
ArtistUnicode:Harry Styles
Creator:Asfand
Version:Marathon
Source:
Tags:
BeatmapID:1355434
BeatmapSetID:639046

[Difficulty]
HPDrainRate:7
CircleSize:4.7
OverallDifficulty:8.6
ApproachRate:8.4
SliderMultiplier:2.2
SliderTickRate:1

[Events]
//Background and Video events
0,0,"bg.jpg",0,0
//Break Periods
2,81761,252371
2,273761,280371
2,305760,308371
//Storyboard Layer 0 (Background)
//Storyboard Layer 1 (Fail)
//Storyboard Layer 2 (Pass)
//Storyboard Layer 3 (Foreground)
//Storyboard Sound Samples

[TimingPoints]
1061,1000,4,2,1,70,1,0
241061,1000,4,2,1,70,1,0
293061,-58.8235294117647,4,2,1,70,0,0

[HitObjects]
70,231,1061,5,0,0:0:0:0:
148,307,2061,1,0,0:0:0:0:
248,261,3061,1,0,0:0:0:0:
352,295,4061,1,0,0:0:0:0:
172,339,5061,5,0,0:0:0:0:
248,261,6061,1,0,0:0:0:0:
202,161,7061,1,0,0:0:0:0:
236,57,8061,1,0,0:0:0:0:
93,120,9061,5,0,0:0:0:0:
202,161,10061,1,0,0:0:0:0:
295,103,11061,1,0,0:0:0:0:
351,197,12061,1,0,0:0:0:0:
232,339,13061,5,0,0:0:0:0:
156,261,14061,1,0,0:0:0:0:
202,161,15061,1,0,0:0:0:0:
168,57,16061,1,0,0:0:0:0:
31,148,17061,6,0,P|96:156|145:161,1,110
214,84,18061,2,0,P|242:121|239:199,1,110
288,256,18811,1,0,0:0:0:0:
348,322,19061,2,0,P|373:258|346:183,1,110
295,112,20061,5,0,0:0:0:0:
225,185,20311,1,0,0:0:0:0:
130,156,20561,1,0,0:0:0:0:
67,233,20811,1,0,0:0:0:0:
138,301,21061,6,0,B|155:264|155:264|146:182|146:182|176:83,1,220
174,89,22561,1,0,0:0:0:0:
233,159,23061,2,0,P|296:162|361:160,1,110
429,110,24061,5,0,0:0:0:0:
397,203,24311,1,0,0:0:0:0:
428,315,24561,1,0,0:0:0:0:
348,373,24811,1,0,0:0:0:0:
260,326,25061,6,0,P|224:325|150:329,1,110
40,326,26061,2,0,P|76:325|150:329,1,110
237,353,27061,1,0,0:0:0:0:
237,353,28061,5,0,0:0:0:0:
176,274,28311,1,0,0:0:0:0:
78,288,28561,1,0,0:0:0:0:
18,209,28811,1,0,0:0:0:0:
71,125,29061,6,0,B|105:112|105:112|144:122|189:116,1,110
188,23,30061,2,0,P|268:128|215:211,1,220
140,201,32061,2,0,L|26:229,1,110
232,370,33061,6,0,P|242:323|237:259,1,110
160,320,34061,1,0,0:0:0:0:
237,261,34311,1,0,0:0:0:0:
323,309,34561,1,0,0:0:0:0:
414,270,34811,1,0,0:0:0:0:
455,180,35061,2,0,P|432:127|378:92,1,110
321,174,36061,5,0,0:0:0:0:
244,236,36311,1,0,0:0:0:0:
172,167,36561,1,0,0:0:0:0:
73,170,36811,1,0,0:0:0:0:
0,89,37061,6,0,B|40:93|40:93|87:83|87:83|126:86,1,110
266,139,38061,2,0,P|204:156|145:174,1,110
42,234,39061,2,0,P|94:249|147:264,1,110
228,346,40061,5,0,0:0:0:0:
305,269,40311,1,0,0:0:0:0:
389,321,40561,1,0,0:0:0:0:
454,246,40811,1,0,0:0:0:0:
366,214,41061,6,0,P|300:192|225:219,1,110
205,298,42061,2,0,P|150:303|100:282,1,110
196,205,43061,2,0,L|70:242,1,110
67,227,44061,5,0,0:0:0:0:
123,305,44311,1,0,0:0:0:0:
249,297,44561,1,0,0:0:0:0:
238,193,44811,1,0,0:0:0:0:
336,252,45061,6,0,L|485:269,1,110
336,252,46061,5,0,0:0:0:0:
270,163,47061,5,0,0:0:0:0:
214,271,48061,5,0,0:0:0:0:
81,72,49061,6,0,L|173:65,1,55
171,149,49561,1,0,0:0:0:0:
171,149,49811,1,0,0:0:0:0:
149,66,50061,6,0,L|231:70,1,55
171,149,50561,1,0,0:0:0:0:
171,149,50811,1,0,0:0:0:0:
171,149,51061,1,0,0:0:0:0:
171,149,51311,1,0,0:0:0:0:
117,91,51561,6,0,L|263:94,1,110
276,147,52561,1,0,0:0:0:0:
307,145,52811,1,0,0:0:0:0:
246,87,53061,6,0,L|332:88,1,55
171,149,53561,1,0,0:0:0:0:
171,149,53811,1,0,0:0:0:0:
240,132,54061,6,0,L|308:133,1,55
338,166,54561,1,0,0:0:0:0:
347,179,54811,1,0,0:0:0:0:
211,245,55061,1,0,0:0:0:0:
243,248,55311,1,0,0:0:0:0:
214,235,55561,6,0,L|368:240,1,110
222,179,56561,1,0,0:0:0:0:
222,179,56811,1,0,0:0:0:0:
170,109,57061,6,0,L|325:118,1,110
401,186,58061,2,0,L|276:186,1,110
103,177,59061,2,0,L|227:174,1,110
381,122,60061,2,0,L|252:120,1,110
38,196,60811,1,0,0:0:0:0:
102,270,61061,6,0,L|236:263,1,110
331,201,62061,2,0,L|215:198,1,110
81,134,63061,2,0,L|203:134,1,110
395,101,64061,2,0,L|269:101,1,110
81,72,65061,6,0,L|173:65,1,55
171,149,65561,1,0,0:0:0:0:
171,149,65811,1,0,0:0:0:0:
149,66,66061,6,0,L|231:70,1,55
171,149,66561,1,0,0:0:0:0:
171,149,66811,1,0,0:0:0:0:
171,149,67061,1,0,0:0:0:0:
171,149,67311,1,0,0:0:0:0:
117,91,67561,6,0,L|263:94,1,110
276,147,68561,1,0,0:0:0:0:
307,145,68811,1,0,0:0:0:0:
246,87,69061,6,0,L|332:88,1,55
171,149,69561,1,0,0:0:0:0:
171,149,69811,1,0,0:0:0:0:
240,132,70061,6,0,L|308:133,1,55
338,166,70561,1,0,0:0:0:0:
347,179,70811,1,0,0:0:0:0:
211,245,71061,1,0,0:0:0:0:
243,248,71311,1,0,0:0:0:0:
214,235,71561,6,0,L|368:240,1,110
222,179,72561,1,0,0:0:0:0:
222,179,72811,1,0,0:0:0:0:
170,109,73061,6,0,L|325:118,1,110
401,186,74061,2,0,L|276:186,1,110
103,177,75061,2,0,L|227:174,1,110
381,122,76061,2,0,L|252:120,1,110
38,196,76811,1,0,0:0:0:0:
102,270,77061,6,0,L|236:263,1,110
331,201,78061,2,0,L|215:198,1,110
171,128,79061,5,0,0:0:0:0:
233,103,79227,1,0,0:0:0:0:
311,168,79394,1,0,0:0:0:0:
354,181,79561,1,0,0:0:0:0:
397,168,79811,1,0,0:0:0:0:
229,93,80061,1,0,0:0:0:0:
232,153,80311,1,0,0:0:0:0:
232,153,80561,1,0,0:0:0:0:
232,153,80811,1,0,0:0:0:0:
100,98,81061,6,0,L|245:88,1,110
272,305,253061,5,0,0:0:0:0:
211,291,253311,1,0,0:0:0:0:
211,291,253561,1,0,0:0:0:0:
211,291,253811,1,0,0:0:0:0:
211,291,254061,1,0,0:0:0:0:
256,305,254311,1,0,0:0:0:0:
276,298,254561,1,0,0:0:0:0:
312,254,254811,1,0,0:0:0:0:
143,172,255061,6,0,L|196:178,1,27.5
250,231,255311,2,0,L|275:196,1,27.5
381,94,255561,1,0,0:0:0:0:
381,94,255686,1,0,0:0:0:0:
381,94,255811,1,0,0:0:0:0:
381,94,255936,1,0,0:0:0:0:
381,94,256061,1,0,0:0:0:0:
381,94,256186,1,0,0:0:0:0:
381,94,256311,1,0,0:0:0:0:
381,94,256436,1,0,0:0:0:0:
381,94,256561,1,0,0:0:0:0:
381,94,256686,1,0,0:0:0:0:
381,94,256811,1,0,0:0:0:0:
381,94,256936,1,0,0:0:0:0:
389,95,257061,6,0,L|316:101,1,55
293,217,257561,2,0,P|252:223|231:187,1,82.5
202,82,258061,2,0,L|175:131,1,55
66,184,258561,2,0,L|131:184,1,55
241,242,259061,5,0,0:0:0:0:
250,242,259186,1,0,0:0:0:0:
251,242,259311,1,0,0:0:0:0:
251,241,259436,1,0,0:0:0:0:
251,241,259561,1,0,0:0:0:0:
252,241,259686,1,0,0:0:0:0:
252,241,259811,1,0,0:0:0:0:
252,241,259936,1,0,0:0:0:0:
249,243,260061,2,0,L|321:236,1,55
425,161,260561,2,0,L|351:158,1,55
40,197,261061,6,0,L|119:188,1,55
320,75,261561,2,0,P|286:93|240:107,1,82.5
190,105,262061,2,0,L|195:178,1,55
91,228,262561,2,0,L|171:231,1,55
155,160,263061,5,0,0:0:0:0:
155,160,263311,1,0,0:0:0:0:
239,192,263561,2,0,L|305:178,1,55
396,120,264061,2,0,L|392:191,1,55
261,175,264561,1,0,0:0:0:0:
261,175,264811,1,0,0:0:0:0:
170,76,265061,6,0,L|240:87,1,55
115,196,265561,2,0,L|210:202,1,82.5
206,174,266061,2,0,L|280:178,1,55
91,228,266561,2,0,L|167:227,1,55
238,210,267061,5,0,0:0:0:0:
238,210,267311,1,0,0:0:0:0:
181,97,267561,2,0,L|275:93,1,82.5
154,183,268061,2,0,L|229:178,1,55
85,207,268561,2,0,L|163:206,1,55
211,203,269061,5,0,0:0:0:0:
194,196,269311,2,0,L|270:197,1,55
368,202,269811,5,0,0:0:0:0:
377,193,270061,2,0,L|308:198,1,55
211,203,270561,5,0,0:0:0:0:
194,196,270811,2,0,L|270:197,1,55
368,202,271311,5,0,0:0:0:0:
241,210,271561,1,0,0:0:0:0:
241,210,271811,1,0,0:0:0:0:
187,160,272061,1,0,0:0:0:0:
186,167,272311,1,0,0:0:0:0:
186,173,272561,1,0,0:0:0:0:
186,174,272811,1,0,0:0:0:0:
129,115,273061,6,0,L|245:116,1,110
89,229,281061,6,0,L|221:223,1,110
268,150,282061,2,0,L|388:152,1,110
141,239,282811,1,0,0:0:0:0:
233,237,283061,2,0,L|367:237,1,110
336,162,283811,1,0,0:0:0:0:
175,117,284061,2,0,L|252:119,1,55
311,78,284561,2,0,L|231:73,1,55
209,266,285061,5,0,0:0:0:0:
209,266,285311,1,0,0:0:0:0:
209,266,285561,1,0,0:0:0:0:
209,266,285811,1,0,0:0:0:0:
209,266,286061,1,0,0:0:0:0:
209,266,286311,1,0,0:0:0:0:
209,266,286561,1,0,0:0:0:0:
209,266,286811,1,0,0:0:0:0:
209,266,287061,1,0,0:0:0:0:
209,266,287311,1,0,0:0:0:0:
209,266,287561,1,0,0:0:0:0:
209,266,287811,1,0,0:0:0:0:
126,158,288061,2,0,L|204:158,1,55
209,266,288561,1,0,0:0:0:0:
209,266,288811,1,0,0:0:0:0:
411,61,289061,6,0,L|382:311,1,220
345,288,290561,1,0,0:0:0:0:
275,202,290811,1,0,0:0:0:0:
451,273,291061,2,0,L|297:275,1,110
183,226,291811,1,0,0:0:0:0:
183,226,292061,1,0,0:0:0:0:
186,230,292311,1,0,0:0:0:0:
186,230,292561,1,0,0:0:0:0:
186,230,292811,1,0,0:0:0:0:
18,261,293061,6,0,B|123:220|406:298|406:298,1,374.000007133484
416,199,294561,1,0,0:0:0:0:
369,202,294811,1,0,0:0:0:0:
348,162,295061,2,0,L|233:174,1,93.500001783371
100,133,295561,2,0,L|214:132,1,93.500001783371
311,81,296061,1,0,0:0:0:0:
301,83,296311,1,0,0:0:0:0:
180,157,296561,2,0,L|285:154,1,93.500001783371
76,190,297061,2,0,L|286:186,1,187.000003566742
318,182,297811,1,0,0:0:0:0:
149,199,298061,5,0,0:0:0:0:
99,289,298311,1,0,0:0:0:0:
186,306,298561,1,0,0:0:0:0:
236,262,298811,5,0,0:0:0:0:
258,237,299061,2,0,L|301:115,1,93.500001783371
231,68,299561,2,0,L|210:194,1,93.500001783371
118,225,300061,1,0,0:0:0:0:
118,225,300311,1,0,0:0:0:0:
117,239,300561,2,0,L|237:252,1,93.500001783371
403,198,301061,2,0,L|280:178,1,93.500001783371
243,162,301561,1,0,0:0:0:0:
112,134,301811,2,0,L|245:125,1,93.500001783371
233,165,302311,1,0,0:0:0:0:
218,192,302561,2,0,L|327:217,1,93.500001783371
368,212,303061,5,0,0:0:0:0:
192,222,303311,1,0,0:0:0:0:
199,215,303436,1,0,0:0:0:0:
199,216,303561,1,0,0:0:0:0:
208,210,303686,1,0,0:0:0:0:
224,185,303811,1,0,0:0:0:0:
234,178,303936,1,0,0:0:0:0:
241,174,304061,1,0,0:0:0:0:
251,169,304186,1,0,0:0:0:0:
256,168,304311,1,0,0:0:0:0:
260,167,304436,1,0,0:0:0:0:
286,164,304561,1,0,0:0:0:0:
286,164,304686,1,0,0:0:0:0:
295,162,304811,1,0,0:0:0:0:
297,160,304936,1,0,0:0:0:0:
311,160,305061,6,0,L|446:302,1,187.000003566742
51,255,309061,6,0,L|266:280,1,187.000003566742
178,226,313061,2,0,L|307:220,1,93.500001783371
436,164,313561,2,0,L|328:173,1,93.500001783371
99,168,314061,2,0,L|206:171,1,93.500001783371
178,226,314561,2,0,L|307:220,1,93.500001783371
436,164,315061,2,0,L|328:173,1,93.500001783371
99,168,315561,2,0,L|206:171,1,93.500001783371
178,226,316061,2,0,L|307:220,1,93.500001783371
436,164,316561,2,0,L|328:173,1,93.500001783371
100,167,317061,2,0,L|313:192,1,187.000003566742
431,145,317811,6,0,L|329:142,1,93.500001783371
86,139,318561,2,0,L|228:138,1,93.500001783371
193,57,319061,2,0,L|300:62,1,93.500001783371
282,142,319561,2,0,L|393:144,1,93.500001783371
318,199,320061,1,0,0:0:0:0:
330,212,320311,1,0,0:0:0:0:
307,233,320561,1,0,0:0:0:0:
124,217,321061,2,0,B|296:120|293:122|421:262|422:263|58:131|58:131|413:34|412:34|380:291|382:291|238:35,1,1215.50002318382
