osu file format v14

[General]
AudioFilename: audio.mp3
AudioLeadIn: 0
PreviewTime: 57540
Countdown: 0
SampleSet: Normal
StackLeniency: 0.7
Mode: 1
LetterboxInBreaks: 0
WidescreenStoryboard: 0

[Editor]
Bookmarks: 72195
DistanceSpacing: 1.1
BeatDivisor: 4
GridSize: 32
TimelineZoom: 1.6

[Metadata]
Title:As It Was
TitleUnicode:As It Was
Artist:Harry Styles
ArtistUnicode:Harry Styles
Creator:HEAVENLY MOON
Version:Oni
Source:
Tags:harry's house harrys indie synth pop rock english ginjani
BeatmapID:4040976
BeatmapSetID:1951512

[Difficulty]
HPDrainRate:5
CircleSize:5
OverallDifficulty:5.5
ApproachRate:5
SliderMultiplier:1.4
SliderTickRate:1

[Events]
//Background and Video events
0,0,"The Harry Housee.jpg",0,45
//Break Periods
//Storyboard Layer 0 (Background)
//Storyboard Layer 1 (Fail)
//Storyboard Layer 2 (Pass)
//Storyboard Layer 3 (Foreground)
//Storyboard Layer 4 (Overlay)
//Storyboard Sound Samples

[TimingPoints]
471,344.827586206897,4,1,0,60,1,0
471,-133.333333333333,4,1,0,60,0,0
3229,344.827586206897,4,1,0,60,1,0
3229,-133.333333333333,4,1,0,60,0,0
5977,-100,4,1,0,90,0,0
12701,-101.010101010101,4,1,0,90,0,0
12787,-102.040816326531,4,1,0,90,0,0
12874,-103.092783505155,4,1,0,90,0,0
13046,-104.166666666667,4,1,0,90,0,0
13132,-105.263157894737,4,1,0,90,0,0
13219,-106.382978723404,4,1,0,90,0,0
13391,-107.52688172043,4,1,0,90,0,0
13563,-108.695652173913,4,1,0,90,0,0
13736,-109.89010989011,4,1,0,90,0,0
13908,-111.111111111111,4,1,0,90,0,0
14253,-125,4,1,0,80,0,0
34943,-111.111111111111,4,1,0,80,0,0
35287,-114.285714285714,4,1,0,80,0,0
35460,-117.647058823529,4,1,0,80,0,0
35805,-121.212121212121,4,1,0,80,0,0
35977,-125,4,1,0,80,0,0
36322,-111.111111111111,4,1,0,80,0,0
56322,-112.359550561798,4,1,0,80,0,0
56408,-113.636363636364,4,1,0,80,0,0
56494,-114.942528735632,4,1,0,80,0,0
56667,-116.279069767442,4,1,0,80,0,0
56839,-117.647058823529,4,1,0,80,0,0
57012,-119.047619047619,4,1,0,80,0,0
57356,-114.942528735632,4,1,0,80,0,0
57529,-111.111111111111,4,1,0,80,0,0
57701,-107.52688172043,4,1,0,80,0,0
57874,-104.166666666667,4,1,0,80,0,0
58046,-101.010101010101,4,1,0,80,0,0
58401,-90.9090909090909,4,1,0,90,0,1
66839,-91.324200913242,4,1,0,90,0,1
67012,-92.9944491613296,4,1,0,90,0,1
67098,-93.8526513374003,4,1,0,90,0,1
67184,-94.7268409451086,4,1,0,90,0,1
67356,-96.5250965250965,4,1,0,90,0,1
67529,-98.3929479806323,4,1,0,90,0,1
67701,-100.334414603875,4,1,0,90,0,1
67787,-101.334268310849,4,1,0,90,0,1
67874,-102.354145342886,4,1,0,90,0,1
68046,-104.456860883308,4,1,0,90,0,1
68391,-108.932461873638,4,1,0,90,0,1
68563,-111.317295479516,4,1,0,90,0,1
68908,-116.414435389988,4,1,0,90,0,1
69081,-119.142223646634,4,1,0,90,0,1
69167,-121.951219512195,4,1,0,90,0,1
69253,-125,4,1,0,90,0,1
69435,-133.333333333333,4,1,0,80,0,0
72184,-125,4,1,0,80,0,0
90115,-111.111111111111,4,1,0,80,0,0
90287,-112.359550561798,4,1,0,80,0,0
90460,-113.636363636364,4,1,0,80,0,0
90632,-114.942528735632,4,1,0,80,0,0
90805,-117.647058823529,4,1,0,80,0,0
90977,-121.212121212121,4,1,0,80,0,0
91150,-125,4,1,0,80,0,0
91494,-111.111111111111,4,1,0,80,0,0
111494,-112.359550561798,4,1,0,80,0,0
111581,-113.636363636364,4,1,0,80,0,0
111667,-114.942528735632,4,1,0,80,0,0
111839,-116.279069767442,4,1,0,80,0,0
112012,-117.647058823529,4,1,0,80,0,0
112184,-119.047619047619,4,1,0,80,0,0
112529,-114.942528735632,4,1,0,80,0,0
112701,-111.111111111111,4,1,0,80,0,0
112874,-107.52688172043,4,1,0,80,0,0
113046,-104.166666666667,4,1,0,80,0,0
113219,-101.010101010101,4,1,0,80,0,0
113573,-90.9090909090909,4,1,0,90,0,1
122011,-91.324200913242,4,1,0,90,0,1
122184,-92.9896930224254,4,1,0,90,0,1
122270,-93.8454290706863,4,1,0,90,0,1
122356,-94.7170611947989,4,1,0,90,0,1
122528,-96.5099120505172,4,1,0,90,0,1
122701,-98.3718475511804,4,1,0,90,0,1
122873,-100.307039848978,4,1,0,90,0,1
122959,-101.303471771281,4,1,0,90,0,1
123046,-102.319899071652,4,1,0,90,0,1
123218,-104.415196587711,4,1,0,90,0,1
123563,-108.874348114841,4,1,0,90,0,1
123735,-111.249802531601,4,1,0,90,0,1
124080,-116.325870640979,4,1,0,90,0,1
124253,-119.041666964271,4,1,0,90,0,1
124339,-120.4478250134,4,1,0,90,0,1
124425,-121.887451564974,4,1,0,90,0,1
124608,-124.872473985942,4,1,0,90,0,0
135632,-133.333333333333,4,1,0,60,0,0
137184,-100,4,1,0,60,0,0
137356,-102.040816326531,4,1,0,60,0,0
137529,-104.166666666667,4,1,0,60,0,0
137701,-106.382978723404,4,1,0,60,0,0
137874,-108.695652173913,4,1,0,60,0,0
138046,-111.111111111111,4,1,0,60,0,0
138401,-86.9565217391304,4,1,0,90,0,1
156494,-88.4955752212389,4,1,0,90,0,1
156667,-90.0900900900901,4,1,0,90,0,1
156839,-91.743119266055,4,1,0,90,0,1
157012,-93.4579439252336,4,1,0,90,0,1
157184,-95.2380952380952,4,1,0,90,0,1
157356,-97.0873786407767,4,1,0,90,0,1
157680,-97.0873786407767,4,1,0,60,0,1
157711,-133.333333333333,4,1,0,60,0,0

[HitObjects]
256,192,3229,5,2,0:0:0:0:
256,192,3401,1,0,0:0:0:0:
256,192,3573,1,2,0:0:0:0:
256,192,3746,1,2,0:0:0:0:
256,192,4091,1,2,0:0:0:0:
256,192,4435,1,2,0:0:0:0:
256,192,4780,1,2,0:0:0:0:
256,192,5125,1,0,0:0:0:0:
256,192,5297,1,2,0:0:0:0:
256,192,5470,1,0,0:0:0:0:
256,192,5642,1,2,0:0:0:0:
256,192,5685,1,2,0:0:0:0:
256,192,5987,1,4,0:0:0:0:
256,192,6160,1,0,0:0:0:0:
256,192,6332,1,2,0:0:0:0:
256,192,6504,1,2,0:0:0:0:
256,192,6591,1,0,0:0:0:0:
256,192,6677,1,0,0:0:0:0:
256,192,6849,1,2,0:0:0:0:
256,192,7022,1,0,0:0:0:0:
256,192,7194,1,2,0:0:0:0:
256,192,7280,1,2,0:0:0:0:
256,192,7366,1,0,0:0:0:0:
256,192,7539,1,0,0:0:0:0:
256,192,7625,1,0,0:0:0:0:
256,192,7711,1,2,0:0:0:0:
256,192,7884,1,0,0:0:0:0:
256,192,8056,1,2,0:0:0:0:
256,192,8229,1,2,0:0:0:0:
256,192,8401,1,0,0:0:0:0:
256,192,8746,1,0,0:0:0:0:
256,192,8918,1,2,0:0:0:0:
256,192,9004,1,0,0:0:0:0:
256,192,9091,1,2,0:0:0:0:
256,192,9263,1,2,0:0:0:0:
256,192,9435,1,0,0:0:0:0:
256,192,9608,1,2,0:0:0:0:
256,192,9694,1,0,0:0:0:0:
256,192,9780,1,0,0:0:0:0:
256,192,9953,1,2,0:0:0:0:
256,192,10039,1,2,0:0:0:0:
256,192,10125,1,0,0:0:0:0:
256,192,10297,1,2,0:0:0:0:
256,192,10470,1,2,0:0:0:0:
256,192,10642,1,0,0:0:0:0:
256,192,10815,1,0,0:0:0:0:
256,192,10901,1,2,0:0:0:0:
256,192,10987,1,0,0:0:0:0:
256,192,11160,1,2,0:0:0:0:
256,192,11504,1,0,0:0:0:0:
256,192,11677,1,2,0:0:0:0:
256,192,11849,1,0,0:0:0:0:
256,192,11935,1,2,0:0:0:0:
256,192,12022,1,2,0:0:0:0:
256,192,12194,1,0,0:0:0:0:
256,192,12366,1,2,0:0:0:0:
256,192,12539,1,0,0:0:0:0:
256,192,12711,1,2,0:0:0:0:
256,192,12797,1,2,0:0:0:0:
256,192,12884,1,0,0:0:0:0:
256,192,13056,1,2,0:0:0:0:
256,192,13142,1,0,0:0:0:0:
256,192,13229,1,0,0:0:0:0:
256,192,13401,1,2,0:0:0:0:
256,192,13573,1,2,0:0:0:0:
256,192,13746,1,0,0:0:0:0:
256,192,13918,1,2,0:0:0:0:
256,192,14263,1,2,0:0:0:0:
256,192,14435,1,0,0:0:0:0:
256,192,14522,1,0,0:0:0:0:
256,192,14694,1,2,0:0:0:0:
256,192,14780,1,0,0:0:0:0:
256,192,14953,1,2,0:0:0:0:
256,192,15125,1,2,0:0:0:0:
256,192,15297,1,0,0:0:0:0:
256,192,15642,1,0,0:0:0:0:
256,192,15815,1,0,0:0:0:0:
256,192,15987,1,2,0:0:0:0:
256,192,16332,1,2,0:0:0:0:
256,192,16504,1,0,0:0:0:0:
256,192,16591,1,2,0:0:0:0:
256,192,16849,1,0,0:0:0:0:
256,192,17022,1,2,0:0:0:0:
256,192,17194,1,0,0:0:0:0:
256,192,17280,1,0,0:0:0:0:
256,192,17453,1,0,0:0:0:0:
256,192,17539,1,2,0:0:0:0:
256,192,17711,1,2,0:0:0:0:
256,192,17884,1,0,0:0:0:0:
256,192,18056,1,2,0:0:0:0:
256,192,18401,1,0,0:0:0:0:
256,192,18573,1,2,0:0:0:0:
256,192,18918,1,2,0:0:0:0:
256,192,19091,1,2,0:0:0:0:
256,192,19263,1,0,0:0:0:0:
256,192,19435,1,2,0:0:0:0:
256,192,19780,1,2,0:0:0:0:
256,192,19953,1,0,0:0:0:0:
256,192,20039,1,0,0:0:0:0:
256,192,20211,1,0,0:0:0:0:
256,192,20297,1,0,0:0:0:0:
256,192,20470,1,2,0:0:0:0:
256,192,20642,1,2,0:0:0:0:
256,192,20815,1,0,0:0:0:0:
256,192,20987,1,0,0:0:0:0:
256,192,21160,1,2,0:0:0:0:
256,192,21504,1,0,0:0:0:0:
256,192,21849,1,2,0:0:0:0:
256,192,22022,1,2,0:0:0:0:
256,192,22108,1,0,0:0:0:0:
256,192,22366,1,2,0:0:0:0:
256,192,22539,1,0,0:0:0:0:
256,192,22711,1,0,0:0:0:0:
256,192,22797,1,2,0:0:0:0:
256,192,22970,1,2,0:0:0:0:
256,192,23056,1,0,0:0:0:0:
256,192,23229,1,2,0:0:0:0:
256,192,23401,1,2,0:0:0:0:
256,192,23573,1,0,0:0:0:0:
256,192,23918,1,0,0:0:0:0:
256,192,24091,1,0,0:0:0:0:
256,192,24263,1,2,0:0:0:0:
256,192,24435,1,0,0:0:0:0:
256,192,24780,1,0,0:0:0:0:
256,192,24953,1,2,0:0:0:0:
256,192,25297,1,2,0:0:0:0:
256,192,25470,1,2,0:0:0:0:
256,192,25556,1,0,0:0:0:0:
256,192,25729,1,0,0:0:0:0:
256,192,25815,1,0,0:0:0:0:
256,192,25987,1,2,0:0:0:0:
256,192,26160,1,2,0:0:0:0:
256,192,26332,1,0,0:0:0:0:
256,192,26677,1,0,0:0:0:0:
256,192,26849,1,0,0:0:0:0:
256,192,27022,1,2,0:0:0:0:
256,192,27366,1,2,0:0:0:0:
256,192,27539,1,0,0:0:0:0:
256,192,27625,1,2,0:0:0:0:
256,192,27884,1,0,0:0:0:0:
256,192,28056,1,2,0:0:0:0:
256,192,28229,1,0,0:0:0:0:
256,192,28315,1,0,0:0:0:0:
256,192,28487,1,0,0:0:0:0:
256,192,28573,1,2,0:0:0:0:
256,192,28746,1,2,0:0:0:0:
256,192,28918,1,0,0:0:0:0:
256,192,29091,1,2,0:0:0:0:
256,192,29435,1,0,0:0:0:0:
256,192,29608,1,2,0:0:0:0:
256,192,29953,1,0,0:0:0:0:
256,192,30125,1,2,0:0:0:0:
256,192,30297,1,2,0:0:0:0:
256,192,30470,1,0,0:0:0:0:
256,192,30815,1,2,0:0:0:0:
256,192,30987,1,0,0:0:0:0:
256,192,31073,1,0,0:0:0:0:
256,192,31246,1,0,0:0:0:0:
256,192,31332,1,0,0:0:0:0:
256,192,31504,1,2,0:0:0:0:
256,192,31677,1,0,0:0:0:0:
256,192,31849,1,0,0:0:0:0:
256,192,32194,1,0,0:0:0:0:
256,192,32366,1,0,0:0:0:0:
256,192,32539,1,2,0:0:0:0:
256,192,32884,1,2,0:0:0:0:
256,192,33056,1,0,0:0:0:0:
256,192,33142,1,0,0:0:0:0:
256,192,33401,1,0,0:0:0:0:
256,192,33573,1,2,0:0:0:0:
256,192,33832,1,2,0:0:0:0:
256,192,33918,1,0,0:0:0:0:
256,192,34091,1,0,0:0:0:0:
256,192,34263,1,2,0:0:0:0:
256,192,34435,1,2,0:0:0:0:
256,192,34608,1,0,0:0:0:0:
256,192,34953,1,2,0:0:0:0:
256,192,35297,1,0,0:0:0:0:
256,192,35470,1,2,0:0:0:0:
256,192,35815,1,0,0:0:0:0:
256,192,35987,1,2,0:0:0:0:
256,192,36332,1,2,0:0:0:0:
256,192,36504,1,2,0:0:0:0:
256,192,36677,1,0,0:0:0:0:
256,192,36849,1,2,0:0:0:0:
256,192,37194,1,0,0:0:0:0:
256,192,37366,1,2,0:0:0:0:
256,192,37711,1,2,0:0:0:0:
256,192,37797,1,2,0:0:0:0:
256,192,37884,1,0,0:0:0:0:
256,192,38056,1,2,0:0:0:0:
256,192,38229,1,0,0:0:0:0:
256,192,38315,1,2,0:0:0:0:
256,192,38401,1,0,0:0:0:0:
256,192,38573,1,0,0:0:0:0:
256,192,38746,1,2,0:0:0:0:
256,192,39091,1,0,0:0:0:0:
256,192,39263,1,0,0:0:0:0:
256,192,39435,1,2,0:0:0:0:
256,192,39608,1,0,0:0:0:0:
256,192,39953,1,2,0:0:0:0:
256,192,40125,1,2,0:0:0:0:
256,192,40470,1,2,0:0:0:0:
256,192,40556,1,0,0:0:0:0:
256,192,40642,1,0,0:0:0:0:
256,192,40815,1,2,0:0:0:0:
256,192,40987,1,2,0:0:0:0:
256,192,41073,1,2,0:0:0:0:
256,192,41160,1,0,0:0:0:0:
256,192,41332,1,0,0:0:0:0:
256,192,41504,1,2,0:0:0:0:
256,192,41849,1,2,0:0:0:0:
256,192,42022,1,0,0:0:0:0:
256,192,42366,1,0,0:0:0:0:
256,192,42539,1,2,0:0:0:0:
256,192,42711,1,2,0:0:0:0:
256,192,42884,1,0,0:0:0:0:
256,192,43056,1,2,0:0:0:0:
256,192,43229,1,2,0:0:0:0:
256,192,43401,1,0,0:0:0:0:
256,192,43746,1,2,0:0:0:0:
256,192,43918,1,2,0:0:0:0:
256,192,44091,1,0,0:0:0:0:
256,192,44263,1,2,0:0:0:0:
256,192,44435,1,2,0:0:0:0:
256,192,44522,1,0,0:0:0:0:
256,192,44608,1,0,0:0:0:0:
256,192,44780,1,0,0:0:0:0:
256,192,44953,1,2,0:0:0:0:
256,192,45297,1,2,0:0:0:0:
256,192,45384,1,2,0:0:0:0:
256,192,45470,1,0,0:0:0:0:
256,192,45642,1,2,0:0:0:0:
256,192,45815,1,0,0:0:0:0:
256,192,45987,1,2,0:0:0:0:
256,192,46332,1,0,0:0:0:0:
256,192,46504,1,2,0:0:0:0:
256,192,46677,1,2,0:0:0:0:
256,192,46849,1,0,0:0:0:0:
256,192,47022,1,2,0:0:0:0:
256,192,47366,1,2,0:0:0:0:
256,192,47539,1,0,0:0:0:0:
256,192,47711,1,0,0:0:0:0:
256,192,47884,1,2,0:0:0:0:
256,192,48056,1,2,0:0:0:0:
256,192,48229,1,0,0:0:0:0:
256,192,48401,1,2,0:0:0:0:
256,192,48746,1,2,0:0:0:0:
256,192,48832,1,2,0:0:0:0:
256,192,48918,1,0,0:0:0:0:
256,192,49091,1,2,0:0:0:0:
256,192,49263,1,0,0:0:0:0:
256,192,49349,1,2,0:0:0:0:
256,192,49435,1,2,0:0:0:0:
256,192,49608,1,0,0:0:0:0:
256,192,49780,1,2,0:0:0:0:
256,192,50125,1,2,0:0:0:0:
256,192,50297,1,0,0:0:0:0:
256,192,50470,1,2,0:0:0:0:
256,192,50642,1,2,0:0:0:0:
256,192,50815,1,2,0:0:0:0:
256,192,50987,1,0,0:0:0:0:
256,192,51160,1,2,0:0:0:0:
256,192,51504,1,2,0:0:0:0:
256,192,51591,1,0,0:0:0:0:
256,192,51677,1,0,0:0:0:0:
256,192,51849,1,2,0:0:0:0:
256,192,52022,1,0,0:0:0:0:
256,192,52108,1,0,0:0:0:0:
256,192,52194,1,2,0:0:0:0:
256,192,52366,1,0,0:0:0:0:
256,192,52539,1,2,0:0:0:0:
256,192,52884,1,0,0:0:0:0:
256,192,53056,1,2,0:0:0:0:
256,192,53401,1,2,0:0:0:0:
256,192,53573,1,2,0:0:0:0:
256,192,53746,1,0,0:0:0:0:
256,192,53918,1,2,0:0:0:0:
256,192,54091,1,0,0:0:0:0:
256,192,54263,1,2,0:0:0:0:
256,192,54435,1,2,0:0:0:0:
256,192,54780,1,0,0:0:0:0:
256,192,54953,1,2,0:0:0:0:
256,192,55125,1,0,0:0:0:0:
256,192,55297,1,2,0:0:0:0:
256,192,55470,1,2,0:0:0:0:
256,192,55556,1,2,0:0:0:0:
256,192,55642,1,0,0:0:0:0:
256,192,55815,1,0,0:0:0:0:
256,192,55987,1,2,0:0:0:0:
256,192,56332,1,2,0:0:0:0:
256,192,56418,1,0,0:0:0:0:
256,192,56504,1,0,0:0:0:0:
256,192,56677,1,2,0:0:0:0:
256,192,56849,1,0,0:0:0:0:
256,192,57022,1,2,0:0:0:0:
256,192,57366,1,0,0:0:0:0:
256,192,57539,1,2,0:0:0:0:
256,192,57711,1,2,0:0:0:0:
256,192,57884,1,0,0:0:0:0:
256,192,58056,1,2,0:0:0:0:
256,192,58401,1,6,0:0:0:0:
256,192,58573,1,0,0:0:0:0:
256,192,58660,1,2,0:0:0:0:
256,192,58746,1,0,0:0:0:0:
256,192,58918,1,2,0:0:0:0:
256,192,59091,1,0,0:0:0:0:
256,192,59263,1,2,0:0:0:0:
256,192,59349,1,2,0:0:0:0:
256,192,59435,1,0,0:0:0:0:
256,192,59608,1,2,0:0:0:0:
256,192,59694,1,2,0:0:0:0:
256,192,59780,1,0,0:0:0:0:
256,192,59953,1,2,0:0:0:0:
256,192,60125,1,0,0:0:0:0:
256,192,60297,1,2,0:0:0:0:
256,192,60384,1,2,0:0:0:0:
256,192,60470,1,2,0:0:0:0:
256,192,60556,1,2,0:0:0:0:
256,192,60642,1,0,0:0:0:0:
256,192,60815,1,2,0:0:0:0:
256,192,61160,1,2,0:0:0:0:
256,192,61332,1,0,0:0:0:0:
256,192,61504,1,2,0:0:0:0:
256,192,61591,1,0,0:0:0:0:
256,192,61677,1,2,0:0:0:0:
256,192,61849,1,0,0:0:0:0:
256,192,62022,1,2,0:0:0:0:
256,192,62108,1,0,0:0:0:0:
256,192,62194,1,0,0:0:0:0:
256,192,62366,1,2,0:0:0:0:
256,192,62453,1,0,0:0:0:0:
256,192,62539,1,0,0:0:0:0:
256,192,62711,1,0,0:0:0:0:
256,192,62884,1,2,0:0:0:0:
256,192,63056,1,0,0:0:0:0:
256,192,63142,1,0,0:0:0:0:
256,192,63229,1,0,0:0:0:0:
256,192,63315,1,0,0:0:0:0:
256,192,63401,1,2,0:0:0:0:
256,192,63573,1,0,0:0:0:0:
256,192,63918,1,2,0:0:0:0:
256,192,64004,1,2,0:0:0:0:
256,192,64091,1,0,0:0:0:0:
256,192,64263,1,2,0:0:0:0:
256,192,64435,1,2,0:0:0:0:
256,192,64608,1,0,0:0:0:0:
256,192,64780,1,0,0:0:0:0:
256,192,64866,1,0,0:0:0:0:
256,192,64953,1,2,0:0:0:0:
256,192,65125,1,0,0:0:0:0:
256,192,65211,1,0,0:0:0:0:
256,192,65297,1,2,0:0:0:0:
256,192,65470,1,2,0:0:0:0:
256,192,65642,1,0,0:0:0:0:
256,192,65815,1,2,0:0:0:0:
256,192,65987,1,2,0:0:0:0:
256,192,66073,1,2,0:0:0:0:
256,192,66160,1,0,0:0:0:0:
256,192,66332,1,2,0:0:0:0:
256,192,66418,1,0,0:0:0:0:
256,192,66504,1,2,0:0:0:0:
256,192,66591,1,2,0:0:0:0:
256,192,66677,1,0,0:0:0:0:
256,192,66849,1,0,0:0:0:0:
256,192,67022,1,2,0:0:0:0:
256,192,67108,1,0,0:0:0:0:
256,192,67194,1,0,0:0:0:0:
256,192,67366,1,2,0:0:0:0:
256,192,67539,1,0,0:0:0:0:
256,192,67711,1,0,0:0:0:0:
256,192,67797,1,2,0:0:0:0:
256,192,67884,1,2,0:0:0:0:
256,192,68056,1,0,0:0:0:0:
256,192,68401,1,2,0:0:0:0:
256,192,68573,1,0,0:0:0:0:
256,192,68918,1,0,0:0:0:0:
256,192,69091,1,2,0:0:0:0:
256,192,69177,1,2,0:0:0:0:
256,192,69263,1,0,0:0:0:0:
256,192,69435,1,2,0:0:0:0:
256,192,69694,1,2,0:0:0:0:
256,192,69953,1,2,0:0:0:0:
256,192,70125,1,2,0:0:0:0:
256,192,70470,1,0,0:0:0:0:
256,192,70815,1,0,0:0:0:0:
256,192,71160,1,0,0:0:0:0:
256,192,71504,1,2,0:0:0:0:
256,192,71763,1,0,0:0:0:0:
256,192,71849,1,2,0:0:0:0:
256,192,72194,1,2,0:0:0:0:
256,192,72366,1,0,0:0:0:0:
256,192,72453,1,0,0:0:0:0:
256,192,72625,1,0,0:0:0:0:
256,192,72711,1,0,0:0:0:0:
256,192,72884,1,2,0:0:0:0:
256,192,73056,1,2,0:0:0:0:
256,192,73229,1,0,0:0:0:0:
256,192,73573,1,0,0:0:0:0:
256,192,73746,1,0,0:0:0:0:
256,192,73918,1,2,0:0:0:0:
256,192,74263,1,2,0:0:0:0:
256,192,74435,1,0,0:0:0:0:
256,192,74522,1,2,0:0:0:0:
256,192,74780,1,0,0:0:0:0:
256,192,74953,1,2,0:0:0:0:
256,192,75125,1,0,0:0:0:0:
256,192,75211,1,0,0:0:0:0:
256,192,75470,1,2,0:0:0:0:
256,192,75642,1,2,0:0:0:0:
256,192,75815,1,0,0:0:0:0:
256,192,75987,1,2,0:0:0:0:
256,192,76160,1,0,0:0:0:0:
256,192,76332,1,0,0:0:0:0:
256,192,76504,1,0,0:0:0:0:
256,192,76677,1,2,0:0:0:0:
256,192,77022,1,2,0:0:0:0:
256,192,77194,1,0,0:0:0:0:
256,192,77366,1,2,0:0:0:0:
256,192,77711,1,2,0:0:0:0:
256,192,77884,1,0,0:0:0:0:
256,192,77970,1,0,0:0:0:0:
256,192,78142,1,2,0:0:0:0:
256,192,78229,1,0,0:0:0:0:
256,192,78401,1,2,0:0:0:0:
256,192,78573,1,2,0:0:0:0:
256,192,78746,1,0,0:0:0:0:
256,192,78918,1,0,0:0:0:0:
256,192,79091,1,0,0:0:0:0:
256,192,79435,1,2,0:0:0:0:
256,192,79780,1,0,0:0:0:0:
256,192,79953,1,0,0:0:0:0:
256,192,80125,1,2,0:0:0:0:
256,192,80470,1,2,0:0:0:0:
256,192,80642,1,2,0:0:0:0:
256,192,80729,1,0,0:0:0:0:
256,192,80901,1,0,0:0:0:0:
256,192,80987,1,0,0:0:0:0:
256,192,81160,1,2,0:0:0:0:
256,192,81332,1,2,0:0:0:0:
256,192,81504,1,0,0:0:0:0:
256,192,81849,1,0,0:0:0:0:
256,192,82022,1,0,0:0:0:0:
256,192,82194,1,2,0:0:0:0:
256,192,82539,1,2,0:0:0:0:
256,192,82711,1,2,0:0:0:0:
256,192,82884,1,0,0:0:0:0:
256,192,83056,1,0,0:0:0:0:
256,192,83229,1,2,0:0:0:0:
256,192,83401,1,2,0:0:0:0:
256,192,83487,1,0,0:0:0:0:
256,192,83660,1,0,0:0:0:0:
256,192,83746,1,0,0:0:0:0:
256,192,83918,1,2,0:0:0:0:
256,192,84263,1,0,0:0:0:0:
256,192,84608,1,0,0:0:0:0:
256,192,84780,1,0,0:0:0:0:
256,192,84953,1,2,0:0:0:0:
256,192,85297,1,2,0:0:0:0:
256,192,85470,1,0,0:0:0:0:
256,192,85556,1,2,0:0:0:0:
256,192,85815,1,0,0:0:0:0:
256,192,85987,1,2,0:0:0:0:
256,192,86160,1,0,0:0:0:0:
256,192,86246,1,0,0:0:0:0:
256,192,86418,1,0,0:0:0:0:
256,192,86504,1,2,0:0:0:0:
256,192,86677,1,2,0:0:0:0:
256,192,86849,1,0,0:0:0:0:
256,192,87022,1,2,0:0:0:0:
256,192,87366,1,0,0:0:0:0:
256,192,87539,1,2,0:0:0:0:
256,192,87884,1,0,0:0:0:0:
256,192,88056,1,2,0:0:0:0:
256,192,88229,1,2,0:0:0:0:
256,192,88401,1,0,0:0:0:0:
256,192,88746,1,2,0:0:0:0:
256,192,88918,1,2,0:0:0:0:
256,192,89004,1,0,0:0:0:0:
256,192,89177,1,0,0:0:0:0:
256,192,89263,1,0,0:0:0:0:
256,192,89435,1,2,0:0:0:0:
256,192,89608,1,0,0:0:0:0:
256,192,89780,1,2,0:0:0:0:
256,192,90125,1,2,0:0:0:0:
256,192,90297,1,2,0:0:0:0:
256,192,90470,1,0,0:0:0:0:
256,192,90642,1,2,0:0:0:0:
256,192,90815,1,0,0:0:0:0:
256,192,90987,1,0,0:0:0:0:
256,192,91160,1,2,0:0:0:0:
256,192,91504,1,2,0:0:0:0:
256,192,91677,1,0,0:0:0:0:
256,192,91849,1,2,0:0:0:0:
256,192,92022,1,2,0:0:0:0:
256,192,92366,1,0,0:0:0:0:
256,192,92539,1,2,0:0:0:0:
256,192,92884,1,2,0:0:0:0:
256,192,92970,1,2,0:0:0:0:
256,192,93056,1,0,0:0:0:0:
256,192,93229,1,0,0:0:0:0:
256,192,93401,1,2,0:0:0:0:
256,192,93487,1,2,0:0:0:0:
256,192,93573,1,0,0:0:0:0:
256,192,93746,1,0,0:0:0:0:
256,192,93918,1,2,0:0:0:0:
256,192,94263,1,2,0:0:0:0:
256,192,94435,1,2,0:0:0:0:
256,192,94608,1,0,0:0:0:0:
256,192,94780,1,2,0:0:0:0:
256,192,95125,1,0,0:0:0:0:
256,192,95297,1,2,0:0:0:0:
256,192,95642,1,2,0:0:0:0:
256,192,95729,1,0,0:0:0:0:
256,192,95815,1,0,0:0:0:0:
256,192,95987,1,2,0:0:0:0:
256,192,96160,1,0,0:0:0:0:
256,192,96246,1,2,0:0:0:0:
256,192,96332,1,0,0:0:0:0:
256,192,96504,1,0,0:0:0:0:
256,192,96677,1,2,0:0:0:0:
256,192,97022,1,2,0:0:0:0:
256,192,97194,1,0,0:0:0:0:
256,192,97539,1,2,0:0:0:0:
256,192,97711,1,2,0:0:0:0:
256,192,97884,1,0,0:0:0:0:
256,192,98056,1,2,0:0:0:0:
256,192,98229,1,0,0:0:0:0:
256,192,98401,1,2,0:0:0:0:
256,192,98573,1,0,0:0:0:0:
256,192,98918,1,2,0:0:0:0:
256,192,99091,1,2,0:0:0:0:
256,192,99263,1,0,0:0:0:0:
256,192,99435,1,2,0:0:0:0:
256,192,99608,1,2,0:0:0:0:
256,192,99694,1,0,0:0:0:0:
256,192,99780,1,0,0:0:0:0:
256,192,99953,1,0,0:0:0:0:
256,192,100125,1,2,0:0:0:0:
256,192,100470,1,2,0:0:0:0:
256,192,100556,1,2,0:0:0:0:
256,192,100642,1,0,0:0:0:0:
256,192,100815,1,2,0:0:0:0:
256,192,100987,1,0,0:0:0:0:
256,192,101160,1,2,0:0:0:0:
256,192,101504,1,0,0:0:0:0:
256,192,101677,1,2,0:0:0:0:
256,192,101849,1,0,0:0:0:0:
256,192,102022,1,0,0:0:0:0:
256,192,102194,1,2,0:0:0:0:
256,192,102539,1,2,0:0:0:0:
256,192,102711,1,0,0:0:0:0:
256,192,103056,1,0,0:0:0:0:
256,192,103229,1,2,0:0:0:0:
256,192,103401,1,2,0:0:0:0:
256,192,103573,1,2,0:0:0:0:
256,192,103918,1,2,0:0:0:0:
256,192,104004,1,0,0:0:0:0:
256,192,104091,1,0,0:0:0:0:
256,192,104263,1,2,0:0:0:0:
256,192,104435,1,0,0:0:0:0:
256,192,104522,1,2,0:0:0:0:
256,192,104608,1,0,0:0:0:0:
256,192,104780,1,0,0:0:0:0:
256,192,104953,1,2,0:0:0:0:
256,192,105297,1,2,0:0:0:0:
256,192,105470,1,0,0:0:0:0:
256,192,105815,1,2,0:0:0:0:
256,192,105987,1,0,0:0:0:0:
256,192,106160,1,0,0:0:0:0:
256,192,106332,1,2,0:0:0:0:
256,192,106677,1,2,0:0:0:0:
256,192,106763,1,2,0:0:0:0:
256,192,106849,1,0,0:0:0:0:
256,192,107022,1,2,0:0:0:0:
256,192,107194,1,0,0:0:0:0:
256,192,107280,1,0,0:0:0:0:
256,192,107366,1,2,0:0:0:0:
256,192,107539,1,0,0:0:0:0:
256,192,107711,1,2,0:0:0:0:
256,192,108056,1,2,0:0:0:0:
256,192,108229,1,0,0:0:0:0:
256,192,108573,1,0,0:0:0:0:
256,192,108746,1,2,0:0:0:0:
256,192,108918,1,2,0:0:0:0:
256,192,109091,1,0,0:0:0:0:
256,192,109263,1,2,0:0:0:0:
256,192,109435,1,2,0:0:0:0:
256,192,109608,1,2,0:0:0:0:
256,192,109953,1,0,0:0:0:0:
256,192,110125,1,2,0:0:0:0:
256,192,110297,1,0,0:0:0:0:
256,192,110470,1,2,0:0:0:0:
256,192,110642,1,2,0:0:0:0:
256,192,110729,1,0,0:0:0:0:
256,192,110815,1,2,0:0:0:0:
256,192,110987,1,0,0:0:0:0:
256,192,111160,1,2,0:0:0:0:
256,192,111504,1,2,0:0:0:0:
256,192,111591,1,0,0:0:0:0:
256,192,111677,1,0,0:0:0:0:
256,192,111849,1,2,0:0:0:0:
256,192,112022,1,2,0:0:0:0:
256,192,112194,1,0,0:0:0:0:
256,192,112539,1,0,0:0:0:0:
256,192,112711,1,2,0:0:0:0:
256,192,112884,1,2,0:0:0:0:
256,192,113056,1,0,0:0:0:0:
256,192,113229,1,2,0:0:0:0:
256,192,113573,1,6,0:0:0:0:
256,192,113746,1,0,0:0:0:0:
256,192,113832,1,2,0:0:0:0:
256,192,113918,1,2,0:0:0:0:
256,192,114091,1,2,0:0:0:0:
256,192,114263,1,0,0:0:0:0:
256,192,114435,1,2,0:0:0:0:
256,192,114522,1,0,0:0:0:0:
256,192,114608,1,2,0:0:0:0:
256,192,114780,1,2,0:0:0:0:
256,192,114866,1,0,0:0:0:0:
256,192,114953,1,2,0:0:0:0:
256,192,115125,1,2,0:0:0:0:
256,192,115297,1,0,0:0:0:0:
256,192,115470,1,2,0:0:0:0:
256,192,115556,1,2,0:0:0:0:
256,192,115642,1,0,0:0:0:0:
256,192,115729,1,0,0:0:0:0:
256,192,115815,1,0,0:0:0:0:
256,192,115987,1,2,0:0:0:0:
256,192,116332,1,2,0:0:0:0:
256,192,116504,1,0,0:0:0:0:
256,192,116677,1,0,0:0:0:0:
256,192,116763,1,0,0:0:0:0:
256,192,116849,1,2,0:0:0:0:
256,192,117022,1,0,0:0:0:0:
256,192,117194,1,2,0:0:0:0:
256,192,117280,1,2,0:0:0:0:
256,192,117366,1,0,0:0:0:0:
256,192,117539,1,2,0:0:0:0:
256,192,117625,1,2,0:0:0:0:
256,192,117711,1,0,0:0:0:0:
256,192,117884,1,0,0:0:0:0:
256,192,118056,1,2,0:0:0:0:
256,192,118229,1,0,0:0:0:0:
256,192,118315,1,0,0:0:0:0:
256,192,118401,1,2,0:0:0:0:
256,192,118487,1,2,0:0:0:0:
256,192,118573,1,0,0:0:0:0:
256,192,118746,1,0,0:0:0:0:
256,192,119091,1,0,0:0:0:0:
256,192,119177,1,2,0:0:0:0:
256,192,119263,1,0,0:0:0:0:
256,192,119435,1,2,0:0:0:0:
256,192,119608,1,2,0:0:0:0:
256,192,119780,1,0,0:0:0:0:
256,192,119953,1,0,0:0:0:0:
256,192,120039,1,2,0:0:0:0:
256,192,120125,1,2,0:0:0:0:
256,192,120297,1,0,0:0:0:0:
256,192,120384,1,2,0:0:0:0:
256,192,120470,1,2,0:0:0:0:
256,192,120642,1,2,0:0:0:0:
256,192,120815,1,0,0:0:0:0:
256,192,120987,1,2,0:0:0:0:
256,192,121160,1,2,0:0:0:0:
256,192,121246,1,0,0:0:0:0:
256,192,121332,1,2,0:0:0:0:
256,192,121504,1,2,0:0:0:0:
256,192,121591,1,2,0:0:0:0:
256,192,121677,1,0,0:0:0:0:
256,192,121763,1,0,0:0:0:0:
256,192,121849,1,2,0:0:0:0:
256,192,122022,1,0,0:0:0:0:
256,192,122194,1,2,0:0:0:0:
256,192,122280,1,0,0:0:0:0:
256,192,122366,1,0,0:0:0:0:
256,192,122539,1,2,0:0:0:0:
256,192,122711,1,0,0:0:0:0:
256,192,122884,1,0,0:0:0:0:
256,192,122970,1,0,0:0:0:0:
256,192,123056,1,2,0:0:0:0:
256,192,123229,1,0,0:0:0:0:
256,192,123573,1,2,0:0:0:0:
256,192,123746,1,0,0:0:0:0:
256,192,124091,1,0,0:0:0:0:
256,192,124263,1,2,0:0:0:0:
256,192,124349,1,2,0:0:0:0:
256,192,124435,1,0,0:0:0:0:
256,192,124608,1,2,0:0:0:0:
256,192,124953,1,2,0:0:0:0:
256,192,125297,1,2,0:0:0:0:
256,192,125470,1,0,0:0:0:0:
256,192,125642,1,2,0:0:0:0:
256,192,125987,1,2,0:0:0:0:
256,192,126160,1,2,0:0:0:0:
256,192,126332,1,2,0:0:0:0:
256,192,126504,1,0,0:0:0:0:
256,192,126677,1,2,0:0:0:0:
256,192,126849,1,2,0:0:0:0:
256,192,127022,1,2,0:0:0:0:
256,192,127366,1,2,0:0:0:0:
256,192,127539,1,0,0:0:0:0:
256,192,127711,1,2,0:0:0:0:
256,192,127884,1,0,0:0:0:0:
256,192,128056,1,2,0:0:0:0:
256,192,128229,1,2,0:0:0:0:
256,192,128401,1,0,0:0:0:0:
256,192,128573,1,0,0:0:0:0:
256,192,128746,1,2,0:0:0:0:
256,192,128918,1,0,0:0:0:0:
256,192,129004,1,2,0:0:0:0:
256,192,129091,1,0,0:0:0:0:
256,192,129263,1,2,0:0:0:0:
256,192,129435,1,0,0:0:0:0:
256,192,129608,1,0,0:0:0:0:
256,192,129780,1,2,0:0:0:0:
256,192,130125,1,2,0:0:0:0:
256,192,130470,1,2,0:0:0:0:
256,192,130815,1,2,0:0:0:0:
256,192,130987,1,0,0:0:0:0:
256,192,131160,1,2,0:0:0:0:
256,192,131504,1,0,0:0:0:0:
256,192,131677,1,2,0:0:0:0:
256,192,131849,1,2,0:0:0:0:
256,192,132022,1,0,0:0:0:0:
256,192,132194,1,2,0:0:0:0:
256,192,132366,1,0,0:0:0:0:
256,192,132539,1,2,0:0:0:0:
256,192,132884,1,2,0:0:0:0:
256,192,133056,1,2,0:0:0:0:
256,192,133229,1,2,0:0:0:0:
256,192,133401,1,0,0:0:0:0:
256,192,133573,1,2,0:0:0:0:
256,192,133746,1,0,0:0:0:0:
256,192,133918,1,2,0:0:0:0:
256,192,134091,1,2,0:0:0:0:
256,192,134177,1,0,0:0:0:0:
256,192,134263,1,0,0:0:0:0:
256,192,134435,1,0,0:0:0:0:
256,192,134608,1,2,0:0:0:0:
256,192,134780,1,0,0:0:0:0:
256,192,135125,1,2,0:0:0:0:
256,192,135297,1,2,0:0:0:0:
256,192,135642,1,2,0:0:0:0:
256,192,135815,1,0,0:0:0:0:
256,192,135987,1,2,0:0:0:0:
256,192,136160,1,2,0:0:0:0:
256,192,136504,1,2,0:0:0:0:
256,192,136849,1,2,0:0:0:0:
256,192,137194,1,2,0:0:0:0:
256,192,137237,1,2,0:0:0:0:
256,192,137539,1,0,0:0:0:0:
256,192,137711,1,2,0:0:0:0:
256,192,137884,1,2,0:0:0:0:
256,192,138056,1,0,0:0:0:0:
256,192,138099,1,0,0:0:0:0:
256,192,138401,1,6,0:0:0:0:
256,192,138573,1,2,0:0:0:0:
256,192,138660,1,0,0:0:0:0:
256,192,138746,1,0,0:0:0:0:
256,192,138918,1,0,0:0:0:0:
256,192,139091,1,2,0:0:0:0:
256,192,139177,1,2,0:0:0:0:
256,192,139263,1,2,0:0:0:0:
256,192,139349,1,2,0:0:0:0:
256,192,139435,1,0,0:0:0:0:
256,192,139608,1,0,0:0:0:0:
256,192,139780,1,2,0:0:0:0:
256,192,139866,1,2,0:0:0:0:
256,192,139953,1,0,0:0:0:0:
256,192,140039,1,0,0:0:0:0:
256,192,140125,1,0,0:0:0:0:
256,192,140297,1,2,0:0:0:0:
256,192,140470,1,2,0:0:0:0:
256,192,140556,1,0,0:0:0:0:
256,192,140642,1,0,0:0:0:0:
256,192,140815,1,2,0:0:0:0:
256,192,140987,1,0,0:0:0:0:
256,192,141160,1,2,0:0:0:0:
256,192,141246,1,0,0:0:0:0:
256,192,141332,1,2,0:0:0:0:
256,192,141418,1,2,0:0:0:0:
256,192,141504,1,0,0:0:0:0:
256,192,141677,1,0,0:0:0:0:
256,192,141849,1,2,0:0:0:0:
256,192,141935,1,0,0:0:0:0:
256,192,142022,1,2,0:0:0:0:
256,192,142108,1,0,0:0:0:0:
256,192,142194,1,0,0:0:0:0:
256,192,142366,1,2,0:0:0:0:
256,192,142539,1,2,0:0:0:0:
256,192,142625,1,0,0:0:0:0:
256,192,142711,1,0,0:0:0:0:
256,192,142884,1,0,0:0:0:0:
256,192,143056,1,2,0:0:0:0:
256,192,143142,1,2,0:0:0:0:
256,192,143229,1,2,0:0:0:0:
256,192,143315,1,2,0:0:0:0:
256,192,143401,1,0,0:0:0:0:
256,192,143573,1,2,0:0:0:0:
256,192,143918,1,0,0:0:0:0:
256,192,144004,1,0,0:0:0:0:
256,192,144091,1,0,0:0:0:0:
256,192,144177,1,0,0:0:0:0:
256,192,144263,1,2,0:0:0:0:
256,192,144435,1,0,0:0:0:0:
256,192,144608,1,2,0:0:0:0:
256,192,144694,1,0,0:0:0:0:
256,192,144780,1,0,0:0:0:0:
256,192,144866,1,0,0:0:0:0:
256,192,144953,1,0,0:0:0:0:
256,192,145125,1,2,0:0:0:0:
256,192,145297,1,0,0:0:0:0:
256,192,145384,1,0,0:0:0:0:
256,192,145470,1,2,0:0:0:0:
256,192,145556,1,0,0:0:0:0:
256,192,145642,1,0,0:0:0:0:
256,192,145815,1,2,0:0:0:0:
256,192,145987,1,2,0:0:0:0:
256,192,146073,1,0,0:0:0:0:
256,192,146160,1,0,0:0:0:0:
256,192,146332,1,2,0:0:0:0:
256,192,146418,1,0,0:0:0:0:
256,192,146504,1,2,0:0:0:0:
256,192,146591,1,2,0:0:0:0:
256,192,146677,1,0,0:0:0:0:
256,192,146849,1,0,0:0:0:0:
256,192,147022,1,2,0:0:0:0:
256,192,147108,1,0,0:0:0:0:
256,192,147194,1,0,0:0:0:0:
256,192,147366,1,2,0:0:0:0:
256,192,147453,1,2,0:0:0:0:
256,192,147539,1,0,0:0:0:0:
256,192,147711,1,2,0:0:0:0:
256,192,148056,1,2,0:0:0:0:
256,192,148229,1,0,0:0:0:0:
256,192,148315,1,2,0:0:0:0:
256,192,148401,1,2,0:0:0:0:
256,192,148573,1,0,0:0:0:0:
256,192,148746,1,2,0:0:0:0:
256,192,148918,1,0,0:0:0:0:
256,192,149004,1,0,0:0:0:0:
256,192,149091,1,2,0:0:0:0:
256,192,149177,1,2,0:0:0:0:
256,192,149263,1,0,0:0:0:0:
256,192,149435,1,2,0:0:0:0:
256,192,149608,1,0,0:0:0:0:
256,192,149694,1,0,0:0:0:0:
256,192,149780,1,2,0:0:0:0:
256,192,149953,1,0,0:0:0:0:
256,192,150125,1,2,0:0:0:0:
256,192,150211,1,2,0:0:0:0:
256,192,150297,1,2,0:0:0:0:
256,192,150384,1,2,0:0:0:0:
256,192,150470,1,0,0:0:0:0:
256,192,150642,1,0,0:0:0:0:
256,192,150815,1,2,0:0:0:0:
256,192,150901,1,0,0:0:0:0:
256,192,150987,1,0,0:0:0:0:
256,192,151160,1,2,0:0:0:0:
256,192,151332,1,0,0:0:0:0:
256,192,151418,1,2,0:0:0:0:
256,192,151504,1,2,0:0:0:0:
256,192,151591,1,2,0:0:0:0:
256,192,151677,1,0,0:0:0:0:
256,192,151849,1,2,0:0:0:0:
256,192,152194,1,2,0:0:0:0:
256,192,152280,1,0,0:0:0:0:
256,192,152366,1,2,0:0:0:0:
256,192,152453,1,0,0:0:0:0:
256,192,152539,1,0,0:0:0:0:
256,192,152711,1,0,0:0:0:0:
256,192,152884,1,2,0:0:0:0:
256,192,152970,1,0,0:0:0:0:
256,192,153056,1,2,0:0:0:0:
256,192,153142,1,2,0:0:0:0:
256,192,153229,1,0,0:0:0:0:
256,192,153401,1,0,0:0:0:0:
256,192,153573,1,2,0:0:0:0:
256,192,153660,1,0,0:0:0:0:
256,192,153746,1,0,0:0:0:0:
256,192,153918,1,0,0:0:0:0:
256,192,154091,1,0,0:0:0:0:
256,192,154177,1,0,0:0:0:0:
256,192,154263,1,2,0:0:0:0:
256,192,154349,1,2,0:0:0:0:
256,192,154435,1,2,0:0:0:0:
256,192,154608,1,0,0:0:0:0:
256,192,154780,1,0,0:0:0:0:
256,192,154953,1,2,0:0:0:0:
256,192,155297,1,2,0:0:0:0:
256,192,155470,1,0,0:0:0:0:
256,192,155642,1,2,0:0:0:0:
256,192,155815,1,2,0:0:0:0:
256,192,155901,1,2,0:0:0:0:
256,192,155987,1,0,0:0:0:0:
256,192,156160,1,2,0:0:0:0:
256,192,156246,1,2,0:0:0:0:
256,192,156332,1,0,0:0:0:0:
256,192,156677,1,2,0:0:0:0:
256,192,156849,1,0,0:0:0:0:
256,192,157022,1,2,0:0:0:0:
256,192,157194,1,0,0:0:0:0:
256,192,157366,1,2,0:0:0:0:
256,192,157410,1,2,0:0:0:0:
256,192,157711,1,2,0:0:0:0:
256,192,157884,1,0,0:0:0:0:
256,192,158056,1,2,0:0:0:0:
256,192,158229,1,2,0:0:0:0:
256,192,158573,1,2,0:0:0:0:
256,192,158918,1,2,0:0:0:0:
256,192,159263,1,2,0:0:0:0:
256,192,159608,1,0,0:0:0:0:
256,192,159780,1,2,0:0:0:0:
256,192,159953,1,2,0:0:0:0:
256,192,160125,1,0,0:0:0:0:
