osu file format v14

[General]
AudioFilename: audio.mp3
AudioLeadIn: 0
PreviewTime: -1
Countdown: 1
SampleSet: None
StackLeniency: 0.7
Mode: 3
LetterboxInBreaks: 0
SpecialStyle: 0
WidescreenStoryboard: 0

[Editor]
DistanceSpacing: 0.8
BeatDivisor: 4
GridSize: 32
TimelineZoom: 1

[Metadata]
Title:Eid Mubarak
TitleUnicode:Eid Mubarak
Artist:Harris J ft Shujat Ali Khan
ArtistUnicode:Harris J ft Shujat Ali Khan
Creator:Alvin69-
Version:Eid
Source:
Tags:
BeatmapID:1353722
BeatmapSetID:638111

[Difficulty]
HPDrainRate:8
CircleSize:4
OverallDifficulty:8
ApproachRate:5
SliderMultiplier:1.4
SliderTickRate:1

[Events]
//Background and Video events
0,0,"eid mubarak song .png",0,0
//Break Periods
//Storyboard Layer 0 (Background)
//Storyboard Layer 1 (Fail)
//Storyboard Layer 2 (Pass)
//Storyboard Layer 3 (Foreground)
//Storyboard Sound Samples

[TimingPoints]
673,638.365783593999,4,3,0,15,1,0
31314,-100,4,3,0,15,0,1
51742,-100,4,3,0,15,0,0
60360,-10,4,3,0,15,0,0
60519,-1000,4,3,0,15,0,0
61956,-100,4,3,0,15,0,0
77276,-100,4,3,0,15,0,1
97704,-333.333333333333,4,3,0,15,0,0
128346,-100,4,3,0,15,0,1
179415,-100,4,3,0,15,0,0

[HitObjects]
64,192,673,128,0,2588:0:0:0:0:
192,192,1151,128,0,1630:0:0:0:0:
320,192,1630,128,0,1949:0:0:0:0:
448,192,1949,128,0,2588:0:0:0:0:
320,192,2588,128,0,3226:0:0:0:0:
192,192,3226,128,0,4503:0:0:0:0:
448,192,3226,128,0,4503:0:0:0:0:
320,192,4503,128,0,4981:0:0:0:0:
448,192,4822,128,0,5141:0:0:0:0:
320,192,5141,128,0,5301:0:0:0:0:
192,192,5460,128,0,5620:0:0:0:0:
64,192,5779,128,0,5939:0:0:0:0:
192,192,5939,128,0,6099:0:0:0:0:
64,192,6099,128,0,6258:0:0:0:0:
320,192,6258,128,0,6737:0:0:0:0:
448,192,7056,128,0,8333:0:0:0:0:
320,192,7695,128,0,8971:0:0:0:0:
64,192,8333,128,0,8971:0:0:0:0:
192,192,8971,128,0,9290:0:0:0:0:
320,192,9290,128,0,9450:0:0:0:0:
192,192,9450,128,0,10886:0:0:0:0:
448,192,9450,128,0,10886:0:0:0:0:
64,192,10886,1,0,0:0:0:0:
192,192,11206,1,0,0:0:0:0:
320,192,11365,1,0,0:0:0:0:
64,192,11525,1,0,0:0:0:0:
192,192,11525,1,0,0:0:0:0:
448,192,11844,1,0,0:0:0:0:
320,192,12003,1,0,0:0:0:0:
192,192,12163,1,0,0:0:0:0:
448,192,12163,1,0,0:0:0:0:
320,192,12482,1,0,0:0:0:0:
192,192,12642,1,0,0:0:0:0:
320,192,12801,1,0,0:0:0:0:
448,192,12801,1,0,0:0:0:0:
64,192,13121,1,0,0:0:0:0:
64,192,13280,1,0,0:0:0:0:
192,192,13440,1,0,0:0:0:0:
320,192,13440,1,0,0:0:0:0:
448,192,13440,1,0,0:0:0:0:
320,192,13759,1,0,0:0:0:0:
448,192,13919,1,0,0:0:0:0:
64,192,14078,1,0,0:0:0:0:
192,192,14078,1,0,0:0:0:0:
192,192,14397,1,0,0:0:0:0:
320,192,14557,1,0,0:0:0:0:
448,192,14717,1,0,0:0:0:0:
64,192,14717,1,0,0:0:0:0:
320,192,15036,1,0,0:0:0:0:
192,192,15195,1,0,0:0:0:0:
64,192,15355,1,0,0:0:0:0:
320,192,15355,1,0,0:0:0:0:
448,192,15674,1,0,0:0:0:0:
448,192,15834,1,0,0:0:0:0:
64,192,15993,1,0,0:0:0:0:
192,192,15993,1,0,0:0:0:0:
320,192,15993,1,0,0:0:0:0:
64,192,16312,1,0,0:0:0:0:
192,192,16472,1,0,0:0:0:0:
320,192,16632,1,0,0:0:0:0:
448,192,16632,1,0,0:0:0:0:
320,192,16951,1,0,0:0:0:0:
192,192,17110,1,0,0:0:0:0:
320,192,17270,1,0,0:0:0:0:
448,192,17270,1,0,0:0:0:0:
448,192,17589,1,0,0:0:0:0:
320,192,17749,1,0,0:0:0:0:
192,192,17908,1,0,0:0:0:0:
64,192,17908,1,0,0:0:0:0:
320,192,18068,1,0,0:0:0:0:
192,192,18228,1,0,0:0:0:0:
448,192,18228,1,0,0:0:0:0:
320,192,18387,1,0,0:0:0:0:
448,192,18547,1,0,0:0:0:0:
192,192,18547,1,0,0:0:0:0:
64,192,18547,1,0,0:0:0:0:
64,192,18866,1,0,0:0:0:0:
192,192,19026,1,0,0:0:0:0:
448,192,19185,1,0,0:0:0:0:
64,192,19185,1,0,0:0:0:0:
320,192,19504,1,0,0:0:0:0:
448,192,19664,1,0,0:0:0:0:
320,192,19823,1,0,0:0:0:0:
192,192,19823,1,0,0:0:0:0:
448,192,20143,1,0,0:0:0:0:
320,192,20302,1,0,0:0:0:0:
448,192,20462,1,0,0:0:0:0:
192,192,20462,1,0,0:0:0:0:
64,192,20621,1,0,0:0:0:0:
192,192,20781,1,0,0:0:0:0:
320,192,20941,1,0,0:0:0:0:
192,192,21100,1,0,0:0:0:0:
64,192,21100,1,0,0:0:0:0:
448,192,21100,1,0,0:0:0:0:
320,192,21260,1,0,0:0:0:0:
192,192,21419,1,0,0:0:0:0:
64,192,21579,1,0,0:0:0:0:
192,192,21739,1,0,0:0:0:0:
320,192,21739,1,0,0:0:0:0:
448,192,21898,1,0,0:0:0:0:
320,192,22058,1,0,0:0:0:0:
192,192,22217,1,0,0:0:0:0:
320,192,22377,1,0,0:0:0:0:
64,192,22377,1,0,0:0:0:0:
192,192,22537,1,0,0:0:0:0:
320,192,22696,1,0,0:0:0:0:
448,192,22856,1,0,0:0:0:0:
192,192,23015,1,0,0:0:0:0:
64,192,23015,1,0,0:0:0:0:
320,192,23175,1,0,0:0:0:0:
192,192,23334,1,0,0:0:0:0:
320,192,23494,1,0,0:0:0:0:
448,192,23654,1,0,0:0:0:0:
192,192,23654,1,0,0:0:0:0:
64,192,23654,128,0,26207:0:0:0:0:
320,192,23973,1,0,0:0:0:0:
192,192,24132,1,0,0:0:0:0:
320,192,24292,1,0,0:0:0:0:
448,192,24292,1,0,0:0:0:0:
192,192,24611,1,0,0:0:0:0:
320,192,24771,1,0,0:0:0:0:
448,192,24930,1,0,0:0:0:0:
192,192,24930,1,0,0:0:0:0:
320,192,25250,1,0,0:0:0:0:
448,192,25409,1,0,0:0:0:0:
192,192,25569,1,0,0:0:0:0:
320,192,25569,1,0,0:0:0:0:
448,192,25728,1,0,0:0:0:0:
320,192,25888,1,0,0:0:0:0:
192,192,26048,1,0,0:0:0:0:
448,192,26207,1,0,0:0:0:0:
320,192,26207,1,0,0:0:0:0:
192,192,26526,1,0,0:0:0:0:
320,192,26686,1,0,0:0:0:0:
448,192,26845,1,0,0:0:0:0:
192,192,26845,1,0,0:0:0:0:
64,192,27165,1,0,0:0:0:0:
192,192,27324,1,0,0:0:0:0:
320,192,27484,1,0,0:0:0:0:
448,192,27484,1,0,0:0:0:0:
192,192,27803,1,0,0:0:0:0:
320,192,27963,1,0,0:0:0:0:
192,192,28122,1,0,0:0:0:0:
64,192,28122,1,0,0:0:0:0:
448,192,28282,1,0,0:0:0:0:
320,192,28441,1,0,0:0:0:0:
192,192,28601,1,0,0:0:0:0:
320,192,28761,1,0,0:0:0:0:
64,192,28761,1,0,0:0:0:0:
448,192,28761,128,0,30676:0:0:0:0:
192,192,28920,1,0,0:0:0:0:
64,192,29080,1,0,0:0:0:0:
320,192,29239,1,0,0:0:0:0:
192,192,29399,1,0,0:0:0:0:
64,192,29399,1,0,0:0:0:0:
320,192,29718,1,0,0:0:0:0:
192,192,29878,1,0,0:0:0:0:
64,192,30037,1,0,0:0:0:0:
320,192,30037,1,0,0:0:0:0:
192,192,30197,5,0,0:0:0:0:
320,192,30357,1,0,0:0:0:0:
64,192,30516,1,0,0:0:0:0:
192,192,30676,1,0,0:0:0:0:
320,192,30676,1,0,0:0:0:0:
64,192,30835,1,0,0:0:0:0:
192,192,30995,1,0,0:0:0:0:
320,192,31154,1,0,0:0:0:0:
64,192,31314,5,0,0:0:0:0:
192,192,31314,1,0,0:0:0:0:
320,192,31474,1,0,0:0:0:0:
448,192,31474,1,0,0:0:0:0:
192,192,31633,1,0,0:0:0:0:
64,192,31793,1,0,0:0:0:0:
320,192,31793,1,0,0:0:0:0:
192,192,31952,1,0,0:0:0:0:
448,192,31952,1,0,0:0:0:0:
320,192,32112,1,0,0:0:0:0:
192,192,32272,1,0,0:0:0:0:
64,192,32431,1,0,0:0:0:0:
192,192,32591,1,0,0:0:0:0:
320,192,32591,1,0,0:0:0:0:
448,192,32750,1,0,0:0:0:0:
320,192,32910,1,0,0:0:0:0:
192,192,33070,1,0,0:0:0:0:
448,192,33070,1,0,0:0:0:0:
320,192,33229,1,0,0:0:0:0:
448,192,33229,1,0,0:0:0:0:
64,192,33229,1,0,0:0:0:0:
192,192,33389,1,0,0:0:0:0:
320,192,33548,1,0,0:0:0:0:
192,192,33708,1,0,0:0:0:0:
320,192,33868,1,0,0:0:0:0:
448,192,33868,1,0,0:0:0:0:
64,192,34027,1,0,0:0:0:0:
192,192,34187,1,0,0:0:0:0:
64,192,34346,1,0,0:0:0:0:
320,192,34346,1,0,0:0:0:0:
192,192,34506,1,0,0:0:0:0:
448,192,34506,1,0,0:0:0:0:
64,192,34506,1,0,0:0:0:0:
320,192,34665,1,0,0:0:0:0:
448,192,34825,1,0,0:0:0:0:
320,192,34985,1,0,0:0:0:0:
192,192,35144,1,0,0:0:0:0:
64,192,35144,1,0,0:0:0:0:
320,192,35304,1,0,0:0:0:0:
448,192,35304,1,0,0:0:0:0:
192,192,35463,1,0,0:0:0:0:
64,192,35623,1,0,0:0:0:0:
320,192,35623,1,0,0:0:0:0:
192,192,35783,1,0,0:0:0:0:
448,192,35783,1,0,0:0:0:0:
320,192,35783,1,0,0:0:0:0:
64,192,35942,1,0,0:0:0:0:
192,192,36102,1,0,0:0:0:0:
320,192,36261,1,0,0:0:0:0:
192,192,36421,1,0,0:0:0:0:
448,192,36421,1,0,0:0:0:0:
320,192,36581,1,0,0:0:0:0:
64,192,36581,1,0,0:0:0:0:
448,192,36740,1,0,0:0:0:0:
64,192,36900,1,0,0:0:0:0:
192,192,36900,1,0,0:0:0:0:
320,192,37059,1,0,0:0:0:0:
448,192,37059,1,0,0:0:0:0:
192,192,37059,1,0,0:0:0:0:
64,192,37219,1,0,0:0:0:0:
192,192,37379,1,0,0:0:0:0:
320,192,37538,1,0,0:0:0:0:
192,192,37698,1,0,0:0:0:0:
64,192,37698,1,0,0:0:0:0:
448,192,37857,1,0,0:0:0:0:
320,192,38017,1,0,0:0:0:0:
192,192,38176,1,0,0:0:0:0:
64,192,38176,1,0,0:0:0:0:
320,192,38336,1,0,0:0:0:0:
448,192,38336,1,0,0:0:0:0:
64,192,38336,1,0,0:0:0:0:
192,192,38496,1,0,0:0:0:0:
320,192,38655,1,0,0:0:0:0:
448,192,38815,1,0,0:0:0:0:
64,192,38974,1,0,0:0:0:0:
192,192,38974,1,0,0:0:0:0:
320,192,39134,1,0,0:0:0:0:
448,192,39134,1,0,0:0:0:0:
192,192,39294,1,0,0:0:0:0:
64,192,39453,1,0,0:0:0:0:
320,192,39453,1,0,0:0:0:0:
192,192,39613,1,0,0:0:0:0:
448,192,39613,1,0,0:0:0:0:
320,192,39613,1,0,0:0:0:0:
64,192,39772,1,0,0:0:0:0:
320,192,39932,1,0,0:0:0:0:
192,192,40092,1,0,0:0:0:0:
64,192,40251,1,0,0:0:0:0:
448,192,40251,1,0,0:0:0:0:
320,192,40411,1,0,0:0:0:0:
64,192,40570,1,0,0:0:0:0:
448,192,40570,1,0,0:0:0:0:
192,192,40570,1,0,0:0:0:0:
320,192,40730,1,0,0:0:0:0:
448,192,40890,1,0,0:0:0:0:
64,192,40890,1,0,0:0:0:0:
192,192,40890,1,0,0:0:0:0:
320,192,41049,1,0,0:0:0:0:
192,192,41209,1,0,0:0:0:0:
64,192,41368,1,0,0:0:0:0:
320,192,41528,5,0,0:0:0:0:
448,192,41528,128,0,41847:0:0:0:0:
64,192,41688,1,0,0:0:0:0:
192,192,41688,1,0,0:0:0:0:
320,192,41847,1,0,0:0:0:0:
64,192,42007,128,0,42326:0:0:0:0:
192,192,42007,1,0,0:0:0:0:
448,192,42166,1,0,0:0:0:0:
320,192,42166,1,0,0:0:0:0:
192,192,42326,1,0,0:0:0:0:
448,192,42485,128,0,42805:0:0:0:0:
320,192,42485,1,0,0:0:0:0:
192,192,42645,1,0,0:0:0:0:
320,192,42645,1,0,0:0:0:0:
64,192,42805,1,0,0:0:0:0:
192,192,42805,1,0,0:0:0:0:
320,192,42964,128,0,43283:0:0:0:0:
64,192,43124,1,0,0:0:0:0:
192,192,43283,1,0,0:0:0:0:
448,192,43283,1,0,0:0:0:0:
64,192,43443,1,0,0:0:0:0:
320,192,43443,1,0,0:0:0:0:
192,192,43443,128,0,43762:0:0:0:0:
448,192,43603,1,0,0:0:0:0:
64,192,43762,128,0,44081:0:0:0:0:
320,192,43762,1,0,0:0:0:0:
448,192,43922,1,0,0:0:0:0:
320,192,44081,1,0,0:0:0:0:
448,192,44081,1,0,0:0:0:0:
192,192,44081,128,0,44401:0:0:0:0:
320,192,44241,1,0,0:0:0:0:
448,192,44401,1,0,0:0:0:0:
64,192,44560,1,0,0:0:0:0:
320,192,44560,128,0,44879:0:0:0:0:
192,192,44720,1,0,0:0:0:0:
448,192,44720,1,0,0:0:0:0:
64,192,44720,1,0,0:0:0:0:
192,192,44879,1,0,0:0:0:0:
448,192,45039,128,0,45358:0:0:0:0:
64,192,45039,1,0,0:0:0:0:
320,192,45199,1,0,0:0:0:0:
192,192,45358,1,0,0:0:0:0:
64,192,45358,1,0,0:0:0:0:
448,192,45518,1,0,0:0:0:0:
320,192,45518,128,0,45837:0:0:0:0:
192,192,45518,1,0,0:0:0:0:
64,192,45677,1,0,0:0:0:0:
64,192,45837,1,0,0:0:0:0:
192,192,45837,1,0,0:0:0:0:
64,192,45996,1,0,0:0:0:0:
448,192,45996,128,0,46316:0:0:0:0:
320,192,45996,1,0,0:0:0:0:
192,192,46156,1,0,0:0:0:0:
320,192,46316,128,0,46635:0:0:0:0:
64,192,46316,1,0,0:0:0:0:
192,192,46475,1,0,0:0:0:0:
192,192,46635,1,0,0:0:0:0:
64,192,46635,128,0,46954:0:0:0:0:
320,192,46794,1,0,0:0:0:0:
448,192,46794,1,0,0:0:0:0:
448,192,46954,1,0,0:0:0:0:
320,192,47114,128,0,47433:0:0:0:0:
192,192,47114,1,0,0:0:0:0:
192,192,47273,1,0,0:0:0:0:
64,192,47273,1,0,0:0:0:0:
448,192,47433,1,0,0:0:0:0:
192,192,47592,128,0,47912:0:0:0:0:
64,192,47592,1,0,0:0:0:0:
320,192,47752,1,0,0:0:0:0:
448,192,47752,1,0,0:0:0:0:
320,192,47912,1,0,0:0:0:0:
64,192,47912,1,0,0:0:0:0:
448,192,48071,128,0,48390:0:0:0:0:
192,192,48071,1,0,0:0:0:0:
64,192,48231,1,0,0:0:0:0:
192,192,48390,1,0,0:0:0:0:
320,192,48550,128,0,48869:0:0:0:0:
64,192,48550,1,0,0:0:0:0:
448,192,48550,1,0,0:0:0:0:
192,192,48710,1,0,0:0:0:0:
192,192,48869,128,0,49188:0:0:0:0:
448,192,48869,1,0,0:0:0:0:
64,192,49029,1,0,0:0:0:0:
448,192,49029,1,0,0:0:0:0:
64,192,49188,128,0,49507:0:0:0:0:
320,192,49188,1,0,0:0:0:0:
448,192,49348,1,0,0:0:0:0:
320,192,49507,1,0,0:0:0:0:
192,192,49667,128,0,49986:0:0:0:0:
320,192,49667,1,0,0:0:0:0:
448,192,49827,1,0,0:0:0:0:
64,192,49827,1,0,0:0:0:0:
320,192,49986,1,0,0:0:0:0:
448,192,50146,128,0,50465:0:0:0:0:
192,192,50146,1,0,0:0:0:0:
64,192,50305,1,0,0:0:0:0:
320,192,50305,1,0,0:0:0:0:
192,192,50465,1,0,0:0:0:0:
320,192,50465,1,0,0:0:0:0:
320,192,50625,128,0,50944:0:0:0:0:
64,192,50625,1,0,0:0:0:0:
192,192,50784,1,0,0:0:0:0:
448,192,50944,1,0,0:0:0:0:
64,192,50944,1,0,0:0:0:0:
64,192,51103,128,0,51423:0:0:0:0:
192,192,51103,1,0,0:0:0:0:
320,192,51263,1,0,0:0:0:0:
192,192,51423,128,0,51742:0:0:0:0:
448,192,51423,1,0,0:0:0:0:
320,192,51423,1,0,0:0:0:0:
448,192,51582,1,0,0:0:0:0:
320,192,51742,1,0,0:0:0:0:
448,192,51742,1,0,0:0:0:0:
64,192,51742,128,0,54295:0:0:0:0:
192,192,52380,128,0,53018:0:0:0:0:
320,192,53018,128,0,53657:0:0:0:0:
448,192,53657,128,0,54295:0:0:0:0:
192,192,54295,128,0,56530:0:0:0:0:
320,192,54295,128,0,56210:0:0:0:0:
64,192,55572,128,0,56849:0:0:0:0:
448,192,55572,128,0,55891:0:0:0:0:
320,192,56849,1,0,0:0:0:0:
448,192,56849,1,0,0:0:0:0:
320,192,57168,1,0,0:0:0:0:
448,192,57327,1,0,0:0:0:0:
320,192,57487,1,0,0:0:0:0:
192,192,57487,1,0,0:0:0:0:
192,192,57806,1,0,0:0:0:0:
320,192,57966,1,0,0:0:0:0:
192,192,58125,1,0,0:0:0:0:
64,192,58125,1,0,0:0:0:0:
64,192,58445,1,0,0:0:0:0:
192,192,58604,1,0,0:0:0:0:
320,192,58764,1,0,0:0:0:0:
448,192,58764,1,0,0:0:0:0:
448,192,59083,1,0,0:0:0:0:
448,192,59243,1,0,0:0:0:0:
320,192,59402,1,0,0:0:0:0:
192,192,59402,1,0,0:0:0:0:
64,192,59402,1,0,0:0:0:0:
192,192,59721,1,0,0:0:0:0:
320,192,59881,1,0,0:0:0:0:
192,192,60041,1,0,0:0:0:0:
448,192,60041,1,0,0:0:0:0:
64,192,60360,1,0,0:0:0:0:
320,192,61956,1,0,0:0:0:0:
448,192,61956,1,0,0:0:0:0:
64,192,62275,1,0,0:0:0:0:
192,192,62434,1,0,0:0:0:0:
320,192,62594,1,0,0:0:0:0:
64,192,62594,1,0,0:0:0:0:
192,192,62913,1,0,0:0:0:0:
320,192,63073,1,0,0:0:0:0:
192,192,63232,1,0,0:0:0:0:
64,192,63232,1,0,0:0:0:0:
448,192,63552,1,0,0:0:0:0:
320,192,63711,1,0,0:0:0:0:
192,192,63871,1,0,0:0:0:0:
448,192,63871,1,0,0:0:0:0:
320,192,64190,1,0,0:0:0:0:
320,192,64349,1,0,0:0:0:0:
192,192,64509,1,0,0:0:0:0:
64,192,64509,1,0,0:0:0:0:
448,192,64509,1,0,0:0:0:0:
192,192,64828,1,0,0:0:0:0:
320,192,64988,1,0,0:0:0:0:
448,192,65147,1,0,0:0:0:0:
64,192,65147,1,0,0:0:0:0:
64,192,65467,1,0,0:0:0:0:
192,192,65626,1,0,0:0:0:0:
320,192,65786,1,0,0:0:0:0:
448,192,65786,1,0,0:0:0:0:
192,192,66105,1,0,0:0:0:0:
64,192,66105,1,0,0:0:0:0:
320,192,66265,1,0,0:0:0:0:
192,192,66424,1,0,0:0:0:0:
448,192,66424,1,0,0:0:0:0:
64,192,66584,1,0,0:0:0:0:
192,192,66743,1,0,0:0:0:0:
320,192,66903,1,0,0:0:0:0:
192,192,67063,1,0,0:0:0:0:
64,192,67063,1,0,0:0:0:0:
448,192,67063,128,0,68020:0:0:0:0:
192,192,68020,128,0,68180:0:0:0:0:
320,192,68180,128,0,68499:0:0:0:0:
192,192,68499,128,0,68658:0:0:0:0:
448,192,68658,128,0,69297:0:0:0:0:
448,192,69616,1,0,0:0:0:0:
192,192,69616,1,0,0:0:0:0:
64,192,69616,128,0,72169:0:0:0:0:
320,192,69935,1,0,0:0:0:0:
192,192,70095,1,0,0:0:0:0:
320,192,70254,1,0,0:0:0:0:
448,192,70254,1,0,0:0:0:0:
192,192,70574,1,0,0:0:0:0:
320,192,70733,1,0,0:0:0:0:
448,192,70893,1,0,0:0:0:0:
192,192,70893,1,0,0:0:0:0:
320,192,71212,1,0,0:0:0:0:
448,192,71372,1,0,0:0:0:0:
192,192,71531,1,0,0:0:0:0:
320,192,71531,1,0,0:0:0:0:
448,192,71691,1,0,0:0:0:0:
320,192,71850,1,0,0:0:0:0:
192,192,72010,1,0,0:0:0:0:
448,192,72169,1,0,0:0:0:0:
320,192,72169,1,0,0:0:0:0:
192,192,72489,1,0,0:0:0:0:
320,192,72648,1,0,0:0:0:0:
448,192,72808,1,0,0:0:0:0:
192,192,72808,1,0,0:0:0:0:
64,192,73127,1,0,0:0:0:0:
192,192,73287,1,0,0:0:0:0:
320,192,73446,1,0,0:0:0:0:
448,192,73446,1,0,0:0:0:0:
192,192,73765,1,0,0:0:0:0:
320,192,73925,1,0,0:0:0:0:
192,192,74085,1,0,0:0:0:0:
64,192,74085,1,0,0:0:0:0:
448,192,74244,1,0,0:0:0:0:
320,192,74404,1,0,0:0:0:0:
192,192,74563,1,0,0:0:0:0:
320,192,74723,1,0,0:0:0:0:
64,192,74723,1,0,0:0:0:0:
448,192,74723,128,0,76638:0:0:0:0:
192,192,74883,1,0,0:0:0:0:
64,192,75042,1,0,0:0:0:0:
320,192,75202,1,0,0:0:0:0:
192,192,75361,1,0,0:0:0:0:
64,192,75361,1,0,0:0:0:0:
192,192,75680,1,0,0:0:0:0:
64,192,75840,1,0,0:0:0:0:
192,192,76000,1,0,0:0:0:0:
320,192,76000,1,0,0:0:0:0:
64,192,76159,1,0,0:0:0:0:
320,192,76319,1,0,0:0:0:0:
192,192,76478,1,0,0:0:0:0:
64,192,76638,128,0,76957:0:0:0:0:
320,192,76638,128,0,76957:0:0:0:0:
192,192,76957,1,0,0:0:0:0:
320,192,77276,5,0,0:0:0:0:
448,192,77276,1,0,0:0:0:0:
64,192,77436,1,0,0:0:0:0:
192,192,77436,1,0,0:0:0:0:
320,192,77596,1,0,0:0:0:0:
64,192,77755,1,0,0:0:0:0:
448,192,77755,1,0,0:0:0:0:
192,192,77915,1,0,0:0:0:0:
320,192,77915,1,0,0:0:0:0:
448,192,78074,1,0,0:0:0:0:
64,192,78234,1,0,0:0:0:0:
192,192,78394,1,0,0:0:0:0:
320,192,78553,1,0,0:0:0:0:
448,192,78553,1,0,0:0:0:0:
64,192,78713,1,0,0:0:0:0:
192,192,78872,1,0,0:0:0:0:
320,192,79032,1,0,0:0:0:0:
448,192,79032,1,0,0:0:0:0:
192,192,79191,1,0,0:0:0:0:
448,192,79191,1,0,0:0:0:0:
64,192,79191,1,0,0:0:0:0:
320,192,79351,1,0,0:0:0:0:
192,192,79511,1,0,0:0:0:0:
64,192,79670,1,0,0:0:0:0:
192,192,79830,1,0,0:0:0:0:
448,192,79830,1,0,0:0:0:0:
320,192,79989,1,0,0:0:0:0:
192,192,80149,1,0,0:0:0:0:
64,192,80309,1,0,0:0:0:0:
320,192,80309,1,0,0:0:0:0:
192,192,80468,1,0,0:0:0:0:
448,192,80468,1,0,0:0:0:0:
64,192,80468,1,0,0:0:0:0:
320,192,80628,1,0,0:0:0:0:
192,192,80787,1,0,0:0:0:0:
64,192,80947,1,0,0:0:0:0:
320,192,81107,1,0,0:0:0:0:
192,192,81107,1,0,0:0:0:0:
64,192,81266,1,0,0:0:0:0:
448,192,81266,1,0,0:0:0:0:
320,192,81426,1,0,0:0:0:0:
192,192,81585,1,0,0:0:0:0:
448,192,81585,1,0,0:0:0:0:
192,192,81745,1,0,0:0:0:0:
320,192,81745,1,0,0:0:0:0:
64,192,81745,1,0,0:0:0:0:
448,192,81905,1,0,0:0:0:0:
320,192,82064,1,0,0:0:0:0:
64,192,82224,1,0,0:0:0:0:
192,192,82383,1,0,0:0:0:0:
320,192,82383,1,0,0:0:0:0:
448,192,82543,1,0,0:0:0:0:
64,192,82543,1,0,0:0:0:0:
320,192,82703,1,0,0:0:0:0:
64,192,82862,1,0,0:0:0:0:
448,192,82862,1,0,0:0:0:0:
320,192,83022,1,0,0:0:0:0:
448,192,83022,1,0,0:0:0:0:
192,192,83022,1,0,0:0:0:0:
64,192,83181,1,0,0:0:0:0:
192,192,83341,1,0,0:0:0:0:
320,192,83500,1,0,0:0:0:0:
192,192,83660,1,0,0:0:0:0:
448,192,83660,1,0,0:0:0:0:
64,192,83820,1,0,0:0:0:0:
192,192,83979,1,0,0:0:0:0:
320,192,84139,1,0,0:0:0:0:
64,192,84139,1,0,0:0:0:0:
192,192,84298,1,0,0:0:0:0:
448,192,84298,1,0,0:0:0:0:
64,192,84298,1,0,0:0:0:0:
320,192,84458,1,0,0:0:0:0:
192,192,84618,1,0,0:0:0:0:
64,192,84777,1,0,0:0:0:0:
320,192,84937,1,0,0:0:0:0:
448,192,84937,1,0,0:0:0:0:
64,192,85096,1,0,0:0:0:0:
192,192,85096,1,0,0:0:0:0:
320,192,85256,1,0,0:0:0:0:
64,192,85416,1,0,0:0:0:0:
448,192,85416,1,0,0:0:0:0:
192,192,85575,1,0,0:0:0:0:
448,192,85575,1,0,0:0:0:0:
320,192,85575,1,0,0:0:0:0:
64,192,85735,1,0,0:0:0:0:
192,192,85894,1,0,0:0:0:0:
320,192,86054,1,0,0:0:0:0:
64,192,86214,1,0,0:0:0:0:
448,192,86214,1,0,0:0:0:0:
192,192,86373,1,0,0:0:0:0:
64,192,86533,1,0,0:0:0:0:
448,192,86533,1,0,0:0:0:0:
320,192,86533,1,0,0:0:0:0:
192,192,86692,1,0,0:0:0:0:
448,192,86852,1,0,0:0:0:0:
64,192,86852,1,0,0:0:0:0:
320,192,86852,1,0,0:0:0:0:
192,192,87011,1,0,0:0:0:0:
320,192,87171,1,0,0:0:0:0:
448,192,87331,1,0,0:0:0:0:
64,192,87490,5,0,0:0:0:0:
192,192,87490,128,0,87809:0:0:0:0:
448,192,87650,1,0,0:0:0:0:
320,192,87650,1,0,0:0:0:0:
64,192,87809,1,0,0:0:0:0:
320,192,87969,128,0,88288:0:0:0:0:
448,192,87969,1,0,0:0:0:0:
192,192,88129,1,0,0:0:0:0:
64,192,88129,1,0,0:0:0:0:
192,192,88288,1,0,0:0:0:0:
448,192,88448,128,0,88767:0:0:0:0:
64,192,88448,1,0,0:0:0:0:
64,192,88607,1,0,0:0:0:0:
192,192,88607,1,0,0:0:0:0:
192,192,88767,1,0,0:0:0:0:
320,192,88767,1,0,0:0:0:0:
320,192,88927,128,0,89246:0:0:0:0:
64,192,89086,1,0,0:0:0:0:
192,192,89246,1,0,0:0:0:0:
448,192,89246,1,0,0:0:0:0:
320,192,89405,1,0,0:0:0:0:
448,192,89405,1,0,0:0:0:0:
64,192,89405,128,0,89725:0:0:0:0:
192,192,89565,1,0,0:0:0:0:
192,192,89725,128,0,90044:0:0:0:0:
448,192,89725,1,0,0:0:0:0:
320,192,89884,1,0,0:0:0:0:
64,192,90044,1,0,0:0:0:0:
320,192,90044,1,0,0:0:0:0:
448,192,90044,128,0,90363:0:0:0:0:
192,192,90203,1,0,0:0:0:0:
64,192,90363,1,0,0:0:0:0:
192,192,90522,1,0,0:0:0:0:
320,192,90522,128,0,90842:0:0:0:0:
192,192,90682,1,0,0:0:0:0:
64,192,90682,1,0,0:0:0:0:
448,192,90842,1,0,0:0:0:0:
192,192,91001,128,0,91320:0:0:0:0:
64,192,91001,1,0,0:0:0:0:
448,192,91161,1,0,0:0:0:0:
320,192,91320,1,0,0:0:0:0:
64,192,91320,1,0,0:0:0:0:
448,192,91480,1,0,0:0:0:0:
320,192,91480,128,0,91799:0:0:0:0:
192,192,91480,1,0,0:0:0:0:
64,192,91640,1,0,0:0:0:0:
64,192,91799,1,0,0:0:0:0:
192,192,91799,1,0,0:0:0:0:
192,192,91959,1,0,0:0:0:0:
448,192,91959,128,0,92278:0:0:0:0:
320,192,91959,1,0,0:0:0:0:
64,192,92118,1,0,0:0:0:0:
320,192,92278,128,0,92597:0:0:0:0:
192,192,92278,1,0,0:0:0:0:
448,192,92438,1,0,0:0:0:0:
192,192,92597,1,0,0:0:0:0:
64,192,92597,128,0,92916:0:0:0:0:
320,192,92757,1,0,0:0:0:0:
192,192,92757,1,0,0:0:0:0:
448,192,92916,1,0,0:0:0:0:
320,192,93076,128,0,93395:0:0:0:0:
192,192,93076,1,0,0:0:0:0:
192,192,93236,1,0,0:0:0:0:
64,192,93236,1,0,0:0:0:0:
448,192,93395,1,0,0:0:0:0:
192,192,93555,128,0,93874:0:0:0:0:
64,192,93555,1,0,0:0:0:0:
320,192,93714,1,0,0:0:0:0:
448,192,93714,1,0,0:0:0:0:
320,192,93874,1,0,0:0:0:0:
64,192,93874,1,0,0:0:0:0:
448,192,94033,128,0,94353:0:0:0:0:
192,192,94033,1,0,0:0:0:0:
64,192,94193,1,0,0:0:0:0:
192,192,94353,1,0,0:0:0:0:
320,192,94512,128,0,94831:0:0:0:0:
64,192,94512,1,0,0:0:0:0:
448,192,94512,1,0,0:0:0:0:
192,192,94672,1,0,0:0:0:0:
192,192,94831,128,0,95151:0:0:0:0:
448,192,94831,1,0,0:0:0:0:
64,192,94991,1,0,0:0:0:0:
448,192,94991,1,0,0:0:0:0:
64,192,95151,128,0,95470:0:0:0:0:
320,192,95151,1,0,0:0:0:0:
448,192,95310,1,0,0:0:0:0:
320,192,95470,1,0,0:0:0:0:
192,192,95629,128,0,95949:0:0:0:0:
320,192,95629,1,0,0:0:0:0:
448,192,95789,1,0,0:0:0:0:
64,192,95789,1,0,0:0:0:0:
320,192,95949,1,0,0:0:0:0:
448,192,96108,128,0,96427:0:0:0:0:
192,192,96108,1,0,0:0:0:0:
64,192,96268,1,0,0:0:0:0:
320,192,96268,1,0,0:0:0:0:
192,192,96427,1,0,0:0:0:0:
320,192,96427,1,0,0:0:0:0:
320,192,96587,128,0,96906:0:0:0:0:
64,192,96587,1,0,0:0:0:0:
192,192,96747,1,0,0:0:0:0:
448,192,96906,1,0,0:0:0:0:
64,192,96906,1,0,0:0:0:0:
192,192,97066,128,0,97385:0:0:0:0:
320,192,97066,1,0,0:0:0:0:
448,192,97225,1,0,0:0:0:0:
320,192,97385,128,0,97704:0:0:0:0:
448,192,97385,1,0,0:0:0:0:
64,192,97385,1,0,0:0:0:0:
192,192,97545,1,0,0:0:0:0:
448,192,97704,1,0,0:0:0:0:
64,192,97704,128,0,100258:0:0:0:0:
192,192,97704,1,0,0:0:0:0:
320,192,100258,128,0,102811:0:0:0:0:
192,192,102811,128,0,105364:0:0:0:0:
448,192,105364,128,0,107918:0:0:0:0:
64,192,107918,128,0,110471:0:0:0:0:
192,192,110471,128,0,113025:0:0:0:0:
448,192,113025,128,0,115578:0:0:0:0:
320,192,115578,128,0,118132:0:0:0:0:
192,192,118132,128,0,125792:0:0:0:0:
448,192,125792,128,0,128346:0:0:0:0:
64,192,128346,5,0,0:0:0:0:
192,192,128346,1,0,0:0:0:0:
320,192,128505,1,0,0:0:0:0:
448,192,128505,1,0,0:0:0:0:
192,192,128665,1,0,0:0:0:0:
64,192,128824,1,0,0:0:0:0:
320,192,128824,1,0,0:0:0:0:
192,192,128984,1,0,0:0:0:0:
448,192,128984,1,0,0:0:0:0:
320,192,129144,1,0,0:0:0:0:
192,192,129303,1,0,0:0:0:0:
64,192,129463,1,0,0:0:0:0:
192,192,129622,1,0,0:0:0:0:
320,192,129622,1,0,0:0:0:0:
448,192,129782,1,0,0:0:0:0:
320,192,129942,1,0,0:0:0:0:
192,192,130101,1,0,0:0:0:0:
448,192,130101,1,0,0:0:0:0:
320,192,130261,1,0,0:0:0:0:
448,192,130261,1,0,0:0:0:0:
64,192,130261,1,0,0:0:0:0:
192,192,130420,1,0,0:0:0:0:
320,192,130580,1,0,0:0:0:0:
192,192,130740,1,0,0:0:0:0:
320,192,130899,1,0,0:0:0:0:
448,192,130899,1,0,0:0:0:0:
64,192,131059,1,0,0:0:0:0:
192,192,131218,1,0,0:0:0:0:
64,192,131378,1,0,0:0:0:0:
320,192,131378,1,0,0:0:0:0:
192,192,131537,1,0,0:0:0:0:
448,192,131537,1,0,0:0:0:0:
64,192,131537,1,0,0:0:0:0:
320,192,131697,1,0,0:0:0:0:
448,192,131857,1,0,0:0:0:0:
320,192,132016,1,0,0:0:0:0:
192,192,132176,1,0,0:0:0:0:
64,192,132176,1,0,0:0:0:0:
320,192,132335,1,0,0:0:0:0:
448,192,132335,1,0,0:0:0:0:
192,192,132495,1,0,0:0:0:0:
64,192,132655,1,0,0:0:0:0:
320,192,132655,1,0,0:0:0:0:
192,192,132814,1,0,0:0:0:0:
448,192,132814,1,0,0:0:0:0:
320,192,132814,1,0,0:0:0:0:
64,192,132974,1,0,0:0:0:0:
192,192,133133,1,0,0:0:0:0:
320,192,133293,1,0,0:0:0:0:
192,192,133453,1,0,0:0:0:0:
448,192,133453,1,0,0:0:0:0:
320,192,133612,1,0,0:0:0:0:
64,192,133612,1,0,0:0:0:0:
448,192,133772,1,0,0:0:0:0:
64,192,133931,1,0,0:0:0:0:
192,192,133931,1,0,0:0:0:0:
320,192,134091,1,0,0:0:0:0:
448,192,134091,1,0,0:0:0:0:
192,192,134091,1,0,0:0:0:0:
64,192,134251,1,0,0:0:0:0:
192,192,134410,1,0,0:0:0:0:
320,192,134570,1,0,0:0:0:0:
192,192,134729,1,0,0:0:0:0:
64,192,134729,1,0,0:0:0:0:
448,192,134889,1,0,0:0:0:0:
320,192,135048,1,0,0:0:0:0:
192,192,135208,1,0,0:0:0:0:
64,192,135208,1,0,0:0:0:0:
320,192,135368,1,0,0:0:0:0:
448,192,135368,1,0,0:0:0:0:
64,192,135368,1,0,0:0:0:0:
192,192,135527,1,0,0:0:0:0:
320,192,135687,1,0,0:0:0:0:
448,192,135846,1,0,0:0:0:0:
64,192,136006,1,0,0:0:0:0:
192,192,136006,1,0,0:0:0:0:
320,192,136166,1,0,0:0:0:0:
448,192,136166,1,0,0:0:0:0:
192,192,136325,1,0,0:0:0:0:
64,192,136485,1,0,0:0:0:0:
320,192,136485,1,0,0:0:0:0:
192,192,136644,1,0,0:0:0:0:
448,192,136644,1,0,0:0:0:0:
320,192,136644,1,0,0:0:0:0:
64,192,136804,1,0,0:0:0:0:
320,192,136964,1,0,0:0:0:0:
192,192,137123,1,0,0:0:0:0:
64,192,137283,1,0,0:0:0:0:
448,192,137283,1,0,0:0:0:0:
320,192,137442,1,0,0:0:0:0:
64,192,137602,1,0,0:0:0:0:
448,192,137602,1,0,0:0:0:0:
192,192,137602,1,0,0:0:0:0:
320,192,137762,1,0,0:0:0:0:
448,192,137921,1,0,0:0:0:0:
64,192,137921,1,0,0:0:0:0:
192,192,137921,1,0,0:0:0:0:
320,192,138081,1,0,0:0:0:0:
192,192,138240,1,0,0:0:0:0:
64,192,138400,1,0,0:0:0:0:
320,192,138560,5,0,0:0:0:0:
448,192,138560,1,0,0:0:0:0:
64,192,138719,1,0,0:0:0:0:
192,192,138719,1,0,0:0:0:0:
320,192,138879,1,0,0:0:0:0:
64,192,139038,1,0,0:0:0:0:
448,192,139038,1,0,0:0:0:0:
192,192,139198,1,0,0:0:0:0:
320,192,139198,1,0,0:0:0:0:
448,192,139357,1,0,0:0:0:0:
64,192,139517,1,0,0:0:0:0:
192,192,139677,1,0,0:0:0:0:
320,192,139836,1,0,0:0:0:0:
448,192,139836,1,0,0:0:0:0:
64,192,139996,1,0,0:0:0:0:
192,192,140155,1,0,0:0:0:0:
320,192,140315,1,0,0:0:0:0:
448,192,140315,1,0,0:0:0:0:
192,192,140475,1,0,0:0:0:0:
448,192,140475,1,0,0:0:0:0:
64,192,140475,1,0,0:0:0:0:
320,192,140634,1,0,0:0:0:0:
192,192,140794,1,0,0:0:0:0:
64,192,140953,1,0,0:0:0:0:
192,192,141113,1,0,0:0:0:0:
448,192,141113,1,0,0:0:0:0:
320,192,141273,1,0,0:0:0:0:
192,192,141432,1,0,0:0:0:0:
64,192,141592,1,0,0:0:0:0:
320,192,141592,1,0,0:0:0:0:
192,192,141751,1,0,0:0:0:0:
448,192,141751,1,0,0:0:0:0:
64,192,141751,1,0,0:0:0:0:
320,192,141911,1,0,0:0:0:0:
192,192,142071,1,0,0:0:0:0:
64,192,142230,1,0,0:0:0:0:
320,192,142390,1,0,0:0:0:0:
192,192,142390,1,0,0:0:0:0:
64,192,142549,1,0,0:0:0:0:
448,192,142549,1,0,0:0:0:0:
320,192,142709,1,0,0:0:0:0:
192,192,142868,1,0,0:0:0:0:
448,192,142868,1,0,0:0:0:0:
192,192,143028,1,0,0:0:0:0:
320,192,143028,1,0,0:0:0:0:
64,192,143028,1,0,0:0:0:0:
448,192,143188,1,0,0:0:0:0:
320,192,143347,1,0,0:0:0:0:
64,192,143507,1,0,0:0:0:0:
192,192,143666,1,0,0:0:0:0:
320,192,143666,1,0,0:0:0:0:
448,192,143826,1,0,0:0:0:0:
64,192,143826,1,0,0:0:0:0:
320,192,143986,1,0,0:0:0:0:
64,192,144145,1,0,0:0:0:0:
448,192,144145,1,0,0:0:0:0:
320,192,144305,1,0,0:0:0:0:
448,192,144305,1,0,0:0:0:0:
192,192,144305,1,0,0:0:0:0:
64,192,144464,1,0,0:0:0:0:
192,192,144624,1,0,0:0:0:0:
320,192,144784,1,0,0:0:0:0:
192,192,144943,1,0,0:0:0:0:
448,192,144943,1,0,0:0:0:0:
64,192,145103,1,0,0:0:0:0:
192,192,145262,1,0,0:0:0:0:
320,192,145422,1,0,0:0:0:0:
64,192,145422,1,0,0:0:0:0:
192,192,145582,1,0,0:0:0:0:
448,192,145582,1,0,0:0:0:0:
64,192,145582,1,0,0:0:0:0:
320,192,145741,1,0,0:0:0:0:
192,192,145901,1,0,0:0:0:0:
64,192,146060,1,0,0:0:0:0:
320,192,146220,1,0,0:0:0:0:
448,192,146220,1,0,0:0:0:0:
64,192,146379,1,0,0:0:0:0:
192,192,146379,1,0,0:0:0:0:
320,192,146539,1,0,0:0:0:0:
64,192,146699,1,0,0:0:0:0:
448,192,146699,1,0,0:0:0:0:
192,192,146858,1,0,0:0:0:0:
448,192,146858,1,0,0:0:0:0:
320,192,146858,1,0,0:0:0:0:
64,192,147018,1,0,0:0:0:0:
192,192,147177,1,0,0:0:0:0:
320,192,147337,1,0,0:0:0:0:
192,192,147497,1,0,0:0:0:0:
448,192,147497,1,0,0:0:0:0:
320,192,147656,1,0,0:0:0:0:
64,192,147816,1,0,0:0:0:0:
448,192,147816,1,0,0:0:0:0:
192,192,147816,1,0,0:0:0:0:
320,192,147975,1,0,0:0:0:0:
448,192,148135,1,0,0:0:0:0:
64,192,148135,1,0,0:0:0:0:
192,192,148135,1,0,0:0:0:0:
320,192,148295,1,0,0:0:0:0:
192,192,148454,1,0,0:0:0:0:
64,192,148614,1,0,0:0:0:0:
320,192,148773,5,0,0:0:0:0:
448,192,148773,128,0,149093:0:0:0:0:
64,192,148933,1,0,0:0:0:0:
192,192,148933,1,0,0:0:0:0:
320,192,149093,1,0,0:0:0:0:
64,192,149252,128,0,149571:0:0:0:0:
192,192,149252,1,0,0:0:0:0:
448,192,149412,1,0,0:0:0:0:
320,192,149412,1,0,0:0:0:0:
192,192,149571,1,0,0:0:0:0:
448,192,149731,128,0,150050:0:0:0:0:
320,192,149731,1,0,0:0:0:0:
192,192,149891,1,0,0:0:0:0:
320,192,149891,1,0,0:0:0:0:
64,192,150050,1,0,0:0:0:0:
192,192,150050,1,0,0:0:0:0:
320,192,150210,128,0,150529:0:0:0:0:
64,192,150369,1,0,0:0:0:0:
192,192,150529,1,0,0:0:0:0:
448,192,150529,1,0,0:0:0:0:
64,192,150688,1,0,0:0:0:0:
320,192,150688,1,0,0:0:0:0:
192,192,150688,128,0,151008:0:0:0:0:
448,192,150848,1,0,0:0:0:0:
64,192,151008,128,0,151327:0:0:0:0:
320,192,151008,1,0,0:0:0:0:
448,192,151167,1,0,0:0:0:0:
320,192,151327,1,0,0:0:0:0:
448,192,151327,1,0,0:0:0:0:
192,192,151327,128,0,151646:0:0:0:0:
320,192,151486,1,0,0:0:0:0:
448,192,151646,1,0,0:0:0:0:
64,192,151806,1,0,0:0:0:0:
320,192,151806,128,0,152125:0:0:0:0:
192,192,151965,1,0,0:0:0:0:
448,192,151965,1,0,0:0:0:0:
64,192,151965,1,0,0:0:0:0:
192,192,152125,1,0,0:0:0:0:
448,192,152284,128,0,152604:0:0:0:0:
64,192,152284,1,0,0:0:0:0:
320,192,152444,1,0,0:0:0:0:
192,192,152604,1,0,0:0:0:0:
64,192,152604,1,0,0:0:0:0:
448,192,152763,1,0,0:0:0:0:
320,192,152763,128,0,153082:0:0:0:0:
192,192,152763,1,0,0:0:0:0:
64,192,152923,1,0,0:0:0:0:
64,192,153082,1,0,0:0:0:0:
192,192,153082,1,0,0:0:0:0:
192,192,153242,1,0,0:0:0:0:
448,192,153242,128,0,153561:0:0:0:0:
320,192,153242,1,0,0:0:0:0:
64,192,153402,1,0,0:0:0:0:
320,192,153561,128,0,153880:0:0:0:0:
192,192,153561,1,0,0:0:0:0:
448,192,153721,1,0,0:0:0:0:
192,192,153880,1,0,0:0:0:0:
64,192,153880,128,0,154199:0:0:0:0:
320,192,154040,1,0,0:0:0:0:
448,192,154040,1,0,0:0:0:0:
448,192,154199,1,0,0:0:0:0:
320,192,154359,128,0,154678:0:0:0:0:
192,192,154359,1,0,0:0:0:0:
192,192,154519,1,0,0:0:0:0:
64,192,154519,1,0,0:0:0:0:
448,192,154678,1,0,0:0:0:0:
192,192,154838,128,0,155157:0:0:0:0:
64,192,154838,1,0,0:0:0:0:
320,192,154997,1,0,0:0:0:0:
448,192,154997,1,0,0:0:0:0:
320,192,155157,1,0,0:0:0:0:
64,192,155157,1,0,0:0:0:0:
448,192,155317,128,0,155636:0:0:0:0:
192,192,155317,1,0,0:0:0:0:
320,192,155476,1,0,0:0:0:0:
192,192,155636,1,0,0:0:0:0:
320,192,155795,128,0,156115:0:0:0:0:
64,192,155795,1,0,0:0:0:0:
448,192,155795,1,0,0:0:0:0:
192,192,155955,1,0,0:0:0:0:
192,192,156115,128,0,156434:0:0:0:0:
448,192,156115,1,0,0:0:0:0:
64,192,156274,1,0,0:0:0:0:
448,192,156274,1,0,0:0:0:0:
64,192,156434,128,0,156753:0:0:0:0:
320,192,156434,1,0,0:0:0:0:
448,192,156593,1,0,0:0:0:0:
320,192,156753,1,0,0:0:0:0:
192,192,156913,128,0,157232:0:0:0:0:
320,192,156913,1,0,0:0:0:0:
448,192,157072,1,0,0:0:0:0:
64,192,157072,1,0,0:0:0:0:
320,192,157232,1,0,0:0:0:0:
448,192,157391,128,0,157710:0:0:0:0:
192,192,157391,1,0,0:0:0:0:
64,192,157551,1,0,0:0:0:0:
320,192,157551,1,0,0:0:0:0:
192,192,157710,1,0,0:0:0:0:
320,192,157710,1,0,0:0:0:0:
320,192,157870,128,0,158189:0:0:0:0:
64,192,157870,1,0,0:0:0:0:
192,192,158030,1,0,0:0:0:0:
448,192,158189,1,0,0:0:0:0:
64,192,158189,1,0,0:0:0:0:
64,192,158349,128,0,158668:0:0:0:0:
192,192,158349,1,0,0:0:0:0:
320,192,158508,1,0,0:0:0:0:
448,192,158668,1,0,0:0:0:0:
192,192,158668,1,0,0:0:0:0:
64,192,158828,1,0,0:0:0:0:
320,192,158987,5,0,0:0:0:0:
448,192,158987,1,0,0:0:0:0:
64,192,159147,1,0,0:0:0:0:
192,192,159147,1,0,0:0:0:0:
320,192,159306,1,0,0:0:0:0:
64,192,159466,1,0,0:0:0:0:
448,192,159466,1,0,0:0:0:0:
192,192,159626,1,0,0:0:0:0:
320,192,159626,1,0,0:0:0:0:
448,192,159785,1,0,0:0:0:0:
64,192,159945,1,0,0:0:0:0:
192,192,160104,1,0,0:0:0:0:
320,192,160264,1,0,0:0:0:0:
448,192,160264,1,0,0:0:0:0:
64,192,160424,1,0,0:0:0:0:
192,192,160583,1,0,0:0:0:0:
320,192,160743,1,0,0:0:0:0:
448,192,160743,1,0,0:0:0:0:
192,192,160902,1,0,0:0:0:0:
448,192,160902,1,0,0:0:0:0:
64,192,160902,1,0,0:0:0:0:
320,192,161062,1,0,0:0:0:0:
192,192,161221,1,0,0:0:0:0:
64,192,161381,1,0,0:0:0:0:
192,192,161541,1,0,0:0:0:0:
448,192,161541,1,0,0:0:0:0:
320,192,161700,1,0,0:0:0:0:
192,192,161860,1,0,0:0:0:0:
64,192,162019,1,0,0:0:0:0:
320,192,162019,1,0,0:0:0:0:
192,192,162179,1,0,0:0:0:0:
448,192,162179,1,0,0:0:0:0:
64,192,162179,1,0,0:0:0:0:
320,192,162339,1,0,0:0:0:0:
192,192,162498,1,0,0:0:0:0:
64,192,162658,1,0,0:0:0:0:
320,192,162817,1,0,0:0:0:0:
192,192,162817,1,0,0:0:0:0:
64,192,162977,1,0,0:0:0:0:
448,192,162977,1,0,0:0:0:0:
320,192,163137,1,0,0:0:0:0:
192,192,163296,1,0,0:0:0:0:
448,192,163296,1,0,0:0:0:0:
192,192,163456,1,0,0:0:0:0:
320,192,163456,1,0,0:0:0:0:
64,192,163456,1,0,0:0:0:0:
448,192,163615,1,0,0:0:0:0:
320,192,163775,1,0,0:0:0:0:
64,192,163935,1,0,0:0:0:0:
192,192,164094,1,0,0:0:0:0:
320,192,164094,1,0,0:0:0:0:
448,192,164254,1,0,0:0:0:0:
64,192,164254,1,0,0:0:0:0:
320,192,164413,1,0,0:0:0:0:
64,192,164573,1,0,0:0:0:0:
448,192,164573,1,0,0:0:0:0:
320,192,164733,1,0,0:0:0:0:
448,192,164733,1,0,0:0:0:0:
192,192,164733,1,0,0:0:0:0:
64,192,164892,1,0,0:0:0:0:
192,192,165052,1,0,0:0:0:0:
320,192,165211,1,0,0:0:0:0:
192,192,165371,1,0,0:0:0:0:
448,192,165371,1,0,0:0:0:0:
64,192,165530,1,0,0:0:0:0:
192,192,165690,1,0,0:0:0:0:
320,192,165850,1,0,0:0:0:0:
64,192,165850,1,0,0:0:0:0:
192,192,166009,1,0,0:0:0:0:
448,192,166009,1,0,0:0:0:0:
64,192,166009,1,0,0:0:0:0:
320,192,166169,1,0,0:0:0:0:
192,192,166328,1,0,0:0:0:0:
64,192,166488,1,0,0:0:0:0:
320,192,166648,1,0,0:0:0:0:
448,192,166648,1,0,0:0:0:0:
64,192,166807,1,0,0:0:0:0:
192,192,166807,1,0,0:0:0:0:
320,192,166967,1,0,0:0:0:0:
64,192,167126,1,0,0:0:0:0:
448,192,167126,1,0,0:0:0:0:
192,192,167286,1,0,0:0:0:0:
448,192,167286,1,0,0:0:0:0:
320,192,167286,1,0,0:0:0:0:
64,192,167446,1,0,0:0:0:0:
192,192,167605,1,0,0:0:0:0:
320,192,167765,1,0,0:0:0:0:
64,192,167924,1,0,0:0:0:0:
448,192,167924,1,0,0:0:0:0:
192,192,168084,1,0,0:0:0:0:
64,192,168244,1,0,0:0:0:0:
448,192,168244,1,0,0:0:0:0:
320,192,168244,1,0,0:0:0:0:
192,192,168403,1,0,0:0:0:0:
448,192,168563,1,0,0:0:0:0:
64,192,168563,1,0,0:0:0:0:
320,192,168563,1,0,0:0:0:0:
192,192,168722,1,0,0:0:0:0:
320,192,168882,1,0,0:0:0:0:
448,192,169041,1,0,0:0:0:0:
64,192,169201,5,0,0:0:0:0:
192,192,169201,1,0,0:0:0:0:
320,192,169361,1,0,0:0:0:0:
448,192,169361,1,0,0:0:0:0:
192,192,169520,1,0,0:0:0:0:
64,192,169680,1,0,0:0:0:0:
320,192,169680,1,0,0:0:0:0:
192,192,169839,1,0,0:0:0:0:
448,192,169839,1,0,0:0:0:0:
320,192,169999,1,0,0:0:0:0:
192,192,170159,1,0,0:0:0:0:
64,192,170318,1,0,0:0:0:0:
192,192,170478,1,0,0:0:0:0:
320,192,170478,1,0,0:0:0:0:
448,192,170637,1,0,0:0:0:0:
320,192,170797,1,0,0:0:0:0:
192,192,170957,1,0,0:0:0:0:
448,192,170957,1,0,0:0:0:0:
320,192,171116,1,0,0:0:0:0:
448,192,171116,1,0,0:0:0:0:
64,192,171116,1,0,0:0:0:0:
192,192,171276,1,0,0:0:0:0:
320,192,171435,1,0,0:0:0:0:
192,192,171595,1,0,0:0:0:0:
320,192,171755,1,0,0:0:0:0:
448,192,171755,1,0,0:0:0:0:
64,192,171914,1,0,0:0:0:0:
192,192,172074,1,0,0:0:0:0:
64,192,172233,1,0,0:0:0:0:
320,192,172233,1,0,0:0:0:0:
192,192,172393,1,0,0:0:0:0:
448,192,172393,1,0,0:0:0:0:
64,192,172393,1,0,0:0:0:0:
320,192,172552,1,0,0:0:0:0:
448,192,172712,1,0,0:0:0:0:
320,192,172872,1,0,0:0:0:0:
192,192,173031,1,0,0:0:0:0:
64,192,173031,1,0,0:0:0:0:
320,192,173191,1,0,0:0:0:0:
448,192,173191,1,0,0:0:0:0:
192,192,173350,1,0,0:0:0:0:
64,192,173510,1,0,0:0:0:0:
320,192,173510,1,0,0:0:0:0:
192,192,173670,1,0,0:0:0:0:
448,192,173670,1,0,0:0:0:0:
320,192,173670,1,0,0:0:0:0:
64,192,173829,1,0,0:0:0:0:
192,192,173989,1,0,0:0:0:0:
320,192,174148,1,0,0:0:0:0:
192,192,174308,1,0,0:0:0:0:
448,192,174308,1,0,0:0:0:0:
320,192,174468,1,0,0:0:0:0:
64,192,174468,1,0,0:0:0:0:
448,192,174627,1,0,0:0:0:0:
64,192,174787,1,0,0:0:0:0:
192,192,174787,1,0,0:0:0:0:
320,192,174946,1,0,0:0:0:0:
448,192,174946,1,0,0:0:0:0:
192,192,174946,1,0,0:0:0:0:
64,192,175106,1,0,0:0:0:0:
192,192,175266,1,0,0:0:0:0:
320,192,175425,1,0,0:0:0:0:
192,192,175585,1,0,0:0:0:0:
64,192,175585,1,0,0:0:0:0:
448,192,175744,1,0,0:0:0:0:
320,192,175904,1,0,0:0:0:0:
192,192,176063,1,0,0:0:0:0:
64,192,176063,1,0,0:0:0:0:
320,192,176223,1,0,0:0:0:0:
448,192,176223,1,0,0:0:0:0:
64,192,176223,1,0,0:0:0:0:
192,192,176383,1,0,0:0:0:0:
320,192,176542,1,0,0:0:0:0:
448,192,176702,1,0,0:0:0:0:
64,192,176861,1,0,0:0:0:0:
192,192,176861,1,0,0:0:0:0:
320,192,177021,1,0,0:0:0:0:
448,192,177021,1,0,0:0:0:0:
192,192,177181,1,0,0:0:0:0:
64,192,177340,1,0,0:0:0:0:
320,192,177340,1,0,0:0:0:0:
192,192,177500,1,0,0:0:0:0:
448,192,177500,1,0,0:0:0:0:
320,192,177500,1,0,0:0:0:0:
64,192,177659,1,0,0:0:0:0:
320,192,177819,1,0,0:0:0:0:
192,192,177979,1,0,0:0:0:0:
64,192,178138,1,0,0:0:0:0:
448,192,178138,1,0,0:0:0:0:
320,192,178298,1,0,0:0:0:0:
64,192,178457,1,0,0:0:0:0:
448,192,178457,1,0,0:0:0:0:
192,192,178457,1,0,0:0:0:0:
320,192,178617,1,0,0:0:0:0:
448,192,178777,1,0,0:0:0:0:
64,192,178777,1,0,0:0:0:0:
192,192,178777,1,0,0:0:0:0:
320,192,178936,1,0,0:0:0:0:
192,192,179096,1,0,0:0:0:0:
64,192,179255,1,0,0:0:0:0:
192,192,179415,1,0,0:0:0:0:
448,192,179415,1,0,0:0:0:0:
64,192,179575,1,0,0:0:0:0:
320,192,179575,1,0,0:0:0:0:
192,192,179734,1,0,0:0:0:0:
320,192,179894,1,0,0:0:0:0:
448,192,179894,1,0,0:0:0:0:
192,192,180053,1,0,0:0:0:0:
64,192,180053,1,0,0:0:0:0:
320,192,180213,1,0,0:0:0:0:
448,192,180372,1,0,0:0:0:0:
192,192,180532,1,0,0:0:0:0:
320,192,180692,1,0,0:0:0:0:
448,192,180692,1,0,0:0:0:0:
64,192,180851,1,0,0:0:0:0:
192,192,181011,1,0,0:0:0:0:
320,192,181170,1,0,0:0:0:0:
448,192,181170,1,0,0:0:0:0:
192,192,181330,1,0,0:0:0:0:
64,192,181330,1,0,0:0:0:0:
448,192,181330,1,0,0:0:0:0:
320,192,181490,1,0,0:0:0:0:
192,192,181649,1,0,0:0:0:0:
64,192,181809,1,0,0:0:0:0:
192,192,181968,1,0,0:0:0:0:
448,192,181968,1,0,0:0:0:0:
320,192,182128,1,0,0:0:0:0:
192,192,182288,1,0,0:0:0:0:
320,192,182447,1,0,0:0:0:0:
448,192,182447,1,0,0:0:0:0:
320,192,182607,1,0,0:0:0:0:
192,192,182607,1,0,0:0:0:0:
64,192,182607,1,0,0:0:0:0:
448,192,182766,1,0,0:0:0:0:
320,192,182926,1,0,0:0:0:0:
192,192,183086,1,0,0:0:0:0:
448,192,183245,1,0,0:0:0:0:
64,192,183245,1,0,0:0:0:0:
320,192,183405,1,0,0:0:0:0:
192,192,183564,1,0,0:0:0:0:
320,192,183724,1,0,0:0:0:0:
448,192,183883,1,0,0:0:0:0:
192,192,183883,1,0,0:0:0:0:
64,192,183883,1,0,0:0:0:0:
320,192,184043,1,0,0:0:0:0:
448,192,184203,1,0,0:0:0:0:
320,192,184362,1,0,0:0:0:0:
192,192,184522,1,0,0:0:0:0:
64,192,184522,1,0,0:0:0:0:
320,192,184681,1,0,0:0:0:0:
448,192,184681,1,0,0:0:0:0:
192,192,184841,1,0,0:0:0:0:
64,192,185001,1,0,0:0:0:0:
448,192,185001,1,0,0:0:0:0:
192,192,185160,1,0,0:0:0:0:
320,192,185160,1,0,0:0:0:0:
448,192,185320,1,0,0:0:0:0:
320,192,185479,1,0,0:0:0:0:
192,192,185639,1,0,0:0:0:0:
320,192,185799,1,0,0:0:0:0:
448,192,185799,1,0,0:0:0:0:
64,192,185958,1,0,0:0:0:0:
192,192,186118,1,0,0:0:0:0:
448,192,186277,1,0,0:0:0:0:
64,192,186277,1,0,0:0:0:0:
192,192,186437,1,0,0:0:0:0:
320,192,186437,1,0,0:0:0:0:
448,192,186437,1,0,0:0:0:0:
64,192,186597,1,0,0:0:0:0:
192,192,186756,1,0,0:0:0:0:
320,192,186916,1,0,0:0:0:0:
192,192,187075,1,0,0:0:0:0:
64,192,187075,1,0,0:0:0:0:
448,192,187235,1,0,0:0:0:0:
320,192,187394,1,0,0:0:0:0:
192,192,187554,1,0,0:0:0:0:
64,192,187554,1,0,0:0:0:0:
320,192,187714,1,0,0:0:0:0:
64,192,187714,1,0,0:0:0:0:
448,192,187714,1,0,0:0:0:0:
192,192,187873,1,0,0:0:0:0:
320,192,188033,1,0,0:0:0:0:
448,192,188192,1,0,0:0:0:0:
64,192,188352,1,0,0:0:0:0:
320,192,188352,1,0,0:0:0:0:
192,192,188512,1,0,0:0:0:0:
64,192,188671,1,0,0:0:0:0:
320,192,188671,1,0,0:0:0:0:
448,192,188671,1,0,0:0:0:0:
192,192,188831,1,0,0:0:0:0:
64,192,188990,1,0,0:0:0:0:
320,192,188990,1,0,0:0:0:0:
448,192,188990,128,0,190906:0:0:0:0:
