osu file format v14

[General]
AudioFilename: audio.mp3
AudioLeadIn: 0
PreviewTime: -1
Countdown: 0
SampleSet: None
StackLeniency: 0.7
Mode: 3
LetterboxInBreaks: 0
SpecialStyle: 0
WidescreenStoryboard: 0

[Editor]
DistanceSpacing: 0.6
BeatDivisor: 3
GridSize: 8
TimelineZoom: 3.499999

[Metadata]
Title:Schlasster
TitleUnicode:Schlasster
Artist:Harkiadel ft. Morsay
ArtistUnicode:Harkiadel ft. Morsay
Creator:Elementaires
Version:Oh poupi, tu fais du piano?
Source:
Tags:
BeatmapID:1403498
BeatmapSetID:663052

[Difficulty]
HPDrainRate:8
CircleSize:4
OverallDifficulty:8
ApproachRate:5
SliderMultiplier:1.4
SliderTickRate:1

[Events]
//Background and Video events
0,0,"schlasster.jpg",0,0
//Break Periods
//Storyboard Layer 0 (Background)
//Storyboard Layer 1 (Fail)
//Storyboard Layer 2 (Pass)
//Storyboard Layer 3 (Foreground)
//Storyboard Sound Samples

[TimingPoints]
1666.59517381993,387.096774193548,4,1,0,0,1,0
48482,387.096774193548,4,1,0,5,1,0
48843,387.096774193548,4,1,0,5,1,0

[HitObjects]
64,192,1666,5,0,0:0:0:0:
448,192,1666,1,0,0:0:0:0:
320,192,1860,1,0,0:0:0:0:
192,192,1860,1,0,0:0:0:0:
64,192,2053,1,0,0:0:0:0:
320,192,2053,1,0,0:0:0:0:
448,192,2247,1,0,0:0:0:0:
192,192,2247,1,0,0:0:0:0:
320,192,2440,1,0,0:0:0:0:
448,192,2440,1,0,0:0:0:0:
192,192,2634,1,0,0:0:0:0:
320,192,2634,1,0,0:0:0:0:
64,192,2827,1,0,0:0:0:0:
320,192,2827,1,0,0:0:0:0:
64,192,3021,1,0,0:0:0:0:
192,192,3021,1,0,0:0:0:0:
320,192,3214,1,0,0:0:0:0:
448,192,3214,1,0,0:0:0:0:
448,192,3505,1,0,0:0:0:0:
320,192,3505,1,0,0:0:0:0:
64,192,3795,1,0,0:0:0:0:
192,192,3795,1,0,0:0:0:0:
320,192,3989,1,0,0:0:0:0:
64,192,3989,1,0,0:0:0:0:
192,192,4182,1,0,0:0:0:0:
448,192,4182,1,0,0:0:0:0:
64,192,4763,1,0,0:0:0:0:
448,192,4763,1,0,0:0:0:0:
320,192,4860,1,0,0:0:0:0:
192,192,4956,1,0,0:0:0:0:
448,192,4956,1,0,0:0:0:0:
320,192,5053,1,0,0:0:0:0:
192,192,5150,1,0,0:0:0:0:
448,192,5150,1,0,0:0:0:0:
64,192,5150,1,0,0:0:0:0:
320,192,5247,1,0,0:0:0:0:
64,192,5344,1,0,0:0:0:0:
448,192,5440,1,0,0:0:0:0:
320,192,5440,1,0,0:0:0:0:
192,192,5537,1,0,0:0:0:0:
64,192,5537,1,0,0:0:0:0:
448,192,5634,1,0,0:0:0:0:
320,192,5731,1,0,0:0:0:0:
64,192,5731,1,0,0:0:0:0:
192,192,5827,1,0,0:0:0:0:
64,192,5924,1,0,0:0:0:0:
320,192,5924,1,0,0:0:0:0:
448,192,5924,1,0,0:0:0:0:
192,192,6021,1,0,0:0:0:0:
448,192,6118,1,0,0:0:0:0:
320,192,6118,1,0,0:0:0:0:
64,192,6214,1,0,0:0:0:0:
192,192,6311,1,0,0:0:0:0:
448,192,6311,1,0,0:0:0:0:
320,192,6408,1,0,0:0:0:0:
64,192,6505,1,0,0:0:0:0:
448,192,6602,1,0,0:0:0:0:
320,192,6698,1,0,0:0:0:0:
64,192,6698,1,0,0:0:0:0:
192,192,6795,1,0,0:0:0:0:
448,192,6892,1,0,0:0:0:0:
320,192,6989,1,0,0:0:0:0:
64,192,6989,1,0,0:0:0:0:
192,192,7085,1,0,0:0:0:0:
448,192,7085,1,0,0:0:0:0:
320,192,7182,1,0,0:0:0:0:
64,192,7279,1,0,0:0:0:0:
192,192,7376,1,0,0:0:0:0:
320,192,7473,1,0,0:0:0:0:
448,192,7473,1,0,0:0:0:0:
192,192,7521,1,0,0:0:0:0:
64,192,7569,1,0,0:0:0:0:
448,192,7618,1,0,0:0:0:0:
320,192,7666,1,0,0:0:0:0:
192,192,7731,1,0,0:0:0:0:
64,192,7795,1,0,0:0:0:0:
448,192,7860,1,0,0:0:0:0:
320,192,7860,1,0,0:0:0:0:
192,192,7956,1,0,0:0:0:0:
320,192,8053,1,0,0:0:0:0:
448,192,8150,1,0,0:0:0:0:
320,192,8247,1,0,0:0:0:0:
192,192,8247,1,0,0:0:0:0:
64,192,8247,1,0,0:0:0:0:
448,192,8344,1,0,0:0:0:0:
64,192,8344,1,0,0:0:0:0:
320,192,8440,1,0,0:0:0:0:
192,192,8537,1,0,0:0:0:0:
448,192,8585,1,0,0:0:0:0:
64,192,8634,1,0,0:0:0:0:
320,192,8634,1,0,0:0:0:0:
448,192,8731,1,0,0:0:0:0:
192,192,8827,1,0,0:0:0:0:
64,192,8827,1,0,0:0:0:0:
320,192,8924,1,0,0:0:0:0:
64,192,9021,1,0,0:0:0:0:
192,192,9021,1,0,0:0:0:0:
448,192,9021,1,0,0:0:0:0:
320,192,9118,1,0,0:0:0:0:
192,192,9150,1,0,0:0:0:0:
64,192,9214,1,0,0:0:0:0:
448,192,9214,1,0,0:0:0:0:
192,192,9311,1,0,0:0:0:0:
448,192,9408,1,0,0:0:0:0:
320,192,9408,1,0,0:0:0:0:
192,192,9505,1,0,0:0:0:0:
64,192,9602,1,0,0:0:0:0:
448,192,9698,1,0,0:0:0:0:
192,192,9698,1,0,0:0:0:0:
64,192,9795,1,0,0:0:0:0:
320,192,9795,1,0,0:0:0:0:
448,192,9795,1,0,0:0:0:0:
192,192,9892,1,0,0:0:0:0:
448,192,9989,1,0,0:0:0:0:
64,192,9989,1,0,0:0:0:0:
320,192,10085,1,0,0:0:0:0:
448,192,10134,1,0,0:0:0:0:
192,192,10182,1,0,0:0:0:0:
64,192,10182,1,0,0:0:0:0:
320,192,10279,1,0,0:0:0:0:
448,192,10376,1,0,0:0:0:0:
192,192,10376,1,0,0:0:0:0:
320,192,10473,1,0,0:0:0:0:
64,192,10569,1,0,0:0:0:0:
192,192,10569,1,0,0:0:0:0:
448,192,10569,1,0,0:0:0:0:
320,192,10666,1,0,0:0:0:0:
64,192,10763,1,0,0:0:0:0:
448,192,10763,1,0,0:0:0:0:
320,192,10811,1,0,0:0:0:0:
192,192,10860,1,0,0:0:0:0:
320,192,10956,1,0,0:0:0:0:
64,192,10956,1,0,0:0:0:0:
448,192,11053,1,0,0:0:0:0:
192,192,11150,1,0,0:0:0:0:
64,192,11247,1,0,0:0:0:0:
448,192,11344,1,0,0:0:0:0:
320,192,11344,1,0,0:0:0:0:
192,192,11344,1,0,0:0:0:0:
64,192,11440,1,0,0:0:0:0:
320,192,11440,1,0,0:0:0:0:
192,192,11537,1,0,0:0:0:0:
320,192,11585,1,0,0:0:0:0:
448,192,11634,1,0,0:0:0:0:
64,192,11634,1,0,0:0:0:0:
320,192,11731,1,0,0:0:0:0:
192,192,11731,1,0,0:0:0:0:
448,192,11827,1,0,0:0:0:0:
320,192,11924,1,0,0:0:0:0:
64,192,11924,1,0,0:0:0:0:
192,192,12021,1,0,0:0:0:0:
64,192,12118,1,0,0:0:0:0:
320,192,12118,1,0,0:0:0:0:
448,192,12118,1,0,0:0:0:0:
192,192,12214,1,0,0:0:0:0:
448,192,12311,1,0,0:0:0:0:
320,192,12311,1,0,0:0:0:0:
64,192,12408,1,0,0:0:0:0:
448,192,12505,1,0,0:0:0:0:
192,192,12553,1,0,0:0:0:0:
320,192,12602,1,0,0:0:0:0:
64,192,12650,1,0,0:0:0:0:
448,192,12698,1,0,0:0:0:0:
320,192,12795,1,0,0:0:0:0:
64,192,12892,1,0,0:0:0:0:
192,192,12892,1,0,0:0:0:0:
448,192,12989,1,0,0:0:0:0:
64,192,13085,1,0,0:0:0:0:
320,192,13182,1,0,0:0:0:0:
448,192,13279,1,0,0:0:0:0:
192,192,13279,1,0,0:0:0:0:
64,192,13376,1,0,0:0:0:0:
320,192,13473,1,0,0:0:0:0:
448,192,13473,1,0,0:0:0:0:
192,192,13569,1,0,0:0:0:0:
320,192,13666,1,0,0:0:0:0:
448,192,13666,1,0,0:0:0:0:
64,192,13666,1,0,0:0:0:0:
192,192,13763,1,0,0:0:0:0:
448,192,13860,1,0,0:0:0:0:
64,192,13860,1,0,0:0:0:0:
64,192,14053,128,0,14827:0:0:0:0:
192,192,14053,1,0,0:0:0:0:
448,192,14053,128,0,14247:0:0:0:0:
448,192,14344,1,0,0:0:0:0:
320,192,14344,128,0,14537:0:0:0:0:
320,192,14634,1,0,0:0:0:0:
192,192,14634,128,0,14827:0:0:0:0:
320,192,14827,128,0,15602:0:0:0:0:
192,192,15021,1,0,0:0:0:0:
448,192,15021,128,0,15214:0:0:0:0:
192,192,15408,1,0,0:0:0:0:
64,192,15408,128,0,15602:0:0:0:0:
448,192,15602,128,0,16376:0:0:0:0:
192,192,15602,128,0,15795:0:0:0:0:
192,192,15892,128,0,16085:0:0:0:0:
320,192,15892,1,0,0:0:0:0:
320,192,16182,1,0,0:0:0:0:
64,192,16214,128,0,16376:0:0:0:0:
192,192,16376,128,0,17150:0:0:0:0:
320,192,16956,1,0,0:0:0:0:
448,192,16956,128,0,17150:0:0:0:0:
64,192,17150,128,0,17924:0:0:0:0:
320,192,17150,128,0,17344:0:0:0:0:
192,192,17440,1,0,0:0:0:0:
448,192,17440,128,0,17634:0:0:0:0:
192,192,17731,128,0,18118:0:0:0:0:
448,192,17731,1,0,0:0:0:0:
320,192,17924,128,0,18698:0:0:0:0:
448,192,18118,1,0,0:0:0:0:
64,192,18118,128,0,18505:0:0:0:0:
448,192,18505,1,0,0:0:0:0:
192,192,18505,128,0,18698:0:0:0:0:
448,192,18698,128,0,19473:0:0:0:0:
64,192,18698,128,0,18892:0:0:0:0:
320,192,18989,1,0,0:0:0:0:
192,192,18989,128,0,19182:0:0:0:0:
320,192,19279,128,0,19473:0:0:0:0:
64,192,19279,1,0,0:0:0:0:
192,192,19473,128,0,20247:0:0:0:0:
448,192,19860,1,0,0:0:0:0:
64,192,19860,128,0,19956:0:0:0:0:
64,192,20053,1,0,0:0:0:0:
320,192,20053,128,0,20150:0:0:0:0:
64,192,20247,128,0,21021:0:0:0:0:
192,192,20634,1,0,0:0:0:0:
448,192,20634,128,0,20731:0:0:0:0:
192,192,20827,128,0,20924:0:0:0:0:
448,192,20827,1,0,0:0:0:0:
320,192,21021,128,0,21795:0:0:0:0:
64,192,21408,1,0,0:0:0:0:
448,192,21408,1,0,0:0:0:0:
192,192,21602,1,0,0:0:0:0:
64,192,21602,1,0,0:0:0:0:
448,192,21602,1,0,0:0:0:0:
64,192,21795,128,0,23053:0:0:0:0:
448,192,22182,128,0,22666:0:0:0:0:
320,192,22376,128,0,22860:0:0:0:0:
192,192,22569,128,0,23634:0:0:0:0:
448,192,22763,128,0,23827:0:0:0:0:
320,192,22956,128,0,24408:0:0:0:0:
64,192,23150,128,0,24602:0:0:0:0:
192,192,23731,128,0,25989:0:0:0:0:
448,192,23924,128,0,25924:0:0:0:0:
320,192,24505,128,0,25956:0:0:0:0:
64,192,24698,128,0,26021:0:0:0:0:
448,192,25956,1,0,0:0:0:0:
320,192,25989,1,0,0:0:0:0:
192,192,26021,1,0,0:0:0:0:
64,192,26053,1,0,0:0:0:0:
64,192,26440,1,0,0:0:0:0:
192,192,26440,1,0,0:0:0:0:
320,192,26440,1,0,0:0:0:0:
448,192,26440,1,0,0:0:0:0:
64,192,26827,1,0,0:0:0:0:
192,192,26827,1,0,0:0:0:0:
320,192,26827,1,0,0:0:0:0:
448,192,26827,1,0,0:0:0:0:
448,192,26924,1,0,0:0:0:0:
192,192,26924,1,0,0:0:0:0:
64,192,26924,1,0,0:0:0:0:
64,192,27118,1,0,0:0:0:0:
320,192,27118,1,0,0:0:0:0:
448,192,27118,1,0,0:0:0:0:
64,192,27214,1,0,0:0:0:0:
448,192,27214,1,0,0:0:0:0:
192,192,27214,1,0,0:0:0:0:
64,192,27602,1,0,0:0:0:0:
192,192,27602,1,0,0:0:0:0:
320,192,27602,1,0,0:0:0:0:
448,192,27602,1,0,0:0:0:0:
64,192,27795,1,0,0:0:0:0:
448,192,27795,1,0,0:0:0:0:
192,192,27795,1,0,0:0:0:0:
320,192,27989,1,0,0:0:0:0:
448,192,27989,1,0,0:0:0:0:
64,192,27989,1,0,0:0:0:0:
64,192,28376,1,0,0:0:0:0:
192,192,28376,1,0,0:0:0:0:
320,192,28376,1,0,0:0:0:0:
448,192,28376,1,0,0:0:0:0:
192,192,28473,1,0,0:0:0:0:
64,192,28473,1,0,0:0:0:0:
448,192,28473,1,0,0:0:0:0:
320,192,28666,1,0,0:0:0:0:
448,192,28666,1,0,0:0:0:0:
192,192,28666,1,0,0:0:0:0:
320,192,28763,1,0,0:0:0:0:
192,192,28763,1,0,0:0:0:0:
64,192,28763,1,0,0:0:0:0:
64,192,29150,1,0,0:0:0:0:
192,192,29150,1,0,0:0:0:0:
320,192,29150,1,0,0:0:0:0:
448,192,29150,1,0,0:0:0:0:
320,192,29344,1,0,0:0:0:0:
64,192,29344,1,0,0:0:0:0:
192,192,29344,1,0,0:0:0:0:
64,192,29537,1,0,0:0:0:0:
192,192,29537,1,0,0:0:0:0:
448,192,29537,1,0,0:0:0:0:
64,192,29924,1,0,0:0:0:0:
192,192,29924,1,0,0:0:0:0:
320,192,29924,1,0,0:0:0:0:
448,192,29924,1,0,0:0:0:0:
320,192,30021,1,0,0:0:0:0:
448,192,30021,1,0,0:0:0:0:
64,192,30021,1,0,0:0:0:0:
64,192,30214,1,0,0:0:0:0:
192,192,30214,1,0,0:0:0:0:
320,192,30214,1,0,0:0:0:0:
64,192,30311,1,0,0:0:0:0:
192,192,30311,1,0,0:0:0:0:
448,192,30311,1,0,0:0:0:0:
64,192,30698,1,0,0:0:0:0:
192,192,30698,1,0,0:0:0:0:
320,192,30698,1,0,0:0:0:0:
448,192,30698,1,0,0:0:0:0:
64,192,30892,1,0,0:0:0:0:
448,192,30892,1,0,0:0:0:0:
192,192,30892,1,0,0:0:0:0:
320,192,31085,1,0,0:0:0:0:
448,192,31085,1,0,0:0:0:0:
64,192,31085,1,0,0:0:0:0:
64,192,31214,1,0,0:0:0:0:
320,192,31214,1,0,0:0:0:0:
192,192,31214,1,0,0:0:0:0:
192,192,31344,1,0,0:0:0:0:
448,192,31344,1,0,0:0:0:0:
64,192,31344,1,0,0:0:0:0:
64,192,31473,1,0,0:0:0:0:
192,192,31473,1,0,0:0:0:0:
320,192,31473,1,0,0:0:0:0:
448,192,31473,1,0,0:0:0:0:
320,192,31602,1,0,0:0:0:0:
64,192,31602,1,0,0:0:0:0:
448,192,31602,1,0,0:0:0:0:
192,192,31731,1,0,0:0:0:0:
448,192,31731,1,0,0:0:0:0:
64,192,31731,1,0,0:0:0:0:
64,192,31860,1,0,0:0:0:0:
320,192,31860,1,0,0:0:0:0:
192,192,31860,1,0,0:0:0:0:
320,192,31989,1,0,0:0:0:0:
192,192,31989,1,0,0:0:0:0:
448,192,31989,1,0,0:0:0:0:
64,192,32118,1,0,0:0:0:0:
448,192,32118,1,0,0:0:0:0:
192,192,32118,1,0,0:0:0:0:
64,192,32247,1,0,0:0:0:0:
192,192,32247,1,0,0:0:0:0:
320,192,32247,1,0,0:0:0:0:
448,192,32247,1,0,0:0:0:0:
192,192,32376,1,0,0:0:0:0:
320,192,32376,1,0,0:0:0:0:
448,192,32376,1,0,0:0:0:0:
64,192,32505,1,0,0:0:0:0:
320,192,32505,1,0,0:0:0:0:
192,192,32505,1,0,0:0:0:0:
64,192,32634,1,0,0:0:0:0:
448,192,32634,1,0,0:0:0:0:
320,192,32634,1,0,0:0:0:0:
64,192,33021,1,0,0:0:0:0:
192,192,33021,1,0,0:0:0:0:
320,192,33021,1,0,0:0:0:0:
448,192,33021,1,0,0:0:0:0:
448,192,33118,1,0,0:0:0:0:
192,192,33118,1,0,0:0:0:0:
64,192,33118,1,0,0:0:0:0:
64,192,33311,1,0,0:0:0:0:
320,192,33311,1,0,0:0:0:0:
448,192,33311,1,0,0:0:0:0:
64,192,33408,1,0,0:0:0:0:
448,192,33408,1,0,0:0:0:0:
192,192,33408,1,0,0:0:0:0:
64,192,33795,1,0,0:0:0:0:
192,192,33795,1,0,0:0:0:0:
320,192,33795,1,0,0:0:0:0:
448,192,33795,1,0,0:0:0:0:
64,192,33989,1,0,0:0:0:0:
448,192,33989,1,0,0:0:0:0:
192,192,33989,1,0,0:0:0:0:
320,192,34182,1,0,0:0:0:0:
448,192,34182,1,0,0:0:0:0:
64,192,34182,1,0,0:0:0:0:
64,192,34569,1,0,0:0:0:0:
192,192,34569,1,0,0:0:0:0:
320,192,34569,1,0,0:0:0:0:
448,192,34569,1,0,0:0:0:0:
192,192,34666,1,0,0:0:0:0:
64,192,34666,1,0,0:0:0:0:
448,192,34666,1,0,0:0:0:0:
320,192,34860,1,0,0:0:0:0:
448,192,34860,1,0,0:0:0:0:
192,192,34860,1,0,0:0:0:0:
320,192,34956,1,0,0:0:0:0:
192,192,34956,1,0,0:0:0:0:
64,192,34956,1,0,0:0:0:0:
64,192,35344,1,0,0:0:0:0:
192,192,35344,1,0,0:0:0:0:
320,192,35344,1,0,0:0:0:0:
448,192,35344,1,0,0:0:0:0:
320,192,35537,1,0,0:0:0:0:
64,192,35537,1,0,0:0:0:0:
192,192,35537,1,0,0:0:0:0:
64,192,35731,1,0,0:0:0:0:
192,192,35731,1,0,0:0:0:0:
448,192,35731,1,0,0:0:0:0:
64,192,36118,1,0,0:0:0:0:
192,192,36118,1,0,0:0:0:0:
320,192,36118,1,0,0:0:0:0:
448,192,36118,1,0,0:0:0:0:
320,192,36214,1,0,0:0:0:0:
448,192,36214,1,0,0:0:0:0:
64,192,36214,1,0,0:0:0:0:
64,192,36408,1,0,0:0:0:0:
192,192,36408,1,0,0:0:0:0:
320,192,36408,1,0,0:0:0:0:
64,192,36505,1,0,0:0:0:0:
192,192,36505,1,0,0:0:0:0:
448,192,36505,1,0,0:0:0:0:
64,192,36892,1,0,0:0:0:0:
192,192,36892,1,0,0:0:0:0:
320,192,36892,1,0,0:0:0:0:
448,192,36892,1,0,0:0:0:0:
64,192,37085,1,0,0:0:0:0:
448,192,37085,1,0,0:0:0:0:
192,192,37085,1,0,0:0:0:0:
320,192,37279,1,0,0:0:0:0:
448,192,37279,1,0,0:0:0:0:
64,192,37279,1,0,0:0:0:0:
64,192,37408,1,0,0:0:0:0:
320,192,37408,1,0,0:0:0:0:
192,192,37408,1,0,0:0:0:0:
192,192,37537,1,0,0:0:0:0:
448,192,37537,1,0,0:0:0:0:
64,192,37537,1,0,0:0:0:0:
64,192,37666,1,0,0:0:0:0:
192,192,37666,1,0,0:0:0:0:
320,192,37666,1,0,0:0:0:0:
448,192,37666,1,0,0:0:0:0:
320,192,37795,1,0,0:0:0:0:
64,192,37795,1,0,0:0:0:0:
448,192,37795,1,0,0:0:0:0:
192,192,37924,1,0,0:0:0:0:
448,192,37924,1,0,0:0:0:0:
64,192,37924,1,0,0:0:0:0:
64,192,38053,1,0,0:0:0:0:
320,192,38053,1,0,0:0:0:0:
192,192,38053,1,0,0:0:0:0:
320,192,38182,1,0,0:0:0:0:
192,192,38182,1,0,0:0:0:0:
448,192,38182,1,0,0:0:0:0:
64,192,38311,1,0,0:0:0:0:
448,192,38311,1,0,0:0:0:0:
192,192,38311,1,0,0:0:0:0:
192,192,38634,1,0,0:0:0:0:
320,192,38634,1,0,0:0:0:0:
64,192,38827,1,0,0:0:0:0:
448,192,38827,1,0,0:0:0:0:
320,192,38827,1,0,0:0:0:0:
320,192,38924,1,0,0:0:0:0:
192,192,39021,1,0,0:0:0:0:
448,192,39021,1,0,0:0:0:0:
320,192,39118,1,0,0:0:0:0:
64,192,39118,1,0,0:0:0:0:
192,192,39214,1,0,0:0:0:0:
448,192,39214,1,0,0:0:0:0:
64,192,39214,1,0,0:0:0:0:
320,192,39311,1,0,0:0:0:0:
64,192,39408,1,0,0:0:0:0:
192,192,39408,1,0,0:0:0:0:
448,192,39505,1,0,0:0:0:0:
320,192,39602,1,0,0:0:0:0:
192,192,39602,1,0,0:0:0:0:
64,192,39698,1,0,0:0:0:0:
320,192,39795,1,0,0:0:0:0:
448,192,39795,1,0,0:0:0:0:
192,192,39892,1,0,0:0:0:0:
64,192,39989,1,0,0:0:0:0:
320,192,39989,1,0,0:0:0:0:
448,192,39989,1,0,0:0:0:0:
192,192,40037,1,0,0:0:0:0:
448,192,40085,1,0,0:0:0:0:
320,192,40134,1,0,0:0:0:0:
64,192,40182,1,0,0:0:0:0:
192,192,40231,1,0,0:0:0:0:
448,192,40279,1,0,0:0:0:0:
320,192,40327,1,0,0:0:0:0:
192,192,40376,1,0,0:0:0:0:
64,192,40376,1,0,0:0:0:0:
448,192,40473,1,0,0:0:0:0:
320,192,40569,1,0,0:0:0:0:
192,192,40666,1,0,0:0:0:0:
64,192,40666,1,0,0:0:0:0:
192,192,40763,1,0,0:0:0:0:
320,192,40763,1,0,0:0:0:0:
448,192,40763,1,0,0:0:0:0:
64,192,40860,1,0,0:0:0:0:
320,192,40956,1,0,0:0:0:0:
448,192,40956,1,0,0:0:0:0:
192,192,41053,1,0,0:0:0:0:
64,192,41150,1,0,0:0:0:0:
320,192,41150,1,0,0:0:0:0:
448,192,41198,1,0,0:0:0:0:
192,192,41247,1,0,0:0:0:0:
448,192,41344,1,0,0:0:0:0:
192,192,41440,1,0,0:0:0:0:
320,192,41537,1,0,0:0:0:0:
64,192,41537,1,0,0:0:0:0:
448,192,41537,1,0,0:0:0:0:
192,192,41585,1,0,0:0:0:0:
448,192,41634,1,0,0:0:0:0:
320,192,41682,1,0,0:0:0:0:
64,192,41731,1,0,0:0:0:0:
192,192,41731,1,0,0:0:0:0:
448,192,41779,1,0,0:0:0:0:
320,192,41827,1,0,0:0:0:0:
64,192,41876,1,0,0:0:0:0:
448,192,41924,1,0,0:0:0:0:
192,192,41924,1,0,0:0:0:0:
320,192,42021,1,0,0:0:0:0:
64,192,42118,1,0,0:0:0:0:
320,192,42214,1,0,0:0:0:0:
448,192,42214,1,0,0:0:0:0:
192,192,42311,1,0,0:0:0:0:
64,192,42311,1,0,0:0:0:0:
320,192,42311,1,0,0:0:0:0:
448,192,42408,1,0,0:0:0:0:
320,192,42505,1,0,0:0:0:0:
64,192,42505,1,0,0:0:0:0:
192,192,42602,1,0,0:0:0:0:
320,192,42698,1,0,0:0:0:0:
448,192,42698,1,0,0:0:0:0:
192,192,42795,1,0,0:0:0:0:
448,192,42892,1,0,0:0:0:0:
64,192,42892,1,0,0:0:0:0:
320,192,42989,1,0,0:0:0:0:
192,192,43085,1,0,0:0:0:0:
64,192,43085,1,0,0:0:0:0:
448,192,43085,1,0,0:0:0:0:
320,192,43134,1,0,0:0:0:0:
64,192,43182,1,0,0:0:0:0:
192,192,43231,1,0,0:0:0:0:
448,192,43279,1,0,0:0:0:0:
320,192,43327,1,0,0:0:0:0:
64,192,43376,1,0,0:0:0:0:
192,192,43424,1,0,0:0:0:0:
320,192,43473,1,0,0:0:0:0:
448,192,43473,1,0,0:0:0:0:
64,192,43569,1,0,0:0:0:0:
192,192,43666,1,0,0:0:0:0:
320,192,43763,1,0,0:0:0:0:
448,192,43763,1,0,0:0:0:0:
448,192,43860,1,0,0:0:0:0:
192,192,43860,1,0,0:0:0:0:
64,192,43860,1,0,0:0:0:0:
320,192,43956,1,0,0:0:0:0:
64,192,44053,1,0,0:0:0:0:
192,192,44053,1,0,0:0:0:0:
448,192,44150,1,0,0:0:0:0:
320,192,44247,1,0,0:0:0:0:
64,192,44247,1,0,0:0:0:0:
192,192,44295,1,0,0:0:0:0:
448,192,44344,1,0,0:0:0:0:
320,192,44440,1,0,0:0:0:0:
64,192,44537,1,0,0:0:0:0:
192,192,44634,1,0,0:0:0:0:
448,192,44634,1,0,0:0:0:0:
320,192,44634,1,0,0:0:0:0:
64,192,44731,1,0,0:0:0:0:
192,192,44827,1,0,0:0:0:0:
448,192,44827,1,0,0:0:0:0:
320,192,44924,1,0,0:0:0:0:
64,192,45021,1,0,0:0:0:0:
192,192,45021,1,0,0:0:0:0:
448,192,45021,1,0,0:0:0:0:
320,192,45069,1,0,0:0:0:0:
448,192,45118,1,0,0:0:0:0:
64,192,45214,1,0,0:0:0:0:
192,192,45311,1,0,0:0:0:0:
448,192,45408,1,0,0:0:0:0:
320,192,45408,1,0,0:0:0:0:
64,192,45408,1,0,0:0:0:0:
192,192,45505,1,0,0:0:0:0:
64,192,45602,1,0,0:0:0:0:
448,192,45602,1,0,0:0:0:0:
320,192,45698,1,0,0:0:0:0:
192,192,45795,1,0,0:0:0:0:
448,192,45795,1,0,0:0:0:0:
64,192,45795,1,0,0:0:0:0:
320,192,45844,1,0,0:0:0:0:
64,192,45892,1,0,0:0:0:0:
320,192,45989,1,0,0:0:0:0:
448,192,46085,1,0,0:0:0:0:
320,192,46182,1,0,0:0:0:0:
192,192,46182,1,0,0:0:0:0:
64,192,46182,1,0,0:0:0:0:
448,192,46279,1,0,0:0:0:0:
64,192,46376,128,0,46473:0:0:0:0:
320,192,46376,128,0,46440:0:0:0:0:
192,192,46473,1,0,0:0:0:0:
320,192,46569,1,0,0:0:0:0:
448,192,46569,1,0,0:0:0:0:
64,192,46618,1,0,0:0:0:0:
192,192,46666,1,0,0:0:0:0:
64,192,46763,1,0,0:0:0:0:
448,192,46860,1,0,0:0:0:0:
192,192,46956,1,0,0:0:0:0:
64,192,46956,1,0,0:0:0:0:
192,192,47150,1,0,0:0:0:0:
320,192,47150,1,0,0:0:0:0:
64,192,47344,1,0,0:0:0:0:
448,192,47344,1,0,0:0:0:0:
192,192,47537,1,0,0:0:0:0:
448,192,47537,1,0,0:0:0:0:
320,192,47731,1,0,0:0:0:0:
64,192,47731,1,0,0:0:0:0:
192,192,47924,1,0,0:0:0:0:
64,192,47924,1,0,0:0:0:0:
320,192,48482,128,0,49762:0:0:0:0:
448,192,48482,128,0,49810:0:0:0:0:
192,192,48843,128,0,49713:0:0:0:0:
64,192,48843,128,0,49665:0:0:0:0:
64,192,50004,1,0,0:0:0:0:
192,192,50004,1,0,0:0:0:0:
448,192,50068,1,0,0:0:0:0:
320,192,50068,1,0,0:0:0:0:
64,192,50133,1,0,0:0:0:0:
320,192,50197,1,0,0:0:0:0:
192,192,50262,1,0,0:0:0:0:
448,192,50326,1,0,0:0:0:0:
320,192,50326,1,0,0:0:0:0:
192,192,50391,1,0,0:0:0:0:
64,192,50391,1,0,0:0:0:0:
448,192,50455,1,0,0:0:0:0:
320,192,50488,1,0,0:0:0:0:
192,192,50520,1,0,0:0:0:0:
64,192,50520,1,0,0:0:0:0:
448,192,50584,1,0,0:0:0:0:
64,192,50649,1,0,0:0:0:0:
192,192,50713,1,0,0:0:0:0:
320,192,50713,1,0,0:0:0:0:
448,192,50778,1,0,0:0:0:0:
64,192,50843,1,0,0:0:0:0:
192,192,50907,1,0,0:0:0:0:
448,192,50907,1,0,0:0:0:0:
320,192,50972,1,0,0:0:0:0:
192,192,51036,1,0,0:0:0:0:
64,192,51036,1,0,0:0:0:0:
448,192,51101,1,0,0:0:0:0:
192,192,51165,1,0,0:0:0:0:
320,192,51230,1,0,0:0:0:0:
448,192,51230,1,0,0:0:0:0:
64,192,51294,1,0,0:0:0:0:
192,192,51359,1,0,0:0:0:0:
448,192,51423,1,0,0:0:0:0:
320,192,51488,1,0,0:0:0:0:
64,192,51488,1,0,0:0:0:0:
192,192,51552,1,0,0:0:0:0:
320,192,51617,1,0,0:0:0:0:
448,192,51617,1,0,0:0:0:0:
64,192,51681,1,0,0:0:0:0:
192,192,51746,1,0,0:0:0:0:
320,192,51746,1,0,0:0:0:0:
448,192,51810,1,0,0:0:0:0:
320,192,51875,1,0,0:0:0:0:
192,192,51939,1,0,0:0:0:0:
64,192,51939,1,0,0:0:0:0:
448,192,52004,1,0,0:0:0:0:
64,192,52068,1,0,0:0:0:0:
320,192,52133,128,0,52810:0:0:0:0:
448,192,52133,128,0,52810:0:0:0:0:
192,192,52810,1,0,0:0:0:0:
64,192,52810,1,0,0:0:0:0:
320,192,52859,1,0,0:0:0:0:
448,192,52859,1,0,0:0:0:0:
192,192,52907,1,0,0:0:0:0:
64,192,52907,1,0,0:0:0:0:
320,192,52955,1,0,0:0:0:0:
448,192,52955,1,0,0:0:0:0:
192,192,53004,1,0,0:0:0:0:
64,192,53004,1,0,0:0:0:0:
320,192,53052,1,0,0:0:0:0:
448,192,53052,1,0,0:0:0:0:
192,192,53101,1,0,0:0:0:0:
64,192,53101,1,0,0:0:0:0:
320,192,53149,1,0,0:0:0:0:
448,192,53149,1,0,0:0:0:0:
192,192,53197,1,0,0:0:0:0:
64,192,53197,1,0,0:0:0:0:
320,192,53246,1,0,0:0:0:0:
448,192,53246,1,0,0:0:0:0:
192,192,53294,1,0,0:0:0:0:
64,192,53294,1,0,0:0:0:0:
320,192,53342,1,0,0:0:0:0:
448,192,53342,1,0,0:0:0:0:
192,192,53391,1,0,0:0:0:0:
64,192,53391,1,0,0:0:0:0:
320,192,53439,1,0,0:0:0:0:
448,192,53439,1,0,0:0:0:0:
192,192,53488,1,0,0:0:0:0:
64,192,53488,1,0,0:0:0:0:
