osu file format v14

[General]
AudioFilename: audio.mp3
AudioLeadIn: 0
PreviewTime: 76976
Countdown: 0
SampleSet: Normal
StackLeniency: 0.6
Mode: 0
LetterboxInBreaks: 0
WidescreenStoryboard: 1

[Editor]
Bookmarks: 38576,76774,115289,153655,172838,211376
DistanceSpacing: 0.9
BeatDivisor: 4
GridSize: 32
TimelineZoom: 2.1

[Metadata]
Title:Geist
TitleUnicode:Geist
Artist:Harito
ArtistUnicode:Harito
Creator:MaridiuS
Version:Normal
Source:
Tags:instrumental [MaRy] Artcore Electronic edm Sin:cK Street
BeatmapID:2184657
BeatmapSetID:1015012

[Difficulty]
HPDrainRate:4
CircleSize:3
OverallDifficulty:4.5
ApproachRate:6.5
SliderMultiplier:0.999999999999999
SliderTickRate:1

[Events]
//Background and Video events
0,0,"39b7fdb9-66a9-4c28-cc82-fa6fe792ac2d.jpg",0,0
//Break Periods
//Storyboard Layer 0 (Background)
//Storyboard Layer 1 (Fail)
//Storyboard Layer 2 (Pass)
//Storyboard Layer 3 (Foreground)
//Storyboard Layer 4 (Overlay)
//Storyboard Sound Samples

[TimingPoints]
19449,300,4,2,0,70,1,0
19449,-133.333333333333,4,2,0,50,0,0
38649,-100,4,2,1,70,0,0
57849,-133.333333333333,4,2,0,70,0,0
75849,-133.333333333333,4,2,3,70,0,0
77049,-100,4,2,1,70,0,0
115449,-125,4,2,1,70,0,0
173049,-83.3333333333333,4,1,1,80,0,1
191649,-133.333333333333,4,1,1,70,0,0
191724,-133.333333333333,4,1,1,5,0,0
191799,-133.333333333333,4,1,1,70,0,0
191874,-133.333333333333,4,1,1,5,0,0
191949,-133.333333333333,4,1,1,70,0,0
192024,-133.333333333333,4,1,1,5,0,0
192099,-133.333333333333,4,1,1,70,0,0
192174,-133.333333333333,4,1,1,5,0,0
192249,-83.3333333333333,4,1,1,80,0,1
210249,-100,4,1,1,70,0,0
210324,-133.333333333333,4,1,1,5,0,0
210399,-133.333333333333,4,1,1,70,0,0
210474,-133.333333333333,4,1,1,5,0,0
210549,-133.333333333333,4,1,1,70,0,0
210624,-133.333333333333,4,1,1,5,0,0
210699,-133.333333333333,4,1,1,70,0,0
210774,-133.333333333333,4,1,1,5,0,0
210849,-133.333333333333,4,1,1,70,0,0

[Colours]
Combo1 : 188,149,12
Combo2 : 215,147,172
Combo3 : 6,203,219
Combo4 : 97,173,50
Combo5 : 204,0,5

[HitObjects]
239,64,38649,6,0,P|307:36|426:77,1,200,0|8,1:2|0:2,0:0:0:0:
443,171,39549,1,8,0:2:0:0:
377,246,39849,2,0,L|262:234,1,99.9999999999999,4|0,1:3|0:2,0:0:0:0:
238,143,40449,2,0,L|123:131,1,99.9999999999999,10|10,0:2|0:2,0:0:0:0:
88,129,40899,1,2,1:2:0:0:
38,137,41049,6,0,P|15:195|58:281,1,150,0|0,1:2|1:2,0:0:0:0:
89,298,41649,1,8,0:2:0:0:
174,245,41949,1,8,0:2:0:0:
245,175,42249,2,0,L|352:163,1,99.9999999999999,4|8,1:3|0:2,0:0:0:0:
443,178,42849,2,0,L|442:232,1,50,2|8,1:2|0:2,0:0:0:0:
407,322,43299,1,0,1:2:0:0:
364,347,43449,6,0,B|316:267|316:267|353:144,1,200,0|8,1:2|0:2,0:0:0:0:
425,102,44349,1,8,0:2:0:0:
345,42,44649,2,0,L|210:51,1,99.9999999999999,4|0,1:3|0:2,0:0:0:0:
221,92,45099,1,0,0:2:0:0:
196,135,45249,2,0,L|96:136,1,99.9999999999999,8|8,0:2|0:2,0:0:0:0:
35,60,45849,6,0,P|0:132|41:221,1,150,0|2,1:2|1:2,0:0:0:0:
49,234,46449,1,8,0:2:0:0:
139,277,46749,2,0,L|246:265,1,99.9999999999999,8|4,0:2|1:3,0:0:0:0:
311,197,47349,1,8,0:2:0:0:
410,195,47649,2,0,L|466:207,1,50,0|8,1:2|0:2,0:0:0:0:
476,303,48099,1,0,1:2:0:0:
426,312,48249,5,0,1:2:0:0:
322,296,48549,2,0,L|308:180,2,99.9999999999999,0|8|8,1:2|0:2|0:2,0:0:0:0:
222,304,49449,2,0,L|210:197,1,99.9999999999999,4|2,1:3|0:2,0:0:0:0:
204,155,49899,1,2,0:2:0:0:
198,105,50049,1,8,0:2:0:0:
243,15,50349,1,8,0:2:0:0:
320,77,50649,6,0,L|337:231,1,150,0|2,1:2|0:2,0:0:0:0:
340,275,51249,1,8,0:2:0:0:
245,307,51549,1,10,0:2:0:0:
164,248,51849,2,0,L|54:261,1,99.9999999999999,4|8,1:3|0:2,0:0:0:0:
0,335,52449,2,0,L|5:395,1,50,0|8,1:2|0:2,0:0:0:0:
103,374,52899,1,2,1:2:0:0:
150,358,53049,6,0,P|189:329|151:188,1,200,0|8,1:2|0:2,0:0:0:0:
85,138,53949,1,8,0:2:0:0:
100,40,54249,2,0,L|256:56,1,150,4|2,1:3|0:2,0:0:0:0:
268,101,54849,2,0,L|337:107,1,50,8|0,0:2|0:2,0:0:0:0:
346,145,55149,2,0,L|415:151,1,50,8|2,0:2|0:2,0:0:0:0:
436,178,55449,5,4,1:2:0:0:
493,96,55749,2,0,P|496:70|496:36,1,50,0|2,1:2|0:2,0:0:0:0:
472,1,56049,1,8,0:2:0:0:
372,6,56349,2,0,P|333:25|305:93,1,99.9999999999999,8|4,0:2|1:3,0:0:0:0:
376,145,56949,2,0,P|399:181|389:254,1,99.9999999999999,8|0,0:2|1:2,0:0:0:0:
380,283,57399,1,8,0:2:0:0:
288,274,57699,1,2,1:2:0:0:
300,325,57849,6,0,B|221:310|135:362|-10:317,1,300.000011444092,6|2,3:2|3:2,0:0:0:0:
144,213,59649,1,2,3:2:0:0:
40,65,60249,2,0,B|119:50|205:102|350:57,1,300.000011444092,2|2,3:2|0:2,0:0:0:0:
488,189,62049,1,2,0:2:0:0:
486,9,62649,2,0,B|296:45|280:250|86:207,1,450.000017166138,2|2,0:2|0:2,0:0:0:0:
189,52,65049,2,0,B|313:47|314:183|449:196,1,300.000011444092,2|0,0:2|3:2,0:0:0:0:
84,322,67449,6,0,B|129:204|14:151|88:19,1,300.000011444092,2|2,3:2|0:2,0:0:0:0:
194,170,69249,1,2,0:2:0:0:
318,39,69849,2,0,B|363:157|248:210|322:342,1,300.000011444092,2|2,3:2|3:2,0:0:0:0:
472,241,71649,1,10,0:2:0:0:
345,112,72249,2,0,P|279:102|180:110,1,150.000005722046,2|0,3:2|0:2,0:0:0:0:
186,286,73449,2,0,P|120:276|21:284,1,150.000005722046,2|0,0:2|0:2,0:0:0:0:
198,202,74649,2,0,B|273:162|348:239|423:189,1,225.000008583069,2|0,3:2|0:2,0:0:0:0:
419,102,75849,2,0,B|344:62|269:139|194:89,1,225.000008583069,2|0,3:2|1:2,0:0:0:0:
102,50,77049,6,0,L|129:218,1,150,4|0,1:3|1:2,0:0:0:0:
133,247,77649,1,8,1:1:0:0:
229,274,77949,1,0,1:2:0:0:
292,196,78249,2,0,L|408:211,1,99.9999999999999,2|0,2:0|1:2,0:0:0:0:
482,250,78849,2,0,P|489:293|467:364,1,99.9999999999999,8|2,0:1|1:2,0:0:0:0:
380,378,79449,6,0,P|357:278|380:199,1,150,0|0,1:0|0:2,0:0:0:0:
387,187,80049,2,0,L|376:82,1,99.9999999999999,8|0,0:1|0:2,0:0:0:0:
282,53,80649,2,0,L|194:57,1,50,2|2,1:2|1:2,0:0:0:0:
182,59,80949,2,0,L|93:64,1,50,2|2,1:2|1:2,0:0:0:0:
81,66,81249,1,8,0:1:0:0:
34,154,81549,1,2,1:2:0:0:
38,203,81699,1,2,1:2:0:0:
41,253,81849,6,0,L|209:226,1,150,0|0,1:2|1:2,0:0:0:0:
212,184,82449,1,8,0:1:0:0:
284,114,82749,2,0,L|350:106,1,50,0|0,1:2|0:2,0:0:0:0:
383,104,83049,2,0,L|368:280,1,150,2|2,0:2|1:2,0:0:0:0:
362,302,83649,1,8,0:1:0:0:
262,291,83949,2,0,L|249:215,1,50,2|2,1:2|1:2,0:0:0:0:
248,192,84249,6,0,P|188:164|99:192,1,150,0|2,1:2|1:2,0:0:0:0:
74,219,84849,1,8,0:1:0:0:
92,317,85149,1,2,1:2:0:0:
185,352,85449,2,0,L|258:339,1,50,2|2,1:2|1:2,0:0:0:0:
283,332,85749,2,0,L|343:320,1,50,2|2,1:2|1:2,0:0:0:0:
380,309,86049,1,8,0:1:0:0:
333,220,86349,1,2,1:2:0:0:
325,170,86499,1,0,1:2:0:0:
315,121,86649,6,0,B|385:98|385:98|479:123,1,150,0|0,1:2|1:2,0:0:0:0:
478,163,87249,1,8,0:1:0:0:
426,248,87549,1,0,1:2:0:0:
326,240,87849,2,0,L|191:236,1,99.9999999999999,0|0,1:2|1:2,0:0:0:0:
205,139,88449,2,0,L|74:172,1,99.9999999999999,8|2,0:1|1:2,0:0:0:0:
60,177,88899,1,2,1:2:0:0:
11,187,89049,6,0,P|37:113|6:23,1,150,0|0,1:2|1:2,0:0:0:0:
64,20,89649,2,0,L|193:12,1,99.9999999999999,8|0,0:1|0:2,0:0:0:0:
224,93,90249,2,0,L|300:87,1,50,2|0,1:2|1:2,0:0:0:0:
323,83,90549,1,2,1:2:0:0:
408,134,90849,2,0,L|423:186,1,50,8|2,0:1|1:2,0:0:0:0:
428,231,91149,1,2,1:2:0:0:
415,279,91299,1,2,1:2:0:0:
397,325,91449,6,0,L|216:345,1,150,0|2,1:2|1:2,0:0:0:0:
259,292,92049,2,0,L|279:174,1,99.9999999999999,8|0,0:1|1:2,0:0:0:0:
288,145,92499,1,0,1:2:0:0:
282,95,92649,2,0,P|226:85|166:97,1,99.9999999999999,2|0,1:2|1:2,0:0:0:0:
120,168,93249,1,8,0:1:0:0:
184,244,93549,1,0,1:2:0:0:
210,340,93849,6,0,L|94:361,1,99.9999999999999,0|0,1:2|0:2,0:0:0:0:
15,331,94449,2,0,L|27:218,1,99.9999999999999,8|0,0:1|1:2,0:0:0:0:
118,193,95049,2,0,L|183:185,1,50,2|2,1:2|1:2,0:0:0:0:
217,180,95349,2,0,L|184:115,1,50,2|2,1:2|1:2,0:0:0:0:
170,91,95649,1,8,0:1:0:0:
126,1,95949,2,0,L|203:5,1,50,0|0,0:2|0:2,0:0:0:0:
226,11,96249,5,6,1:2:0:0:
348,53,96549,1,2,0:2:0:0:
348,53,96849,2,0,L|351:104,2,50,8|8|0,0:1|0:2|1:2,0:0:0:0:
394,35,97299,1,8,0:2:0:0:
441,19,97449,1,2,1:2:0:0:
429,148,97749,1,2,0:2:0:0:
429,148,98049,2,0,L|409:254,1,99.9999999999999,8|0,0:1|0:2,0:0:0:0:
396,294,98499,1,8,0:2:0:0:
402,343,98649,5,2,1:2:0:0:
273,324,98949,1,2,0:2:0:0:
273,324,99249,2,0,L|264:245,1,50,8|0,0:1|0:2,0:0:0:0:
260,224,99549,2,0,L|274:109,1,99.9999999999999,0|2,0:2|0:2,0:0:0:0:
280,75,99999,1,0,1:2:0:0:
267,26,100149,1,0,0:2:0:0:
179,74,100449,2,0,B|104:52|104:52|16:78,1,150,8|0,0:1|0:2,0:0:0:0:
18,135,101049,5,2,1:2:0:0:
41,262,101349,1,2,0:2:0:0:
41,262,101649,2,0,L|109:276,1,50,8|8,0:1|0:2,0:0:0:0:
139,279,101949,2,0,L|207:293,1,50,0|8,0:2|0:2,0:0:0:0:
251,303,102249,1,2,1:2:0:0:
248,173,102549,1,2,0:2:0:0:
248,173,102849,2,0,L|256:106,2,50,8|8|0,0:1|0:2|0:2,0:0:0:0:
295,188,103299,1,8,0:2:0:0:
342,204,103449,5,2,1:2:0:0:
342,74,103749,1,2,0:2:0:0:
342,74,104049,2,0,L|398:86,1,50,8|0,0:1|0:2,0:0:0:0:
440,86,104349,2,0,L|456:231,1,99.9999999999999,2|2,0:2|0:2,0:0:0:0:
462,234,104799,1,0,1:2:0:0:
449,282,104949,1,2,1:2:0:0:
358,240,105249,2,0,L|247:225,1,99.9999999999999,8|0,0:1|0:0,0:0:0:0:
209,218,105699,1,8,0:2:0:0:
162,236,105849,5,2,1:2:0:0:
167,106,106149,1,2,0:2:0:0:
167,106,106449,2,0,L|59:86,1,99.9999999999999,8|0,0:1|0:2,0:0:0:0:
45,132,106899,1,8,0:2:0:0:
57,180,107049,1,2,1:2:0:0:
43,309,107349,1,2,0:2:0:0:
43,309,107649,2,0,L|96:317,1,50,8|8,0:1|0:2,0:0:0:0:
141,323,107949,2,0,L|194:315,1,50,0|8,1:2|0:2,0:0:0:0:
252,334,108249,5,2,1:2:0:0:
232,205,108549,1,2,0:2:0:0:
232,205,108849,2,0,L|237:140,1,50,8|0,0:1|0:2,0:0:0:0:
236,104,109149,2,0,B|285:92|285:92|343:111,1,99.9999999999999,0|2,0:2|1:2,0:0:0:0:
378,127,109599,1,0,1:2:0:0:
426,115,109749,1,2,1:2:0:0:
461,208,110049,2,0,L|378:347,1,150,8|8,0:1|0:2,0:0:0:0:
336,381,110649,5,2,1:2:0:0:
326,251,110949,1,2,0:2:0:0:
326,251,111249,2,0,L|321:183,1,50,8|8,1:1|0:2,0:0:0:0:
312,152,111549,2,0,L|317:84,1,50,0|8,0:2|0:2,0:0:0:0:
323,37,111849,1,2,1:2:0:0:
194,58,112149,1,2,0:2:0:0:
194,58,112449,2,0,L|208:172,1,99.9999999999999,8|0,0:2|0:2,0:0:0:0:
213,206,112899,1,8,0:2:0:0:
209,255,113049,5,2,1:2:0:0:
79,240,113349,1,2,0:2:0:0:
79,240,113649,2,0,L|93:188,1,50,8|0,0:1|0:2,0:0:0:0:
110,145,113949,2,0,L|101:31,1,99.9999999999999,0|2,0:2|1:2,0:0:0:0:
136,8,114399,1,0,1:2:0:0:
181,28,114549,2,0,L|236:46,1,50,2|0,1:2|1:2,0:0:0:0:
277,56,114849,2,0,B|336:33|336:33|407:65|407:65|480:45,1,200,8|4,0:1|1:2,0:0:0:0:
471,157,115749,6,0,P|459:225|481:321,1,160,10|8,0:3|0:2,0:0:0:0:
496,348,116499,1,2,0:2:0:0:
512,384,116649,1,0,1:2:0:0:
379,359,116949,2,0,L|282:351,2,79.9999999999999,10|4|0,0:3|1:2|0:2,0:0:0:0:
382,362,117849,6,0,L|372:282,1,79.9999999999999,4|10,1:3|0:3,0:0:0:0:
365,243,118299,2,0,L|355:163,1,79.9999999999999,4|10,1:3|0:2,0:0:0:0:
349,123,118749,1,0,0:2:0:0:
354,35,119049,2,0,P|302:19|264:33,1,79.9999999999999,8|10,0:2|0:3,0:0:0:0:
240,38,119499,1,2,0:2:0:0:
205,57,119649,1,8,0:2:0:0:
233,159,119949,2,0,P|237:187|239:216,1,40,8|8,0:2|0:2,0:0:0:0:
244,242,120249,1,0,1:3:0:0:
180,344,120549,6,0,P|132:362|21:337,1,160,10|10,0:3|0:2,0:0:0:0:
20,298,121299,1,8,0:2:0:0:
36,257,121449,1,2,0:2:0:0:
123,255,121749,2,0,L|233:268,1,79.9999999999999,10|10,0:3|0:2,0:0:0:0:
241,272,122199,1,0,1:2:0:0:
280,279,122349,1,0,1:2:0:0:
377,288,122649,6,0,L|370:179,1,79.9999999999999,0|10,1:2|1:3,0:0:0:0:
292,153,123249,2,0,L|314:8,1,120,4|8,1:3|0:2,0:0:0:0:
346,18,123849,2,0,L|445:27,1,79.9999999999999,4|0,1:3|0:3,0:0:0:0:
452,55,124299,2,0,L|465:168,1,79.9999999999999,4|8,1:3|0:2,0:0:0:0:
448,172,124749,1,8,0:2:0:0:
358,153,125049,1,0,1:2:0:0:
234,190,125349,6,0,P|174:180|136:87,1,160,10|10,0:3|0:0,0:0:0:0:
145,58,126099,1,8,0:2:0:0:
135,19,126249,1,2,1:2:0:0:
53,56,126549,2,0,P|45:107|44:161,1,79.9999999999999,10|0,0:3|1:2,0:0:0:0:
47,175,126999,1,8,0:2:0:0:
59,212,127149,2,0,P|63:258|62:317,1,79.9999999999999,2|4,1:2|1:3,0:0:0:0:
156,295,127749,5,10,0:3:0:0:
162,255,127899,2,0,P|166:208|165:150,1,79.9999999999999,4|10,1:3|0:2,0:0:0:0:
163,135,128349,2,0,P|202:125|257:136,1,79.9999999999999,0|0,1:2|1:2,0:0:0:0:
304,190,128949,1,10,1:3:0:0:
391,181,129249,1,8,0:2:0:0:
438,107,129549,1,8,0:2:0:0:
394,30,129849,1,0,1:2:0:0:
283,69,130149,6,0,P|238:134|237:229,1,160,10|10,0:3|0:2,0:0:0:0:
252,247,130899,1,0,0:0:0:0:
284,270,131049,1,2,1:2:0:0:
365,332,131349,2,0,L|437:384,2,79.9999999999999,10|10|10,0:3|0:2|0:0,0:0:0:0:
278,312,132249,2,0,L|184:359,1,79.9999999999999,0|10,1:2|1:3,0:0:0:0:
112,333,132849,2,0,B|92:307|92:307|91:221,1,79.9999999999999,4|0,1:3|0:2,0:0:0:0:
106,222,133299,1,10,0:2:0:0:
127,188,133449,2,0,B|147:162|147:162|148:76,1,79.9999999999999,4|0,1:3|0:3,0:0:0:0:
152,74,133899,2,0,B|112:55|112:55|15:54,1,120,4|10,1:3|0:2,0:0:0:0:
27,161,134649,6,0,B|110:227|252:126|343:192,1,320,4|0,1:3|1:2,0:0:0:0:
397,263,136149,2,0,L|403:312,1,40,10|0,0:3|1:2,0:0:0:0:
407,342,136449,1,0,1:2:0:0:
315,361,136749,2,0,L|265:351,1,40,0|8,1:2|0:2,0:0:0:0:
237,342,137049,6,0,L|209:228,1,79.9999999999999,4|10,1:3|0:3,0:0:0:0:
222,224,137499,2,0,L|250:110,1,79.9999999999999,4|10,1:3|0:2,0:0:0:0:
246,106,137949,2,0,P|303:110|357:90,1,79.9999999999999,0|0,1:2|1:2,0:0:0:0:
399,57,138549,1,10,1:3:0:0:
424,141,138849,1,8,0:2:0:0:
354,194,139149,2,0,P|325:191|299:196,1,40,8|8,0:2|0:2,0:0:0:0:
274,199,139449,5,0,1:2:0:0:
192,120,139749,2,0,P|108:94|-14:140,1,200,10|0,0:3|0:0,0:0:0:0:
0,165,140649,1,0,1:2:0:0:
51,242,140949,2,0,P|94:239|139:213,1,79.9999999999999,10|8,0:3|0:2,0:0:0:0:
160,200,141399,1,0,0:2:0:0:
187,170,141549,1,8,0:2:0:0:
259,120,141849,2,0,P|302:123|347:149,1,79.9999999999999,0|10,0:2|1:3,0:0:0:0:
359,223,142449,6,0,L|354:319,1,79.9999999999999,4|0,1:3|0:2,0:0:0:0:
318,327,142899,1,8,0:2:0:0:
274,320,143049,2,0,L|266:226,1,79.9999999999999,4|0,1:3|0:3,0:0:0:0:
267,196,143499,2,0,B|226:179|226:179|143:196,1,120,4|10,1:3|0:2,0:0:0:0:
66,213,144249,5,0,1:2:0:0:
4,110,144549,2,0,P|73:69|165:95,1,160,10|10,0:3|0:2,0:0:0:0:
216,132,145449,1,0,1:2:0:0:
300,63,145749,2,0,P|369:22|461:48,1,160,10|2,0:3|1:2,0:0:0:0:
473,62,146499,1,10,0:2:0:0:
464,101,146649,2,0,L|450:198,1,79.9999999999999,4|10,1:3|0:3,0:0:0:0:
443,219,147099,2,0,L|448:316,1,79.9999999999999,4|0,1:3|0:2,0:0:0:0:
451,338,147549,2,0,P|412:343|361:334,1,79.9999999999999,2|0,0:2|1:2,0:0:0:0:
316,267,148149,6,0,L|253:260,1,40,10|0,1:3|0:2,0:0:0:0:
236,257,148449,1,8,0:2:0:0:
210,172,148749,2,0,L|272:165,1,40,8|8,0:2|0:2,0:0:0:0:
290,162,149049,1,2,1:2:0:0:
258,41,149349,6,0,P|182:47|81:26,1,160,10|2,0:3|1:2,0:0:0:0:
24,72,150249,1,2,1:2:0:0:
49,182,150549,2,0,P|124:188|226:167,1,160,10|10,0:3|0:2,0:0:0:0:
294,188,151449,1,2,0:2:0:0:
319,278,151749,2,0,P|316:300|319:329,1,40,10|8,0:3|0:2,0:0:0:0:
333,358,152049,2,0,L|427:365,1,79.9999999999999,4|0,1:3|0:2,0:0:0:0:
452,366,152499,1,10,0:2:0:0:
456,326,152649,2,0,L|460:231,1,79.9999999999999,4|0,1:3|0:2,0:0:0:0:
466,207,153099,2,0,B|422:159|422:159|430:52,1,160,4|2,1:3|1:2,0:0:0:0:
438,10,153849,5,2,1:2:0:0:
326,6,154149,2,0,P|302:50|321:141,1,120,10|8,0:3|0:2,0:0:0:0:
333,153,154749,1,0,1:2:0:0:
410,111,155049,1,0,1:2:0:0:
494,136,155349,2,0,L|468:244,1,79.9999999999999,10|8,0:3|0:2,0:0:0:0:
430,289,155949,2,0,L|435:358,1,40,0|8,1:2|0:2,0:0:0:0:
438,374,156249,5,0,1:2:0:0:
326,378,156549,2,0,P|302:334|321:243,1,120,10|8,0:3|0:2,0:0:0:0:
333,231,157149,1,0,1:2:0:0:
410,273,157449,1,0,1:2:0:0:
494,248,157749,2,0,L|468:140,1,79.9999999999999,10|8,0:3|0:2,0:0:0:0:
430,95,158349,2,0,L|435:26,1,40,0|8,1:2|0:2,0:0:0:0:
438,10,158649,5,0,1:2:0:0:
335,42,158949,2,0,P|257:62|166:35,1,160,10|0,0:3|1:2,0:0:0:0:
74,10,159849,1,0,1:2:0:0:
106,113,160149,2,0,P|126:191|99:282,1,160,10|0,0:3|1:2,0:0:0:0:
74,374,161049,1,0,1:2:0:0:
181,340,161349,2,0,P|258:322|335:342,1,160,10|0,0:3|1:2,0:0:0:0:
438,374,162249,1,0,1:2:0:0:
404,266,162549,2,0,P|386:189|406:113,1,160,10|0,0:3|1:2,0:0:0:0:
438,10,163449,5,0,1:2:0:0:
335,29,163749,1,0,1:2:0:0:
232,10,164049,1,0,1:2:0:0:
129,29,164349,1,0,1:2:0:0:
125,132,164649,1,0,1:2:0:0:
228,151,164949,1,0,1:2:0:0:
331,132,165249,1,0,1:2:0:0:
434,151,165549,1,0,1:2:0:0:
256,192,165849,12,0,167649,1:2:0:0:
256,192,168249,12,0,172149,1:2:0:0:
503,97,173049,6,0,P|436:117|382:98,1,119.999996337891,2|8,0:0|0:0,0:0:0:0:
357,59,173499,2,0,P|290:39|236:58,1,119.999996337891,2|10,0:0|0:3,0:0:0:0:
198,151,174099,1,2,0:0:0:0:
144,161,174249,1,2,0:3:0:0:
45,115,174549,1,0,0:0:0:0:
40,61,174699,2,0,L|173:49,1,119.999996337891,10|8,0:3|0:0,0:0:0:0:
202,135,175299,1,2,0:3:0:0:
234,171,175449,6,0,P|245:258|229:371,1,179.999994506836,2|0,0:0|0:0,0:0:0:0:
183,334,176049,1,2,0:0:0:0:
131,318,176199,2,0,P|98:309|45:313,1,59.9999981689453,8|0,0:0|0:0,0:0:0:0:
18,315,176499,1,2,0:0:0:0:
38,208,176799,1,2,0:3:0:0:
91,217,176949,2,0,L|215:213,1,119.999996337891,8|0,0:0|0:0,0:0:0:0:
285,291,177549,1,8,0:0:0:0:
380,240,177849,5,2,0:3:0:0:
372,186,177999,2,0,P|361:154|361:111,1,59.9999981689453,2|8,0:2|0:0,0:0:0:0:
359,73,178299,1,0,0:0:0:0:
372,20,178449,2,0,P|429:0|493:34,1,119.999996337891,2|2,0:3|0:0,0:0:0:0:
486,129,179049,6,0,L|468:264,1,119.999996337891,2|8,0:0|0:0,0:0:0:0:
418,264,179499,2,0,L|283:282,1,119.999996337891,10|10,0:0|0:0,0:0:0:0:
245,288,179949,1,2,0:3:0:0:
275,184,180249,2,0,L|263:38,1,119.999996337891,2|8,0:0|0:0,0:0:0:0:
255,11,180699,2,0,P|190:-11|132:4,1,119.999996337891,2|10,0:0|0:0,0:0:0:0:
91,20,181149,1,0,0:0:0:0:
65,124,181449,6,0,L|128:128,1,59.9999981689453,2|2,0:3|0:2,0:0:0:0:
177,141,181749,2,0,L|240:145,1,59.9999981689453,10|2,0:3|0:2,0:0:0:0:
287,163,182049,1,2,0:3:0:0:
388,126,182349,2,0,L|386:58,1,59.9999981689453,8|8,0:3|0:3,0:0:0:0:
388,11,182649,5,10,0:0:0:0:
488,50,182949,1,8,0:0:0:0:
497,103,183099,2,0,B|502:147|502:147|475:255,1,119.999996337891,2|8,0:0|0:0,0:0:0:0:
462,270,183549,1,0,0:0:0:0:
378,313,183849,1,2,0:0:0:0:
359,206,184149,1,8,0:0:0:0:
353,152,184299,2,0,B|309:147|309:147|201:174,1,119.999996337891,10|10,0:0|0:0,0:0:0:0:
183,181,184749,1,0,0:0:0:0:
93,241,185049,6,0,P|73:182|112:103,1,119.999996337891,2|8,0:0|0:0,0:0:0:0:
107,77,185499,2,0,P|166:97|245:58,1,119.999996337891,2|10,0:0|0:0,0:0:0:0:
256,42,185949,1,2,0:0:0:0:
363,52,186249,1,2,0:0:0:0:
383,158,186549,1,8,0:0:0:0:
330,170,186699,2,0,L|201:176,1,119.999996337891,10|10,0:0|0:0,0:0:0:0:
157,161,187149,1,8,0:0:0:0:
134,111,187299,1,10,0:0:0:0:
114,60,187449,6,0,L|79:202,1,119.999996337891,2|8,0:0|0:0,0:0:0:0:
69,228,187899,1,2,0:0:0:0:
124,318,188199,1,10,0:0:0:0:
176,328,188349,2,0,L|330:341,1,119.999996337891,0|2,0:0|0:0,0:0:0:0:
403,343,188949,1,8,0:0:0:0:
448,372,189099,2,0,L|418:211,1,119.999996337891,8|8,0:0|0:0,0:0:0:0:
416,200,189549,2,0,L|419:120,1,59.9999981689453,2|0,0:3|0:0,0:0:0:0:
422,85,189849,1,0,0:0:0:0:
318,79,190149,6,0,L|247:81,1,59.9999981689453,8|0,0:0|0:0,0:0:0:0:
207,101,190449,2,0,L|137:115,1,59.9999981689453,0|8,0:0|0:0,0:0:0:0:
102,142,190749,2,0,L|30:175,1,59.9999981689453,0|2,0:0|0:2,0:0:0:0:
27,217,191049,2,0,B|135:276|153:184|262:237,1,239.999992675781,2|2,2:3|2:0,0:0:0:0:
258,235,191949,1,2,2:0:0:0:
329,316,192249,6,0,L|431:256,2,59.9999981689453,0|2|8,0:1|0:2|0:0,0:0:0:0:
221,322,192849,2,0,L|119:262,2,59.9999981689453,2|8|2,0:2|0:0|0:3,0:0:0:0:
272,238,193449,2,0,B|222:152|315:96|258:-1,1,239.999992675781,2|0,0:2|0:0,0:0:0:0:
207,10,194199,1,8,0:0:0:0:
157,30,194349,2,0,L|85:18,1,59.9999981689453,0|2,0:2|0:0,0:0:0:0:
44,11,194649,6,0,L|56:149,1,119.999996337891,2|10,0:0|0:3,0:0:0:0:
99,159,195099,2,0,L|84:305,1,119.999996337891,2|10,0:1|0:1,0:0:0:0:
79,331,195549,1,2,0:2:0:0:
180,293,195849,2,0,P|232:273|326:309,1,119.999996337891,2|8,0:0|0:0,0:0:0:0:
338,316,196299,2,0,P|390:335|484:300,1,119.999996337891,10|10,0:0|0:0,0:0:0:0:
480,277,196749,1,8,0:0:0:0:
457,227,196899,1,10,0:0:0:0:
430,179,197049,6,0,L|444:32,1,119.999996337891,2|10,0:0|0:3,0:0:0:0:
338,92,197649,1,2,0:2:0:0:
238,49,197949,1,2,0:2:0:0:
134,78,198249,2,0,L|163:148,1,59.9999981689453,2|2,0:0|0:3,0:0:0:0:
183,180,198549,1,8,0:0:0:0:
215,223,198699,2,0,L|351:212,1,119.999996337891,10|10,0:0|0:0,0:0:0:0:
388,211,199149,1,0,0:0:0:0:
478,270,199449,6,0,P|466:323|381:355,1,119.999996337891,2|8,0:3|0:0,0:0:0:0:
366,330,199899,2,0,P|315:299|259:313,1,119.999996337891,2|10,0:3|0:3,0:0:0:0:
151,325,200499,1,2,0:2:0:0:
159,271,200649,2,0,L|171:174,1,59.9999981689453,2|0,0:0|0:0,0:0:0:0:
175,157,200949,1,8,0:0:0:0:
182,103,201099,2,0,L|109:6,1,119.999996337891,10|10,0:0|0:0,0:0:0:0:
62,33,201549,1,8,0:0:0:0:
51,85,201699,1,10,0:0:0:0:
40,138,201849,1,2,0:0:0:0:
98,228,202149,5,8,0:0:0:0:
175,303,202449,1,2,0:2:0:0:
175,303,202599,2,0,L|300:263,1,119.999996337891,10|2,0:0|0:0,0:0:0:0:
341,251,203049,1,2,0:0:0:0:
448,251,203349,2,0,L|441:328,1,59.9999981689453,8|8,0:0|0:0,0:0:0:0:
434,364,203649,1,0,0:0:0:0:
434,364,203799,2,0,L|288:343,1,119.999996337891,10|2,0:0|0:0,0:0:0:0:
268,318,204249,6,0,P|260:277|260:202,1,59.9999981689453,2|2,0:3|0:2,0:0:0:0:
259,204,204549,1,10,0:3:0:0:
274,152,204699,1,2,0:2:0:0:
380,132,204999,1,2,0:3:0:0:
439,42,205299,1,0,1:0:0:0:
394,11,205449,2,0,L|282:28,1,59.9999981689453,2|0,0:0|0:0,0:0:0:0:
282,32,205749,1,8,0:0:0:0:
292,84,205899,1,10,0:0:0:0:
283,191,206199,1,10,0:0:0:0:
276,244,206349,1,8,0:0:0:0:
264,296,206499,1,10,0:0:0:0:
253,349,206649,6,0,P|148:304|59:354,1,179.999994506836,2|2,0:0|0:0,0:0:0:0:
48,357,207249,2,0,P|71:300|72:227,1,119.999996337891,2|2,0:2|0:2,0:0:0:0:
43,138,207849,2,0,L|193:151,1,119.999996337891,2|8,0:0|0:0,0:0:0:0:
197,190,208299,2,0,L|334:174,1,119.999996337891,10|10,0:0|0:0,0:0:0:0:
368,188,208749,1,0,0:0:0:0:
463,137,209049,6,0,L|472:290,1,119.999996337891,2|8,0:0|0:0,0:0:0:0:
447,306,209499,2,0,L|294:315,1,119.999996337891,2|10,0:0|0:0,0:0:0:0:
280,340,209949,1,0,0:0:0:0:
193,299,210249,6,0,B|236:238|154:157|209:91,1,200,2|2,2:0|0:3,0:0:0:0:
199,104,211149,1,2,0:3:0:0:
299,83,211449,1,4,0:0:0:0:
