osu file format v14

[General]
AudioFilename: audio.mp3
AudioLeadIn: 0
PreviewTime: 76976
Countdown: 0
SampleSet: Normal
StackLeniency: 0.4
Mode: 0
LetterboxInBreaks: 0
WidescreenStoryboard: 1

[Editor]
Bookmarks: 38576,76774,115289,153655,172838,211376
DistanceSpacing: 0.7
BeatDivisor: 4
GridSize: 32
TimelineZoom: 3.199999

[Metadata]
Title:Geist
TitleUnicode:Geist
Artist:Harito
ArtistUnicode:Harito
Creator:MaridiuS
Version:Insane
Source:
Tags:instrumental [MaRy] Artcore Electronic edm Sin:cK Street
BeatmapID:2220146
BeatmapSetID:1015012

[Difficulty]
HPDrainRate:5
CircleSize:4
OverallDifficulty:8.3
ApproachRate:9.1
SliderMultiplier:1.8
SliderTickRate:1

[Events]
//Background and Video events
0,0,"39b7fdb9-66a9-4c28-cc82-fa6fe792ac2d.jpg",0,0
//Break Periods
//Storyboard Layer 0 (Background)
//Storyboard Layer 1 (Fail)
//Storyboard Layer 2 (Pass)
//Storyboard Layer 3 (Foreground)
//Storyboard Layer 4 (Overlay)
//Storyboard Sound Samples

[TimingPoints]
19449,300,4,2,0,70,1,0
19449,-133.333333333333,4,2,0,50,0,0
38649,-100,4,2,1,70,0,0
57849,-200,4,2,0,70,0,0
75849,-133.333333333333,4,2,3,70,0,0
77049,-100,4,2,1,70,0,0
115449,-125,4,2,1,70,0,0
173049,-90.9090909090909,4,1,1,80,0,1
191049,-111.111111111111,4,1,1,80,0,1
191649,-133.333333333333,4,1,1,70,0,0
191724,-133.333333333333,4,1,1,5,0,0
191799,-133.333333333333,4,1,1,70,0,0
191874,-133.333333333333,4,1,1,5,0,0
191949,-133.333333333333,4,1,1,70,0,0
192024,-133.333333333333,4,1,1,5,0,0
192099,-133.333333333333,4,1,1,70,0,0
192174,-133.333333333333,4,1,1,5,0,0
192249,-90.9090909090909,4,1,1,80,0,1
210249,-133.333333333333,4,1,1,70,0,0
210324,-133.333333333333,4,1,1,5,0,0
210399,-133.333333333333,4,1,1,70,0,0
210474,-133.333333333333,4,1,1,5,0,0
210549,-133.333333333333,4,1,1,70,0,0
210624,-133.333333333333,4,1,1,5,0,0
210699,-133.333333333333,4,1,1,70,0,0
210774,-133.333333333333,4,1,1,5,0,0
210849,-133.333333333333,4,1,1,70,0,0

[Colours]
Combo1 : 188,149,12
Combo2 : 215,147,172
Combo3 : 6,203,219
Combo4 : 97,173,50
Combo5 : 204,0,5

[HitObjects]
72,65,19449,6,0,P|115:51|209:76,1,135.000005149842,4|8,0:2|0:2,0:0:0:0:
219,158,19899,1,0,0:2:0:0:
200,70,20049,2,0,L|190:-2,1,67.5000025749208,2|0,0:2|0:2,0:0:0:0:
306,158,20349,2,2,L|296:232,1,67.5000025749208,8|0,0:2|0:2,0:0:0:0:
208,323,20649,6,0,L|356:307,1,135.000005149842,2|8,0:2|0:2,0:0:0:0:
476,294,21099,1,2,0:2:0:0:
476,294,21249,2,0,L|313:311,1,135.000005149842,2|8,0:2|0:2,0:0:0:0:
296,224,21699,1,0,0:2:0:0:
260,138,21849,6,0,P|258:103|240:51,1,67.5000025749208,0|0,0:2|0:2,0:0:0:0:
354,153,22149,2,0,P|364:119|395:74,1,67.5000025749208,8|0,0:2|0:2,0:0:0:0:
384,232,22449,1,2,0:2:0:0:
384,232,22599,2,0,P|422:216|472:207,1,67.5000025749208,2|8,0:2|0:2,0:0:0:0:
330,304,22899,1,0,0:2:0:0:
205,342,23049,6,0,L|216:190,1,135.000005149842,2|8,0:2|0:2,0:0:0:0:
122,243,23499,2,0,L|91:247,3,22.5000008583069,2|0|0|0,0:2|0:2|0:2|0:2,0:0:0:0:
166,64,23949,6,0,L|161:102,5,22.5000008583069,10|0|0|0|0|0,0:2|0:2|0:2|0:2|0:2|0:2,0:0:0:0:
183,27,24249,2,0,P|154:24|103:35,1,67.5000025749208,0|0,0:2|0:2,0:0:0:0:
78,106,24549,1,10,0:2:0:0:
149,156,24699,1,0,0:2:0:0:
236,154,24849,1,2,0:2:0:0:
308,104,24999,1,2,0:2:0:0:
387,149,25149,6,0,L|471:163,1,67.5000025749208,8|0,0:2|0:2,0:0:0:0:
389,248,25449,2,0,L|442:383,1,135.000005149842,2|8,0:2|0:2,0:0:0:0:
312,288,25899,1,2,0:2:0:0:
272,215,26049,2,0,B|242:117|242:117|233:164,1,135.000005149842,2|8,0:2|0:2,0:0:0:0:
186,219,26499,1,0,0:2:0:0:
153,138,26649,6,0,L|137:69,1,67.5000025749208,0|0,0:2|0:2,0:0:0:0:
103,211,26949,2,0,L|51:259,1,67.5000025749208,8|0,0:2|0:2,0:0:0:0:
189,222,27249,1,2,0:2:0:0:
189,222,27399,2,0,L|256:242,1,67.5000025749208,2|8,0:2|0:2,0:0:0:0:
393,323,27699,1,0,0:2:0:0:
317,350,27849,6,0,B|306:272|340:289|333:208,1,135.000005149842,2|8,0:2|0:2,0:0:0:0:
325,129,28299,2,0,L|331:91,3,22.5000008583069,2|0|0|0,0:2|0:2|0:2|0:2,0:0:0:0:
165,122,28749,5,10,0:2:0:0:
74,142,28899,2,0,L|22:154,2,33.7500012874604,2|0|2,0:2|0:2|0:2,0:0:0:0:
241,179,29199,5,0,0:2:0:0:
285,119,29349,2,0,L|274:253,1,135.000005149842,8|2,0:2|0:2,0:0:0:0:
128,300,29799,2,0,L|196:284,1,67.5000025749208,0|8,0:2|0:2,0:0:0:0:
329,308,30099,1,0,0:2:0:0:
378,226,30249,6,0,L|518:217,1,135.000005149842,2|8,0:2|0:2,0:0:0:0:
445,384,30699,2,0,L|450:242,1,135.000005149842,2|2,0:2|0:2,0:0:0:0:
411,143,31149,1,8,0:2:0:0:
498,140,31299,1,0,0:2:0:0:
315,167,31449,6,0,P|331:129|338:95,1,67.5000025749208,0|0,0:2|0:2,0:0:0:0:
209,143,31749,2,0,P|208:106|199:63,1,67.5000025749208,8|0,0:2|0:2,0:0:0:0:
106,170,32049,1,2,0:2:0:0:
106,170,32199,2,0,P|98:133|84:102,1,67.5000025749208,2|8,0:2|0:2,0:0:0:0:
159,332,32499,5,0,0:2:0:0:
183,255,32649,2,0,B|249:229|249:229|317:253,1,135.000005149842,2|8,0:2|0:2,0:0:0:0:
331,353,33099,2,0,L|327:319,3,22.5000008583069,2|0|0|0,0:2|0:2|0:2|0:2,0:0:0:0:
408,167,33549,6,0,L|411:131,5,22.5000008583069,10|0|0|0|0|0,0:2|0:2|0:2|0:2|0:2|0:2,0:0:0:0:
391,158,33849,2,0,L|387:71,1,67.5000025749208,0|0,0:2|0:2,0:0:0:0:
281,45,34149,2,0,L|279:131,1,67.5000025749208,10|0,0:2|0:2,0:0:0:0:
312,284,34449,2,0,L|310:201,2,67.5000025749208,2|2|10,0:2|0:2|0:2,0:0:0:0:
141,285,34899,5,0,0:2:0:0:
204,229,35049,2,0,B|127:213|147:250|62:245,1,135.000005149842,2|8,0:2|0:2,0:0:0:0:
79,177,35499,2,0,L|70:257,1,67.5000025749208,2|0,0:2|0:2,0:0:0:0:
204,229,35799,2,0,L|212:159,1,67.5000025749208,2|8,0:2|0:2,0:0:0:0:
376,88,36099,1,0,0:2:0:0:
317,19,36249,6,0,B|290:82|290:82|312:163,1,135.000005149842,2|8,0:2|0:2,0:0:0:0:
414,207,36699,1,0,0:2:0:0:
355,301,36849,2,0,P|316:319|213:298,1,135.000005149842,2|8,0:2|0:2,0:0:0:0:
154,156,37299,1,0,0:2:0:0:
154,156,37449,5,2,0:2:0:0:
240,142,37599,2,0,L|227:215,1,67.5000025749208,0|8,0:2|0:2,0:0:0:0:
126,322,37899,2,0,L|122:290,3,22.5000008583069,2|0|0|0,0:2|0:2|0:2|0:2,0:0:0:0:
88,11,38349,5,8,0:2:0:0:
151,92,38499,2,0,L|156:144,1,33.7500012874604,0|0,0:2|0:2,0:0:0:0:
164,202,38649,5,0,1:2:0:0:
349,203,38799,2,0,P|318:194|250:159,1,90,0|0,0:2|1:2,0:0:0:0:
234,50,39099,1,0,0:2:0:0:
346,101,39249,6,0,L|445:82,1,90,8|2,0:2|0:2,0:0:0:0:
244,266,39549,2,0,L|146:283,1,90,8|2,0:2|0:2,0:0:0:0:
51,150,39849,2,0,L|33:343,1,180,4|0,1:3|0:2,0:0:0:0:
275,370,40299,1,0,0:2:0:0:
146,289,40449,1,10,0:2:0:0:
268,188,40599,1,0,0:2:0:0:
151,139,40749,2,0,L|140:11,1,90,10|2,0:2|1:2,0:0:0:0:
398,73,41049,6,0,P|351:62|292:69,1,90,0|0,1:2|0:2,0:0:0:0:
232,93,41349,1,2,0:2:0:0:
381,171,41499,1,0,1:2:0:0:
263,257,41649,2,0,L|294:147,1,90,8|2,0:2|0:2,0:0:0:0:
129,213,41949,2,0,L|107:100,1,90,8|2,0:2|0:2,0:0:0:0:
13,331,42249,6,0,P|66:304|147:322,1,135,4|0,1:3|0:0,0:0:0:0:
177,347,42549,2,0,P|189:298|186:242,1,90,8|0,0:2|0:2,0:0:0:0:
215,161,42849,1,2,1:2:0:0:
276,328,42999,2,0,P|288:279|287:227,1,90,8|0,0:2|0:2,0:0:0:0:
254,71,43299,1,0,1:2:0:0:
458,156,43449,6,0,L|349:142,2,90,0|0|0,1:2|0:2|0:2,0:0:0:0:
177,150,43899,1,0,1:2:0:0:
272,209,44049,2,0,L|284:298,1,90,8|0,0:2|0:2,0:0:0:0:
74,166,44348,2,0,L|62:74,1,90,8|2,0:2|0:2,0:0:0:0:
130,278,44649,6,0,B|195:235|147:157|223:119,1,180,4|0,1:3|0:2,0:0:0:0:
387,167,45099,1,0,0:2:0:0:
272,209,45249,1,8,0:2:0:0:
325,73,45399,1,2,1:2:0:0:
347,259,45549,2,0,L|357:366,1,90,8|2,0:2|1:2,0:0:0:0:
479,131,45849,6,0,L|490:18,1,90,0|0,1:2|0:0,0:0:0:0:
487,232,46149,1,0,0:2:0:0:
487,232,46299,1,2,1:2:0:0:
385,97,46449,2,0,P|341:84|285:105,1,90,8|0,0:2|0:2,0:0:0:0:
208,247,46749,2,0,P|252:260|308:239,1,90,8|2,0:2|1:2,0:0:0:0:
106,92,47049,6,0,L|99:260,1,135,4|0,1:3|0:2,0:0:0:0:
99,257,47349,2,0,P|53:238|6:258,1,90,8|0,0:2|0:2,0:0:0:0:
104,347,47649,1,0,1:2:0:0:
191,254,47799,2,0,P|209:208|190:161,1,90,8|0,0:2|0:2,0:0:0:0:
99,257,48099,1,0,1:2:0:0:
301,367,48249,6,0,L|393:362,1,90,0|2,1:2|0:2,0:0:0:0:
512,291,48549,1,0,1:2:0:0:
344,226,48699,1,2,0:2:0:0:
512,147,48849,2,0,L|422:142,1,90,8|0,0:2|0:2,0:0:0:0:
245,67,49149,2,0,L|335:62,1,90,8|2,0:2|0:2,0:0:0:0:
154,10,49449,6,0,P|160:79|150:204,1,180,4|2,1:3|0:2,0:0:0:0:
53,253,49899,1,2,0:2:0:0:
148,384,50049,2,0,P|158:337|155:274,1,90,8|0,0:2|1:2,0:0:0:0:
42,139,50349,1,8,0:2:0:0:
152,189,50499,1,0,1:2:0:0:
303,93,50649,6,0,L|385:36,2,90,0|2|2,1:2|0:2|0:2,0:0:0:0:
202,73,51099,1,2,0:2:0:0:
380,148,51249,1,8,0:2:0:0:
230,224,51399,1,0,0:2:0:0:
392,289,51549,2,0,L|384:387,1,90,10|0,0:2|0:0,0:0:0:0:
95,317,51849,6,0,L|241:331,1,135,4|0,1:3|0:2,0:0:0:0:
309,285,52149,2,0,P|320:227|297:182,1,90,8|0,0:2|0:2,0:0:0:0:
180,141,52449,1,0,1:2:0:0:
333,281,52599,2,0,P|344:223|321:178,1,90,8|0,0:2|0:2,0:0:0:0:
159,115,52899,1,2,1:2:0:0:
54,203,53049,6,0,L|42:13,1,180,0|2,1:2|0:2,0:0:0:0:
42,23,53499,1,0,1:2:0:0:
163,221,53649,2,0,L|192:126,1,90,8|0,0:2|0:2,0:0:0:0:
253,286,53949,2,0,L|325:218,1,90,8|2,0:2|0:2,0:0:0:0:
437,135,54249,2,0,L|425:327,1,180,4|0,1:3|1:2,0:0:0:0:
196,145,54699,1,2,0:2:0:0:
348,165,54849,1,8,0:2:0:0:
326,320,54999,1,0,0:2:0:0:
174,300,55149,2,0,L|56:325,1,90,8|2,0:2|0:2,0:0:0:0:
15,170,55449,6,0,L|-4:384,1,180,4|0,1:2|1:2,0:0:0:0:
123,208,55899,1,2,0:2:0:0:
88,98,56049,2,0,P|75:50|93:9,1,90,8|0,0:2|0:2,0:0:0:0:
345,40,56349,2,0,P|357:87|339:128,1,90,8|2,0:2|0:2,0:0:0:0:
228,293,56649,6,0,L|236:120,1,135,4|0,1:3|0:2,0:0:0:0:
261,118,56949,2,0,P|215:129|150:112,1,90,8|0,0:2|0:2,0:0:0:0:
0,83,57249,1,0,1:2:0:0:
166,22,57399,2,0,P|211:10|277:28,1,90,8|0,0:2|0:2,0:0:0:0:
433,84,57699,1,2,1:2:0:0:
369,243,57849,6,0,B|269:275|229:200|133:240,1,225,6|0,3:2|0:0,0:0:0:0:
81,285,58749,1,0,0:2:0:0:
81,285,58899,1,0,0:2:0:0:
58,186,59049,2,0,P|54:115|35:45,1,135,2|0,3:2|0:2,0:0:0:0:
172,69,59649,2,0,P|149:134|141:203,1,135,2|0,3:2|0:2,0:0:0:0:
274,251,60249,6,0,L|209:254,1,45,2|0,3:2|0:2,0:0:0:0:
359,255,60549,2,0,L|424:252,1,45,0|0,3:2|0:2,0:0:0:0:
266,332,60849,2,0,L|201:335,1,45,0|0,3:2|0:2,0:0:0:0:
351,336,61149,2,0,L|416:333,1,45,0|0,3:2|0:2,0:0:0:0:
420,171,61449,2,0,P|396:101|406:27,1,135,2|0,0:2|0:2,0:0:0:0:
430,187,62049,2,0,P|360:210|286:201,1,135,2|0,0:2|0:2,0:0:0:0:
223,130,62649,6,0,P|216:186|215:231,1,90,2|0,0:2|0:2,0:0:0:0:
217,300,63099,1,2,0:2:0:0:
99,132,63399,1,2,0:2:0:0:
21,310,63699,1,0,3:2:0:0:
27,227,63849,2,0,P|53:228|116:242,1,90,2|2,0:2|0:2,0:0:0:0:
295,313,64299,1,0,0:2:0:0:
289,230,64449,2,0,P|263:231|200:245,1,90,2|0,0:2|0:0,0:0:0:0:
159,318,64899,1,0,0:2:0:0:
158,167,65049,6,0,P|153:117|157:60,1,90,2|0,0:2|3:2,0:0:0:0:
182,0,65499,1,0,0:2:0:0:
302,32,65649,2,0,P|262:29|240:29,1,45,2|0,0:2|0:2,0:0:0:0:
264,107,65949,2,0,P|304:110|326:110,1,45,2|0,0:2|0:2,0:0:0:0:
409,64,66249,6,0,P|416:142|418:212,1,135,0|2,3:2|0:2,0:0:0:0:
354,321,66849,2,0,P|345:292|343:267,1,45,2|0,0:2|0:0,0:0:0:0:
342,199,67149,1,8,0:2:0:0:
422,276,67299,1,2,0:2:0:0:
240,186,67449,6,0,P|181:185|97:195,1,135,0|0,3:2|0:2,0:0:0:0:
65,274,68049,2,0,P|94:273|120:268,1,45,2|0,0:2|0:2,0:0:0:0:
245,267,68349,2,0,P|216:268|191:270,1,45,0|0,3:2|0:2,0:0:0:0:
153,112,68649,6,0,P|150:71|98:-5,1,135,2|0,0:2|0:2,0:0:0:0:
225,169,69249,2,0,P|227:128|282:50,1,135,2|0,0:2|0:2,0:0:0:0:
418,93,69849,2,0,P|370:110|314:118,1,90,0|0,3:2|3:2,0:0:0:0:
408,183,70299,1,0,0:2:0:0:
396,263,70449,2,0,P|395:293|402:342,1,45,2|2,0:2|0:2,0:0:0:0:
444,381,70749,1,0,0:2:0:0:
444,381,70899,1,0,3:2:0:0:
296,287,71049,6,0,P|298:232|310:151,1,135,2|0,3:2|0:2,0:0:0:0:
211,32,71649,2,0,P|213:86|225:168,1,135,10|0,0:2|0:2,0:0:0:0:
185,363,72249,6,0,L|187:303,1,45,2|0,3:2|0:0,0:0:0:0:
223,243,72549,1,0,0:0:0:0:
223,243,72699,2,0,L|162:240,1,45,0|2,0:2|0:2,0:0:0:0:
100,217,72999,2,0,L|97:278,1,45,2|0,0:2|3:2,0:0:0:0:
95,339,73299,1,0,0:2:0:0:
27,188,73449,6,0,P|29:122|38:53,1,135,2|2,0:2|0:2,0:0:0:0:
205,109,74049,2,0,P|154:112|99:114,1,90,2|2,0:2|3:2,0:0:0:0:
115,113,74499,1,2,0:2:0:0:
296,61,74649,6,0,P|300:103|301:163,1,90,2|0,3:2|0:0,0:0:0:0:
301,150,75099,1,0,0:2:0:0:
388,135,75249,2,0,P|412:135|439:136,1,45,2|0,0:2|0:2,0:0:0:0:
455,284,75549,2,0,P|430:290|405:296,1,45,2|0,0:2|0:2,0:0:0:0:
411,213,75849,6,0,P|346:219|259:238,1,135.000005149842,0|2,3:2|0:2,0:0:0:0:
171,280,76299,1,0,0:2:0:0:
63,249,76449,2,0,P|56:217|53:164,1,67.5000025749208,2|0,0:2|0:2,0:0:0:0:
152,192,76749,1,2,1:2:0:0:
91,343,76899,1,10,0:2:0:0:
121,93,77049,6,0,B|190:97|190:97|226:116|226:116|323:127,1,180,4|0,1:3|0:2,0:0:0:0:
480,139,77499,1,0,1:2:0:0:
387,70,77649,2,0,L|381:166,1,90,8|0,1:1|0:2,0:0:0:0:
301,196,77949,1,0,1:2:0:0:
297,49,78099,1,0,1:2:0:0:
175,193,78249,5,2,2:0:0:0:
175,193,78399,1,0,1:2:0:0:
175,193,78549,1,0,1:2:0:0:
6,12,78849,2,0,L|12:103,1,90,8|0,0:1|0:2,0:0:0:0:
63,186,79149,1,2,1:2:0:0:
123,76,79299,1,2,1:2:0:0:
243,316,79449,6,0,B|234:188|234:188|274:265,1,180,0|0,1:0|0:2,0:0:0:0:
328,291,79899,1,0,1:2:0:0:
153,304,80049,2,0,L|249:316,1,90,8|0,0:1|0:2,0:0:0:0:
258,235,80349,1,0,1:2:0:0:
308,378,80499,1,0,0:2:0:0:
364,190,80649,5,2,1:2:0:0:
364,190,80799,1,2,1:2:0:0:
184,146,80949,1,2,1:2:0:0:
184,146,81099,1,2,1:2:0:0:
282,102,81249,2,0,L|287:12,1,90,8|2,0:1|1:2,0:0:0:0:
262,216,81549,1,2,1:2:0:0:
262,216,81699,1,2,1:2:0:0:
124,85,81849,6,0,B|63:103|63:103|109:-7,1,180,0|0,1:2|0:2,0:0:0:0:
202,32,82299,1,0,1:2:0:0:
117,189,82449,2,0,L|110:292,1,90,8|0,0:1|0:2,0:0:0:0:
220,137,82749,1,0,1:2:0:0:
63,103,82899,1,0,0:2:0:0:
308,67,83049,6,0,B|352:56|352:56|423:69,1,90,2|0,0:2|1:2,0:0:0:0:
491,106,83349,1,2,1:2:0:0:
358,150,83499,1,2,1:2:0:0:
358,150,83574,1,0,1:2:0:0:
358,150,83649,2,0,L|366:248,1,90,8|2,0:1|0:2,0:0:0:0:
379,327,83949,1,2,1:2:0:0:
446,202,84099,1,2,1:2:0:0:
218,320,84249,6,0,B|208:249|208:249|227:211|227:211|214:131,1,180,0|0,1:2|0:2,0:0:0:0:
130,187,84699,1,2,1:2:0:0:
302,272,84849,2,0,L|398:263,1,90,8|0,0:1|0:2,0:0:0:0:
316,183,85149,1,2,1:2:0:0:
305,369,85299,1,2,1:2:0:0:
73,321,85449,5,2,1:2:0:0:
73,321,85599,1,2,1:2:0:0:
204,288,85749,1,2,1:2:0:0:
204,288,85899,1,2,1:2:0:0:
117,223,86049,2,0,L|91:131,1,90,8|2,0:1|1:2,0:0:0:0:
61,51,86274,1,0,1:2:0:0:
61,51,86349,1,2,1:2:0:0:
7,162,86499,1,0,1:2:0:0:
230,155,86649,6,0,B|356:176|356:176|401:150,1,180,0|0,1:2|0:2,0:0:0:0:
330,78,87099,1,0,1:2:0:0:
282,261,87249,2,0,L|288:364,1,90,8|0,0:1|0:2,0:0:0:0:
382,343,87549,1,0,1:2:0:0:
191,275,87699,1,0,1:2:0:0:
389,176,87849,5,0,1:2:0:0:
389,176,87999,1,0,1:2:0:0:
389,176,88149,1,0,1:2:0:0:
198,98,88449,2,0,B|111:70|111:70|15:97,1,180,8|2,0:1|1:2,0:0:0:0:
25,93,88899,1,2,1:2:0:0:
98,338,89049,6,0,L|110:151,1,180,0|0,1:2|1:2,0:0:0:0:
6,257,89499,1,0,1:2:0:0:
195,273,89649,2,0,L|296:281,1,90,8|0,0:1|0:2,0:0:0:0:
199,165,89949,2,0,L|98:157,1,90,0|2,0:2|1:2,0:0:0:0:
333,66,90249,5,2,1:2:0:0:
333,101,90399,1,0,1:2:0:0:
389,245,90549,1,2,1:2:0:0:
389,210,90699,1,0,1:2:0:0:
455,29,90849,2,0,L|456:123,1,90,8|2,0:1|1:2,0:0:0:0:
512,252,91149,1,2,1:2:0:0:
512,217,91299,1,2,1:2:0:0:
287,203,91449,6,0,B|233:183|233:183|176:204|176:204|113:183,1,180,0|0,1:2|1:2,0:0:0:0:
171,110,91899,1,2,1:2:0:0:
235,276,92049,1,8,0:1:0:0:
294,112,92199,2,0,L|327:18,1,90,0|0,0:2|1:2,0:0:0:0:
323,27,92499,1,0,1:2:0:0:
371,214,92649,6,0,L|406:310,1,90,2|0,1:2|1:2,0:0:0:0:
494,369,92949,1,0,1:2:0:0:
493,224,93099,1,2,1:2:0:0:
493,224,93174,1,0,1:2:0:0:
493,224,93249,1,8,0:1:0:0:
220,348,93549,1,0,1:2:0:0:
215,228,93699,1,8,0:2:0:0:
126,247,93849,6,0,L|358:278,1,180,0|0,1:2|0:2,0:0:0:0:
394,284,94299,1,2,1:2:0:0:
340,161,94449,1,8,0:1:0:0:
246,142,94599,1,2,1:2:0:0:
206,30,94749,1,0,1:2:0:0:
111,0,94899,1,2,1:2:0:0:
311,64,95049,5,2,1:2:0:0:
311,64,95199,1,2,1:2:0:0:
148,118,95349,1,2,1:2:0:0:
148,118,95499,1,2,1:2:0:0:
304,221,95649,2,0,L|292:334,1,90,8|0,0:1|0:2,0:0:0:0:
90,384,95949,2,0,L|80:286,1,90,0|0,0:2|0:2,0:0:0:0:
13,178,96249,6,0,P|36:170|127:178,1,90,6|0,1:2|0:2,0:0:0:0:
288,106,96549,2,0,P|264:113|174:106,1,90,2|0,0:2|0:2,0:0:0:0:
103,87,96849,1,8,0:1:0:0:
188,189,96999,1,8,0:2:0:0:
64,253,97149,1,0,1:2:0:0:
159,343,97299,1,8,0:2:0:0:
86,172,97449,6,0,L|69:69,1,90,2|0,1:2|0:2,0:0:0:0:
224,108,97749,2,0,L|241:5,1,90,2|0,1:2|1:2,0:0:0:0:
266,16,97974,1,0,1:2:0:0:
266,16,98049,1,8,0:1:0:0:
323,113,98199,1,8,0:2:0:0:
453,106,98349,1,0,0:2:0:0:
391,212,98499,1,8,0:2:0:0:
494,320,98649,6,0,P|449:328|391:316,1,90,2|0,1:2|0:2,0:0:0:0:
220,270,98949,2,0,P|264:278|323:266,1,90,2|0,0:2|0:2,0:0:0:0:
398,122,99249,2,0,L|389:232,1,90,8|0,0:1|0:2,0:0:0:0:
265,179,99549,2,0,L|274:69,1,90,0|0,0:2|0:2,0:0:0:0:
30,160,99849,5,2,1:2:0:0:
141,95,99999,1,0,1:2:0:0:
141,217,100149,1,0,1:2:0:0:
167,82,100299,1,2,0:2:0:0:
167,82,100374,1,2,0:2:0:0:
167,82,100449,2,0,L|60:61,1,90,8|0,0:1|0:2,0:0:0:0:
28,125,100674,1,8,0:2:0:0:
30,160,100749,2,0,L|39:266,1,90,0|0,0:0|0:2,0:0:0:0:
262,315,101049,6,0,P|214:320|153:306,1,90,2|0,1:2|0:2,0:0:0:0:
328,138,101349,2,0,P|375:132|437:147,1,90,2|0,0:2|0:2,0:0:0:0:
512,334,101649,2,0,L|503:244,1,90,8|8,0:1|0:2,0:0:0:0:
361,357,101949,1,0,1:2:0:0:
386,260,102099,1,8,0:2:0:0:
216,219,102249,6,0,P|173:195|115:187,1,90,2|0,1:2|0:2,0:0:0:0:
252,108,102549,2,0,P|295:84|353:76,1,90,2|0,1:2|1:2,0:0:0:0:
375,94,102774,1,0,1:2:0:0:
406,125,102849,1,8,0:1:0:0:
464,225,102999,1,8,0:2:0:0:
357,284,103149,1,0,1:2:0:0:
485,217,103299,1,8,0:2:0:0:
320,188,103449,6,0,L|213:172,1,90,2|0,1:2|0:2,0:0:0:0:
0,259,103749,2,0,L|107:243,1,90,2|0,0:2|0:0,0:0:0:0:
206,291,104049,2,0,L|221:404,1,90,8|0,0:1|0:2,0:0:0:0:
131,137,104349,2,0,L|116:24,1,90,0|0,0:2|0:2,0:0:0:0:
313,87,104649,6,0,L|205:77,2,90,2|0|2,1:2|1:2|0:2,0:0:0:0:
410,32,105099,1,0,1:2:0:0:
410,32,105174,1,8,0:2:0:0:
410,32,105249,1,8,0:1:0:0:
399,240,105399,2,0,L|395:184,2,45,0|8|0,0:2|0:2|1:0,0:0:0:0:
335,118,105699,1,0,1:2:0:0:
254,280,105849,6,0,P|206:292|141:271,1,90,2|0,1:2|0:2,0:0:0:0:
20,159,106149,2,0,P|68:146|133:168,1,90,2|0,0:2|0:2,0:0:0:0:
269,91,106449,1,8,0:1:0:0:
210,172,106599,1,8,0:2:0:0:
150,83,106749,1,0,1:2:0:0:
209,2,106899,1,8,0:2:0:0:
215,200,107049,5,2,1:2:0:0:
161,282,107199,1,0,1:2:0:0:
268,283,107349,2,0,L|383:273,1,90,2|0,1:2|1:2,0:0:0:0:
444,284,107574,1,0,1:0:0:0:
426,321,107649,2,0,L|359:388,1,90,8|8,0:1|0:2,0:0:0:0:
284,306,107949,1,0,1:2:0:0:
343,384,108099,1,8,0:2:0:0:
389,193,108249,6,0,P|385:129|390:62,1,90,2|0,1:2|0:2,0:0:0:0:
229,13,108549,2,0,P|233:76|228:144,1,90,2|0,0:2|0:2,0:0:0:0:
132,227,108849,2,0,P|175:232|235:222,1,90,8|0,0:1|0:2,0:0:0:0:
137,120,109149,2,0,P|73:55|-23:43,1,180,2|2,0:2|1:2,0:0:0:0:
45,205,109599,5,0,1:2:0:0:
155,121,109749,1,2,1:2:0:0:
190,259,109899,1,0,1:2:0:0:
190,259,109974,1,8,0:2:0:0:
190,259,110049,2,0,L|203:360,1,90,8|8,0:1|1:2,0:0:0:0:
285,365,110274,1,8,0:2:0:0:
317,347,110349,2,0,L|333:248,1,90,8|8,1:2|0:2,0:0:0:0:
401,108,110649,6,0,P|442:83|495:100,1,90,2|0,1:2|0:2,0:0:0:0:
207,44,110949,2,0,P|165:19|112:36,1,90,2|0,0:2|0:2,0:0:0:0:
181,130,111249,1,8,1:1:0:0:
301,25,111399,1,8,0:2:0:0:
326,159,111549,1,0,1:2:0:0:
153,140,111699,1,8,0:2:0:0:
237,272,111849,6,0,L|356:311,2,90,2|0|2,1:2|1:2|0:2,0:0:0:0:
103,238,112299,1,0,1:2:0:0:
103,238,112374,1,0,1:2:0:0:
103,238,112449,1,8,0:2:0:0:
125,337,112599,1,8,0:2:0:0:
185,192,112749,1,0,1:2:0:0:
5,224,112899,1,8,0:2:0:0:
191,165,113049,6,0,L|286:142,1,90,2|0,1:2|0:0,0:0:0:0:
87,67,113349,2,0,L|-8:44,1,90,2|0,0:2|0:0,0:0:0:0:
79,151,113649,2,0,P|72:196|78:241,1,90,8|0,0:1|0:2,0:0:0:0:
195,89,113949,2,0,P|201:44|196:0,1,90,0|0,0:2|0:2,0:0:0:0:
287,174,114249,5,2,1:2:0:0:
340,73,114399,1,0,1:2:0:0:
407,264,114549,2,0,L|390:155,1,90,2|0,1:2|1:2,0:0:0:0:
388,143,114774,1,0,0:0:0:0:
388,143,114849,1,8,0:1:0:0:
288,290,114999,1,0,1:2:0:0:
275,318,115074,1,8,1:2:0:0:
251,338,115149,1,0,1:2:0:0:
219,343,115224,1,8,1:2:0:0:
188,337,115299,1,8,1:2:0:0:
165,314,115374,1,0,1:2:0:0:
160,282,115449,1,4,1:2:0:0:
176,91,115749,6,0,B|228:81|228:81|271:94|271:94|336:86,1,144,10|0,0:3|0:2,0:0:0:0:
409,32,116199,1,2,1:2:0:0:
393,116,116349,1,8,0:2:0:0:
377,200,116499,1,2,0:2:0:0:
465,300,116649,2,0,L|482:394,1,72,0|0,1:2|0:2,0:0:0:0:
232,307,116949,5,10,0:3:0:0:
283,168,117099,1,0,0:2:0:0:
283,168,117174,1,0,1:2:0:0:
283,168,117249,2,0,L|294:249,1,72,4|8,1:2|0:2,0:0:0:0:
149,293,117549,2,0,L|157:378,1,72,0|8,0:2|0:2,0:0:0:0:
54,183,117849,6,0,B|94:155|94:155|218:148,1,144,4|10,1:3|0:3,0:0:0:0:
286,32,118299,2,0,L|279:120,1,72,4|0,1:3|0:2,0:0:0:0:
270,199,118599,1,10,0:2:0:0:
361,226,118749,2,0,L|394:236,6,18,0|0|0|0|0|0|0,0:2|0:2|0:2|0:2|0:2|0:2|0:2,0:0:0:0:
408,239,119049,6,0,L|401:156,2,72,8|0|10,0:2|1:2|0:3,0:0:0:0:
483,315,119499,1,2,0:2:0:0:
475,322,119574,1,2,0:2:0:0:
467,329,119649,1,8,0:2:0:0:
344,316,119799,1,8,0:2:0:0:
352,323,119874,1,8,0:2:0:0:
360,330,119949,1,8,0:2:0:0:
267,366,120099,1,8,0:2:0:0:
189,196,120249,6,0,P|176:126|183:66,1,108,0|0,1:3|0:0,0:0:0:0:
194,59,120549,2,0,L|282:54,1,72,10|2,0:3|0:2,0:0:0:0:
336,109,120849,1,2,0:2:0:0:
411,66,120999,1,0,1:2:0:0:
395,166,121149,1,10,0:2:0:0:
350,5,121299,1,8,0:2:0:0:
505,47,121449,5,2,0:2:0:0:
505,47,121599,2,0,P|511:85|498:129,1,72,0|10,0:0|0:3,0:0:0:0:
310,199,121899,1,0,1:2:0:0:
396,242,122049,2,0,P|434:248|478:235,1,72,10|0,0:2|1:2,0:0:0:0:
267,122,122349,1,0,1:2:0:0:
224,201,122499,1,2,0:2:0:0:
224,201,122574,1,2,0:2:0:0:
224,201,122649,2,0,L|230:283,1,72,0|8,1:2|0:2,0:0:0:0:
52,357,122949,2,0,L|136:392,1,72,10|8,1:3|0:2,0:0:0:0:
246,362,123249,6,0,B|196:346|196:346|103:268,1,144,4|0,1:3|0:2,0:0:0:0:
102,171,123699,1,8,0:2:0:0:
229,272,123849,2,0,L|182:123,1,144,4|0,1:3|0:3,0:0:0:0:
296,85,124299,2,0,L|286:172,1,72,4|0,1:3|0:2,0:0:0:0:
209,35,124599,1,8,0:2:0:0:
209,35,124674,1,8,0:2:0:0:
209,35,124749,1,8,0:2:0:0:
185,134,124899,1,8,0:2:0:0:
45,76,125049,6,0,L|143:66,1,72,0|0,1:2|0:2,0:0:0:0:
356,28,125349,2,0,L|343:186,1,144,10|0,0:3|0:2,0:0:0:0:
254,65,125799,1,0,0:2:0:0:
185,134,125949,2,0,L|192:222,1,72,10|8,0:0|0:2,0:0:0:0:
134,334,126249,5,2,1:2:0:0:
134,334,126399,2,0,P|171:327|228:342,1,72,0|10,0:0|0:3,0:0:0:0:
320,363,126699,1,0,1:2:0:0:
320,363,126774,1,0,1:2:0:0:
320,363,126849,1,0,1:2:0:0:
284,262,126999,1,8,0:2:0:0:
469,291,127149,2,0,P|432:298|375:283,1,72,2|8,1:2|0:2,0:0:0:0:
446,50,127449,6,0,L|440:210,1,144,4|10,1:3|0:3,0:0:0:0:
316,26,127899,2,0,L|331:109,1,72,4|0,1:3|0:2,0:0:0:0:
351,188,128199,1,10,0:2:0:0:
248,148,128349,2,0,L|221:139,6,18,0|0|0|0|0|0|0,1:2|1:2|1:2|1:2|1:2|1:2|1:2,0:0:0:0:
208,130,128649,6,0,L|214:205,1,72,0|0,1:2|1:2,0:0:0:0:
264,322,128949,1,10,1:3:0:0:
168,291,129099,1,2,0:2:0:0:
150,295,129174,1,2,0:2:0:0:
132,299,129249,1,8,0:2:0:0:
60,368,129399,1,8,0:2:0:0:
42,364,129474,1,8,0:2:0:0:
24,360,129549,2,0,L|35:278,1,72,8|10,0:2|0:2,0:0:0:0:
28,137,129849,6,0,L|102:143,1,72,0|0,1:2|0:2,0:0:0:0:
87,19,130149,2,0,L|182:62,1,72,10|0,0:3|0:2,0:0:0:0:
305,173,130449,1,2,0:2:0:0:
205,138,130599,2,0,L|213:224,1,72,2|10,1:2|0:2,0:0:0:0:
287,87,130899,1,0,0:0:0:0:
323,265,131049,5,2,1:2:0:0:
323,265,131199,2,0,P|363:272|399:263,1,72,2|10,1:2|0:3,0:0:0:0:
481,239,131499,1,0,0:2:0:0:
469,126,131649,2,0,P|429:119|393:128,1,72,10|0,0:2|0:2,0:0:0:0:
297,164,131949,2,0,L|286:61,1,72,10|2,0:0|0:2,0:0:0:0:
286,74,132174,1,2,0:2:0:0:
284,56,132249,1,0,1:2:0:0:
171,103,132399,1,8,0:2:0:0:
197,229,132549,1,10,1:3:0:0:
66,262,132699,1,8,0:2:0:0:
256,344,132849,6,0,L|411:314,1,144,4|0,1:3|0:2,0:0:0:0:
383,120,133299,1,10,0:2:0:0:
321,231,133449,2,0,L|176:204,1,144,4|0,1:3|0:3,0:0:0:0:
249,38,133899,2,0,L|263:131,1,72,4|0,1:3|0:2,0:0:0:0:
425,194,134199,1,8,0:2:0:0:
443,191,134274,1,8,0:2:0:0:
460,187,134349,1,10,0:2:0:0:
482,85,134499,1,10,0:2:0:0:
345,265,134649,6,0,L|329:142,1,108,0|0,1:2|0:0,0:0:0:0:
344,108,134949,2,0,P|285:129|206:110,1,144,10|0,0:3|0:2,0:0:0:0:
150,36,135399,1,0,1:2:0:0:
56,39,135549,1,8,0:2:0:0:
10,120,135699,1,8,0:2:0:0:
77,224,135849,2,0,L|69:314,1,72,0|0,1:2|0:2,0:0:0:0:
335,273,136149,5,10,0:3:0:0:
211,237,136299,1,0,1:2:0:0:
211,237,136374,1,0,1:2:0:0:
211,237,136449,2,0,L|199:157,1,72,0|8,1:2|0:2,0:0:0:0:
295,182,136749,1,0,1:2:0:0:
246,329,136899,1,8,0:2:0:0:
494,288,137049,6,0,B|445:278|445:278|373:195,1,144,4|10,1:3|0:3,0:0:0:0:
432,63,137499,2,0,B|469:96|469:96|490:204,1,144,4|10,1:3|0:2,0:0:0:0:
368,119,137949,2,0,L|335:114,6,18,0|0|0|0|0|0|0,1:2|1:2|1:2|1:2|1:2|1:2|1:2,0:0:0:0:
309,106,138249,6,0,L|320:187,1,72,0|0,1:2|1:2,0:0:0:0:
363,294,138549,1,10,1:3:0:0:
251,274,138699,1,2,0:2:0:0:
238,291,138774,1,2,0:2:0:0:
224,308,138849,1,8,0:2:0:0:
170,188,138999,1,8,0:2:0:0:
172,209,139074,1,8,0:2:0:0:
174,231,139149,2,0,L|187:313,1,72,8|8,0:2|0:2,0:0:0:0:
234,112,139449,6,0,P|181:98|109:128,1,108,0|0,1:2|0:0,0:0:0:0:
96,150,139749,2,0,L|108:1,1,144,10|2,0:3|1:2,0:0:0:0:
183,26,140199,1,0,1:2:0:0:
20,105,140349,1,10,0:2:0:0:
172,187,140499,1,0,0:0:0:0:
50,229,140649,6,0,L|45:308,1,72,0|2,1:2|1:2,0:0:0:0:
156,268,140949,1,10,0:3:0:0:
251,242,141099,1,0,1:2:0:0:
385,325,141249,1,8,0:2:0:0:
365,191,141399,1,0,0:2:0:0:
501,119,141549,2,0,L|491:205,1,72,8|0,0:2|1:2,0:0:0:0:
478,206,141774,1,0,1:2:0:0:
460,219,141849,2,0,L|454:294,1,72,0|8,0:2|0:2,0:0:0:0:
416,125,142149,5,10,1:3:0:0:
416,125,142299,1,8,0:2:0:0:
313,75,142449,2,0,L|475:115,1,144,4|0,1:3|0:2,0:0:0:0:
329,162,142899,1,8,0:2:0:0:
207,206,143049,2,0,L|359:191,1,144,4|0,1:3|0:3,0:0:0:0:
247,370,143499,2,0,L|256:288,1,72,4|0,1:3|0:2,0:0:0:0:
45,358,143799,5,8,0:2:0:0:
45,358,143874,1,8,0:2:0:0:
45,358,143949,1,10,0:2:0:0:
24,259,144099,1,10,0:2:0:0:
162,89,144249,6,0,L|156:219,1,108,0|0,1:2|0:0,0:0:0:0:
125,230,144549,2,0,P|178:248|272:218,1,144,10|0,0:3|0:2,0:0:0:0:
348,147,144999,1,2,1:2:0:0:
402,271,145149,1,10,0:2:0:0:
260,226,145299,1,10,0:2:0:0:
461,172,145449,5,0,1:2:0:0:
461,172,145599,2,0,P|469:133|453:72,1,72,0|10,0:2|0:3,0:0:0:0:
300,63,145899,1,0,0:2:0:0:
300,63,145974,1,0,1:2:0:0:
300,63,146049,2,0,L|381:70,1,72,6|8,1:2|0:2,0:0:0:0:
359,183,146349,2,0,L|278:176,1,72,2|10,1:2|0:2,0:0:0:0:
186,38,146649,6,0,L|194:155,1,108,4|0,1:3|0:0,0:0:0:0:
196,167,146949,1,10,0:3:0:0:
67,92,147099,2,0,B|32:124|32:124|25:237,1,144,4|0,1:3|0:2,0:0:0:0:
156,258,147549,2,0,L|127:248,6,18,0|0|0|0|0|0|0,0:2|0:2|0:2|0:2|0:2|0:2|0:2,0:0:0:0:
185,273,147849,5,0,1:2:0:0:
303,311,147999,2,0,L|390:279,1,72,0|10,1:2|1:3,0:0:0:0:
484,206,148299,1,0,0:2:0:0:
480,227,148374,1,0,0:2:0:0:
476,248,148449,1,8,0:2:0:0:
389,194,148599,1,8,0:2:0:0:
393,173,148674,1,8,0:2:0:0:
397,152,148749,2,0,L|412:74,1,72,8|8,0:2|0:2,0:0:0:0:
102,49,149049,6,0,B|131:39|131:39|199:44,1,72,2|0,1:2|0:0,0:0:0:0:
319,120,149349,2,0,B|289:129|289:129|222:125,1,72,10|0,0:3|0:0,0:0:0:0:
151,131,149649,2,0,L|159:215,1,72,0|10,0:2|0:2,0:0:0:0:
125,293,149949,1,2,1:2:0:0:
244,199,150099,1,8,0:2:0:0:
74,166,150249,5,2,1:2:0:0:
74,166,150399,2,0,P|36:157|-4:172,1,72,0|10,0:0|0:3,0:0:0:0:
149,253,150699,1,0,0:2:0:0:
28,348,150849,2,0,P|89:367|186:330,1,144,0|10,1:2|0:2,0:0:0:0:
270,289,151299,1,8,0:2:0:0:
291,293,151374,1,8,0:2:0:0:
312,297,151449,2,0,L|392:313,1,72,10|8,0:2|0:2,0:0:0:0:
178,204,151749,2,0,L|98:188,1,72,10|8,0:3|0:2,0:0:0:0:
238,333,152049,6,0,B|229:285|229:285|278:175,1,144,4|0,1:3|0:2,0:0:0:0:
354,15,152499,1,10,0:2:0:0:
348,229,152649,2,0,B|357:181|357:181|308:71,1,144,4|0,1:3|0:2,0:0:0:0:
155,104,153099,2,0,L|240:119,1,72,4|0,1:3|0:2,0:0:0:0:
435,237,153399,5,10,0:2:0:0:
445,210,153474,1,0,0:2:0:0:
453,182,153549,1,2,1:2:0:0:
444,154,153624,1,8,0:2:0:0:
435,126,153699,2,0,L|413:77,1,36,2|8,1:2|0:2,0:0:0:0:
378,13,153849,1,2,1:2:0:0:
145,153,154149,6,0,L|129:305,1,144,10|0,0:3|0:2,0:0:0:0:
196,353,154599,1,8,0:2:0:0:
46,302,154749,2,0,L|21:206,1,72,0|8,1:2|0:2,0:0:0:0:
1,142,155049,1,0,1:2:0:0:
259,165,155349,2,0,L|350:180,1,72,10|0,0:3|0:2,0:0:0:0:
357,183,155574,1,0,0:2:0:0:
384,190,155649,1,8,0:2:0:0:
490,150,155799,1,0,0:2:0:0:
479,261,155949,1,0,1:2:0:0:
402,97,156099,1,8,0:2:0:0:
402,25,156249,6,0,L|401:97,1,72,0|0,1:2|0:2,0:0:0:0:
145,153,156549,2,0,L|129:305,1,144,10|0,0:3|0:2,0:0:0:0:
196,353,156999,1,8,0:2:0:0:
46,302,157149,2,0,L|21:206,1,72,0|8,1:2|0:2,0:0:0:0:
1,142,157449,1,0,1:2:0:0:
259,165,157749,2,0,L|350:180,1,72,10|0,0:3|1:2,0:0:0:0:
357,183,157974,1,0,1:2:0:0:
384,190,158049,1,8,0:2:0:0:
490,150,158199,1,0,0:2:0:0:
479,261,158349,1,0,1:2:0:0:
402,97,158499,1,8,0:2:0:0:
401,25,158649,6,0,L|401:105,1,72,0|0,1:2|0:2,0:0:0:0:
212,160,158949,2,0,L|196:312,1,144,10|0,0:3|0:2,0:0:0:0:
263,360,159399,1,8,0:2:0:0:
113,309,159549,2,0,L|88:213,1,72,0|8,1:2|0:2,0:0:0:0:
94,167,159849,6,0,L|94:249,1,72,0|0,1:2|0:2,0:0:0:0:
315,303,160149,2,0,L|300:160,1,144,10|0,0:3|0:2,0:0:0:0:
249,360,160599,1,8,0:2:0:0:
399,309,160749,2,0,L|424:213,1,72,0|8,1:2|0:2,0:0:0:0:
417,167,161049,6,0,L|416:253,1,72,0|0,1:2|0:2,0:0:0:0:
196,303,161349,2,0,L|212:160,1,144,10|0,0:3|0:2,0:0:0:0:
263,360,161799,1,8,0:2:0:0:
113,309,161949,2,0,L|88:213,1,72,0|8,1:2|0:2,0:0:0:0:
95,167,162249,6,0,L|94:245,1,72,0|0,1:2|0:2,0:0:0:0:
315,303,162549,2,0,L|300:160,1,144,10|0,0:3|0:2,0:0:0:0:
249,360,162999,1,8,0:2:0:0:
399,309,163149,2,0,L|424:213,1,72,0|8,1:2|0:2,0:0:0:0:
421,57,163449,6,0,L|420:135,1,72,0|0,1:2|0:2,0:0:0:0:
213,233,163749,2,0,L|213:154,1,72,0|0,1:2|0:2,0:0:0:0:
311,56,164049,6,0,L|310:134,1,72,0|0,1:2|0:2,0:0:0:0:
103,232,164349,2,0,L|103:153,1,72,0|0,1:2|0:2,0:0:0:0:
237,110,164649,6,0,L|158:110,1,72,0|0,1:2|0:2,0:0:0:0:
61,318,164949,2,0,L|139:317,1,72,0|0,1:2|0:2,0:0:0:0:
235,17,165249,6,0,L|156:17,1,72,0|0,1:2|0:2,0:0:0:0:
59,225,165549,2,0,L|137:224,1,72,0|0,1:2|0:2,0:0:0:0:
302,138,165849,5,0,1:2:0:0:
307,267,165999,1,0,1:2:0:0:
366,213,166149,5,0,1:2:0:0:
237,218,166299,1,0,1:2:0:0:
317,143,166449,5,0,1:2:0:0:
322,272,166599,1,0,1:2:0:0:
381,218,166749,5,0,1:2:0:0:
252,223,166899,1,0,1:2:0:0:
136,208,167049,5,0,1:2:0:0:
131,79,167199,1,0,1:2:0:0:
72,133,167349,5,0,1:2:0:0:
201,128,167499,1,0,1:2:0:0:
121,203,167649,5,0,1:2:0:0:
116,74,167799,1,0,1:2:0:0:
57,128,167949,5,0,1:2:0:0:
186,123,168099,1,0,1:2:0:0:
259,57,168249,6,0,L|311:56,3,36,0|0|0|0,1:2|1:0|1:0|1:0,0:0:0:0:
348,137,168549,2,0,L|296:138,3,36,0|0|0|0,1:0|1:0|1:0|1:0,0:0:0:0:
259,218,168849,2,0,L|311:219,3,36,0|0|0|0,1:0|1:0|1:0|1:0,0:0:0:0:
348,298,169149,2,0,L|296:299,3,36,0|0|0|0,1:0|1:0|1:0|1:2,0:0:0:0:
266,369,169449,5,0,1:2:0:0:
238,359,169524,1,0,1:0:0:0:
210,349,169599,1,0,1:0:0:0:
182,339,169674,1,0,1:0:0:0:
154,329,169749,1,0,1:0:0:0:
171,306,169824,1,0,1:0:0:0:
191,285,169899,1,0,1:0:0:0:
209,263,169974,1,0,1:0:0:0:
229,242,170049,2,0,L|180:214,3,36,0|0|0|0,1:0|1:0|1:0|1:0,1:0:0:0:
129,172,170349,2,0,L|178:144,3,36,0|0|0|0,1:0|1:0|1:0|1:0,1:0:0:0:
191,81,170649,6,0,L|190:47,38,18,0|0|0|0|0|0|0|0|0|0|0|0|0|0|0|0|0|0|0|0|0|0|0|0|0|0|0|0|0|0|0|0|0|0|0|0|0|0|0,1:2|1:2|1:2|1:2|1:2|1:2|1:2|1:0|1:2|1:2|1:2|1:2|1:2|1:2|1:2|1:0|1:2|1:2|1:2|1:2|1:2|1:2|1:2|1:0|1:2|1:2|1:2|1:2|1:2|1:2|1:2|1:0|1:2|1:2|1:2|1:2|1:2|1:2|1:2,1:0:0:0:
304,79,172149,2,0,L|304:90,16,9,0|0|0|0|0|0|0|0|0|0|0|0|0|0|0|0|0,1:2|1:2|1:2|1:2|1:2|1:2|1:2|1:2|1:2|1:2|1:2|1:2|1:2|1:2|1:2|1:2|1:2,0:0:0:0:
99,66,173049,6,0,B|148:51|148:51|214:72,1,99.0000030212403,2|0,0:0|0:0,0:0:0:0:
121,267,173349,1,8,0:0:0:0:
150,142,173499,2,0,L|138:359,1,198.000006042481,2|10,0:0|0:3,0:0:0:0:
330,236,173949,1,0,0:0:0:0:
247,342,174099,1,2,0:0:0:0:
247,342,174174,1,0,0:0:0:0:
247,342,174249,6,0,L|238:234,1,99.0000030212403,2|0,0:3|0:0,0:0:0:0:
407,376,174549,1,0,0:0:0:0:
472,224,174699,1,10,0:3:0:0:
442,250,174774,1,8,0:0:0:0:
413,277,174849,1,8,0:0:0:0:
326,323,174999,1,8,0:0:0:0:
340,160,175149,2,0,L|354:52,1,99.0000030212403,0|2,0:0|0:3,0:0:0:0:
234,261,175449,6,0,P|302:239|429:259,1,198.000006042481,2|8,0:0|0:0,0:0:0:0:
425,257,175899,1,2,0:0:0:0:
340,160,176049,1,2,0:2:0:0:
284,12,176199,1,8,0:0:0:0:
238,114,176349,1,0,0:0:0:0:
386,58,176499,1,2,0:2:0:0:
111,63,176799,5,2,0:3:0:0:
58,143,176949,1,8,0:0:0:0:
83,158,177024,1,2,0:2:0:0:
112,162,177099,1,8,0:0:0:0:
141,157,177174,1,0,0:0:0:0:
166,142,177249,1,0,0:0:0:0:
245,75,177399,1,8,0:0:0:0:
273,68,177474,1,8,0:0:0:0:
302,71,177549,1,8,0:0:0:0:
397,127,177699,1,8,0:0:0:0:
284,308,177849,6,0,L|292:186,1,99.0000030212403,2|2,0:3|0:2,0:0:0:0:
378,55,178149,1,8,0:0:0:0:
190,159,178299,1,0,0:0:0:0:
384,229,178449,2,0,L|512:215,1,99.0000030212403,2|8,0:3|0:2,0:0:0:0:
271,127,178749,2,0,L|390:137,1,99.0000030212403
112,270,179049,6,0,L|102:201,1,49.5000015106202,2|0,0:0|0:0,0:0:0:0:
42,111,179199,2,0,L|32:180,1,49.5000015106202,0|0,0:0|0:0,0:0:0:0:
21,242,179349,1,8,0:0:0:0:
124,148,179499,1,10,0:0:0:0:
152,139,179574,1,8,0:0:0:0:
180,130,179649,1,8,0:0:0:0:
251,57,179799,1,10,0:0:0:0:
274,152,179949,2,0,L|268:257,1,99.0000030212403,2|2,0:3|0:0,0:0:0:0:
474,326,180249,6,0,P|396:347|301:326,1,148.50000453186,2|0,0:0|0:0,0:0:0:0:
303,324,180549,1,8,0:0:0:0:
368,216,180699,2,0,L|358:114,1,99.0000030212403,2|0,0:0|0:0,0:0:0:0:
289,311,180999,1,10,0:0:0:0:
377,235,181149,2,0,L|367:133,1,99.0000030212403,0|2,0:0|0:0,0:0:0:0:
409,28,181449,5,2,0:3:0:0:
265,114,181599,1,2,0:2:0:0:
192,18,181749,1,10,0:3:0:0:
54,104,181899,1,2,0:2:0:0:
50,133,181974,1,0,0:0:0:0:
47,162,182049,1,2,0:3:0:0:
156,265,182199,1,8,0:3:0:0:
155,235,182274,1,2,0:3:0:0:
154,205,182349,1,8,0:3:0:0:
153,175,182424,1,2,0:3:0:0:
152,145,182499,1,8,0:3:0:0:
259,171,182649,6,0,L|438:200,1,148.50000453186,8|0,0:0|0:0,0:0:0:0:
444,201,182949,1,8,0:0:0:0:
333,93,183099,1,0,0:0:0:0:
253,204,183249,1,0,0:0:0:0:
253,204,183324,1,2,0:2:0:0:
253,204,183399,1,8,0:0:0:0:
188,92,183549,1,0,0:0:0:0:
312,96,183699,1,0,0:0:0:0:
164,100,183849,2,0,L|30:74,1,99.0000030212403,0|2,0:0|0:2,0:0:0:0:
179,244,184149,5,8,0:0:0:0:
87,309,184299,1,8,0:0:0:0:
77,337,184374,1,8,0:0:0:0:
75,366,184449,1,8,0:0:0:0:
36,222,184599,2,0,P|23:178|33:118,1,99.0000030212403,8|0,0:0|0:0,0:0:0:0:
196,40,184899,1,0,0:0:0:0:
172,157,185049,6,0,P|110:95|40:5,1,198.000006042481,2|8,0:0|0:0,0:0:0:0:
281,139,185499,2,0,P|285:104|286:31,1,99.0000030212403,2|0,0:0|0:0,0:0:0:0:
177,175,185799,1,10,0:0:0:0:
265,242,185949,2,0,P|336:265|417:273,1,148.50000453186,2|0,0:2|0:0,0:0:0:0:
445,258,186249,5,2,0:0:0:0:
375,351,186399,1,0,0:0:0:0:
372,177,186549,1,8,0:0:0:0:
442,86,186699,2,0,L|446:28,2,49.5000015106202,10|8|8,0:0|0:0|0:0,0:0:0:0:
359,153,186999,1,10,0:0:0:0:
346,126,187074,1,8,0:0:0:0:
332,99,187149,1,8,0:0:0:0:
287,14,187299,1,10,0:0:0:0:
203,130,187449,6,0,L|197:249,1,99.0000030212403,2|0,0:0|0:0,0:0:0:0:
185,363,187749,1,8,0:0:0:0:
261,288,187899,2,0,P|192:262|93:296,1,148.50000453186,2|0,0:0|0:0,0:0:0:0:
97,294,188199,1,10,0:0:0:0:
137,173,188349,1,0,0:0:0:0:
137,173,188424,1,0,0:0:0:0:
137,173,188499,1,2,0:0:0:0:
137,173,188574,1,0,0:0:0:0:
137,173,188649,6,0,L|130:68,1,99.0000030212403,2|0,0:0|0:0,0:0:0:0:
45,103,188949,1,10,0:0:0:0:
222,119,189099,1,10,0:0:0:0:
251,122,189174,1,8,0:0:0:0:
280,125,189249,1,8,0:0:0:0:
211,38,189399,1,10,0:0:0:0:
307,27,189549,2,0,L|410:19,1,99.0000030212403,2|2,0:3|0:0,0:0:0:0:
374,181,189849,5,2,2:0:0:0:
461,133,189999,1,0,0:0:0:0:
505,221,190149,1,8,0:0:0:0:
420,273,190299,1,0,0:0:0:0:
298,166,190449,5,2,2:0:0:0:
228,127,190599,1,8,0:0:0:0:
193,198,190749,1,0,0:0:0:0:
261,239,190899,1,2,0:2:0:0:
146,90,191049,6,0,L|137:2,1,80.9999975280763,2|2,2:3|2:0,0:0:0:0:
61,111,191349,2,0,L|70:199,1,80.9999975280763,2|2,2:0|2:0,0:0:0:0:
135,297,191649,5,2,2:0:0:0:
49,344,191799,1,2,2:0:0:0:
144,319,191949,1,2,2:0:0:0:
47,320,192099,1,2,2:0:0:0:
253,348,192249,6,0,L|246:230,1,99.0000030212403,2|2,0:1|0:2,0:0:0:0:
244,209,192474,1,2,0:2:0:0:
244,209,192549,1,8,0:0:0:0:
361,50,192699,2,0,L|369:173,1,99.0000030212403,2|2,0:0|0:2,0:0:0:0:
372,188,192924,1,2,0:2:0:0:
372,188,192999,1,8,0:0:0:0:
270,99,193149,6,0,B|197:65|151:157|76:102,1,198.000006042481,2|2,0:3|0:2,0:0:0:0:
25,48,193524,1,0,0:0:0:0:
25,48,193599,2,0,P|38:21|53:5,1,49.5000015106202,2|0,0:2|0:0,0:0:0:0:
80,191,193749,2,0,P|109:198|130:197,1,49.5000015106202,8|0,0:0|0:0,0:0:0:0:
232,171,193899,1,8,0:0:0:0:
199,332,194049,2,0,L|188:392,3,49.5000015106202,0|2|8|0,0:0|0:2|0:0|0:0,0:0:0:0:
221,258,194349,1,0,0:2:0:0:
221,258,194424,1,2,0:2:0:0:
221,258,194499,1,0,0:0:0:0:
397,335,194649,6,0,P|423:260|384:179,1,148.50000453186,2|2,0:0|0:2,0:0:0:0:
320,130,194949,1,10,0:3:0:0:
336,94,195024,1,0,0:0:0:0:
370,74,195099,1,0,0:1:0:0:
409,74,195174,1,0,0:0:0:0:
445,89,195249,2,0,L|465:143,1,49.5000015106202,0|2,0:2|0:2,0:0:0:0:
320,130,195399,2,0,L|300:76,1,49.5000015106202,8|0,0:1|0:0,0:0:0:0:
207,11,195549,2,0,L|199:165,1,148.50000453186,2|0,0:2|0:0,0:0:0:0:
158,264,195849,6,0,L|167:161,1,99.0000030212403,2|0,0:0|0:0,0:0:0:0:
302,83,196149,1,8,0:0:0:0:
290,251,196299,2,0,L|295:177,3,49.5000015106202,10|0|0|0,0:0|0:0|0:0|0:0,0:0:0:0:
380,278,196599,1,10,0:0:0:0:
383,318,196674,1,8,0:0:0:0:
385,358,196749,1,8,0:0:0:0:
389,176,196899,1,10,0:0:0:0:
217,330,197049,6,0,P|174:323|110:262,1,99.0000030212403,2|0,0:0|0:0,0:0:0:0:
85,215,197274,2,0,P|80:166|88:116,1,99.0000030212403,2|0,0:3|0:0,0:0:0:0:
43,294,197499,2,0,P|30:315|21:338,1,49.5000015106202,2|0,3:0|0:0,0:0:0:0:
192,204,197649,5,2,0:2:0:0:
228,220,197724,1,2,0:2:0:0:
266,227,197799,1,8,0:2:0:0:
305,223,197874,1,0,0:0:0:0:
339,204,197949,2,0,P|343:172|343:136,1,49.5000015106202,0|2,0:0|0:2,0:0:0:0:
264,95,198099,2,0,P|260:127|260:163,1,49.5000015106202,2|2,0:2|0:2,0:0:0:0:
369,42,198249,5,2,0:2:0:0:
192,25,198399,2,0,P|136:25|76:50,1,99.0000030212403,2|8,0:3|0:0,0:0:0:0:
147,228,198699,1,8,0:0:0:0:
140,188,198774,1,8,0:0:0:0:
134,147,198849,1,8,0:0:0:0:
57,218,198999,1,8,0:0:0:0:
229,191,199149,2,0,P|271:182|380:228,1,148.50000453186,0|0,0:0|0:0,0:0:0:0:
384,247,199449,6,0,B|366:208|366:208|379:82,1,148.50000453186,2|0,0:3|0:0,0:0:0:0:
383,0,199749,1,8,0:0:0:0:
401,93,199899,2,0,L|498:75,1,99.0000030212403,2|0,0:3|0:0,0:0:0:0:
477,199,200199,2,0,L|496:93,1,99.0000030212403,10|0,0:3|0:0,0:0:0:0:
501,289,200499,1,2,0:2:0:0:
501,289,200574,1,2,0:2:0:0:
501,289,200649,6,0,L|394:266,2,99.0000030212403,2|0|8,0:0|0:0|0:0,0:0:0:0:
304,220,201099,1,10,0:0:0:0:
314,258,201174,1,8,0:0:0:0:
324,296,201249,1,8,0:0:0:0:
222,267,201399,1,10,0:0:0:0:
212,305,201474,1,8,0:0:0:0:
202,343,201549,1,8,0:0:0:0:
131,234,201699,1,10,0:0:0:0:
45,363,201849,6,0,B|7:303|7:303|48:157,1,198.000006042481,2|8,0:0|0:0,0:0:0:0:
175,133,202299,1,2,0:0:0:0:
145,331,202449,2,0,L|130:233,1,99.0000030212403,2|10,0:2|0:0,0:0:0:0:
96,83,202749,1,2,0:2:0:0:
96,83,202899,1,2,0:0:0:0:
283,140,203049,6,0,P|378:167|498:136,1,198.000006042481,2|8,0:0|0:0,0:0:0:0:
491,37,203499,1,10,0:0:0:0:
402,202,203649,2,0,P|399:253|404:316,1,99.0000030212403,0|10,0:0|0:0,0:0:0:0:
277,98,203949,2,0,P|279:46|275:-16,1,99.0000030212403,0|2,0:0|0:0,0:0:0:0:
223,215,204249,5,2,0:3:0:0:
49,193,204399,1,2,0:2:0:0:
212,222,204549,1,10,0:3:0:0:
103,308,204699,2,0,B|134:251|134:251|129:143,1,148.50000453186
127,125,204999,2,0,B|185:97|185:97|357:120,1,198.000006042481,2|0,0:3|1:0,0:0:0:0:
338,368,205449,5,2,0:0:0:0:
299,191,205599,1,0,0:0:0:0:
244,331,205749,1,8,0:0:0:0:
387,227,205899,2,0,B|406:167|406:167|383:55,1,148.50000453186,10|0,0:0|0:0,0:0:0:0:
378,44,206199,1,10,0:0:0:0:
417,44,206274,1,8,0:0:0:0:
456,44,206349,1,8,0:0:0:0:
301,88,206499,1,10,0:0:0:0:
181,18,206649,6,0,P|144:49|166:201,1,198.000006042481,2|8,0:0|0:0,0:0:0:0:
293,175,207099,1,0,0:0:0:0:
150,186,207249,1,2,0:2:0:0:
216,109,207399,1,8,0:0:0:0:
227,252,207549,1,2,0:2:0:0:
227,252,207699,1,0,0:0:0:0:
157,324,207849,6,0,P|236:353|311:306,1,148.50000453186,2|0,0:0|0:0,0:0:0:0:
291,329,208149,1,8,0:0:0:0:
399,250,208299,1,10,0:0:0:0:
397,289,208374,1,8,0:0:0:0:
394,328,208449,1,8,0:0:0:0:
484,292,208599,1,10,0:0:0:0:
310,227,208749,2,0,L|301:96,1,99.0000030212403,0|2,0:0|0:0,0:0:0:0:
96,28,209049,6,0,P|144:12|209:36,1,99.0000030212403,2|0,0:0|0:0,0:0:0:0:
106,207,209349,1,8,0:0:0:0:
148,98,209499,2,0,L|133:295,1,198.000006042481,2|10,0:0|0:0,0:0:0:0:
256,371,209949,2,0,L|245:258,1,99.0000030212403,0|2,0:0|0:0,0:0:0:0:
419,162,210249,6,0,P|375:142|347:112,3,67.5000025749208,2|2|2|2,2:0|2:0|2:0|2:0,0:0:0:0:
461,293,210849,5,2,0:3:0:0:
382,314,210999,1,2,0:2:0:0:
242,248,211149,5,2,0:3:0:0:
257,169,211299,1,2,0:2:0:0:
106,71,211449,5,4,0:0:0:0:
