osu file format v14

[General]
AudioFilename: audio.mp3
AudioLeadIn: 0
PreviewTime: 76976
Countdown: 0
SampleSet: Normal
StackLeniency: 0.6
Mode: 0
LetterboxInBreaks: 0
WidescreenStoryboard: 1

[Editor]
Bookmarks: 38576,76774,97684,115289,153655,172838,211376
DistanceSpacing: 0.9
BeatDivisor: 4
GridSize: 32
TimelineZoom: 2.1

[Metadata]
Title:Geist
TitleUnicode:Geist
Artist:Harito
ArtistUnicode:Harito
Creator:MaridiuS
Version:Hard
Source:
Tags:instrumental [MaRy] Artcore Electronic edm Sin:cK Street
BeatmapID:2218645
BeatmapSetID:1015012

[Difficulty]
HPDrainRate:5
CircleSize:3.8
OverallDifficulty:7
ApproachRate:8.1
SliderMultiplier:1.3
SliderTickRate:1

[Events]
//Background and Video events
0,0,"39b7fdb9-66a9-4c28-cc82-fa6fe792ac2d.jpg",0,0
//Break Periods
//Storyboard Layer 0 (Background)
//Storyboard Layer 1 (Fail)
//Storyboard Layer 2 (Pass)
//Storyboard Layer 3 (Foreground)
//Storyboard Layer 4 (Overlay)
//Storyboard Sound Samples

[TimingPoints]
19449,300,4,2,0,70,1,0
19449,-133.333333333333,4,2,0,50,0,0
38649,-100,4,2,1,70,0,0
57849,-133.333333333333,4,2,0,70,0,0
75849,-133.333333333333,4,2,3,70,0,0
77049,-100,4,2,1,70,0,0
115449,-125,4,2,1,70,0,0
173049,-83.3333333333333,4,1,1,80,0,1
191649,-83.3333333333333,4,1,1,80,0,0
192249,-83.3333333333333,4,1,1,80,0,1
210249,-100,4,1,1,70,0,0
210324,-133.333333333333,4,1,1,5,0,0
210399,-133.333333333333,4,1,1,70,0,0
210474,-133.333333333333,4,1,1,5,0,0
210549,-133.333333333333,4,1,1,70,0,0
210624,-133.333333333333,4,1,1,5,0,0
210699,-133.333333333333,4,1,1,70,0,0
210774,-133.333333333333,4,1,1,5,0,0
210849,-83.3333333333333,4,1,1,70,0,0

[Colours]
Combo1 : 188,149,12
Combo2 : 215,147,172
Combo3 : 6,203,219
Combo4 : 97,173,50
Combo5 : 204,0,5

[HitObjects]
116,77,19449,6,0,L|219:87,1,97.50000371933,4|8,0:2|0:2,0:0:0:0:
294,95,19899,1,0,0:2:0:0:
303,142,20049,2,0,L|313:201,1,48.750001859665,2|0,0:2|0:2,0:0:0:0:
259,265,20349,2,0,L|318:276,1,48.750001859665,8|0,0:2|0:2,0:0:0:0:
391,289,20649,1,2,0:2:0:0:
211,355,20949,5,8,0:2:0:0:
177,319,21099,1,2,0:2:0:0:
151,277,21249,2,0,L|162:163,1,97.50000371933,2|8,0:2|0:2,0:0:0:0:
174,93,21699,1,0,0:2:0:0:
166,44,21849,1,2,0:2:0:0:
27,122,22149,6,0,L|33:178,1,48.750001859665,8|0,0:2|0:2,0:0:0:0:
117,176,22449,2,0,L|123:227,1,48.750001859665,2|2,0:2|0:2,0:0:0:0:
39,245,22749,2,0,L|45:296,1,48.750001859665,8|0,0:2|0:2,0:0:0:0:
56,370,23049,1,2,0:2:0:0:
254,308,23349,6,0,L|250:247,2,48.750001859665,8|2|0,0:2|0:2|0:2,0:0:0:0:
435,329,23949,2,0,L|444:221,1,97.50000371933,10|0,0:2|0:2,0:0:0:0:
455,144,24399,1,0,0:2:0:0:
445,96,24549,2,0,L|435:34,1,48.750001859665,10|0,0:2|0:2,0:0:0:0:
362,115,24849,2,0,L|309:109,1,48.750001859665,2|2,0:2|0:2,0:0:0:0:
367,194,25149,2,0,L|319:222,1,48.750001859665,8|0,0:2|0:2,0:0:0:0:
248,256,25449,1,2,0:2:0:0:
117,147,25749,5,8,0:2:0:0:
102,101,25899,2,0,L|107:37,2,48.750001859665,2|2|0,0:2|0:2|0:0,0:0:0:0:
194,58,26349,1,8,0:2:0:0:
242,58,26499,1,0,0:2:0:0:
290,58,26649,6,0,L|358:56,1,48.750001859665,0|0,0:2|0:2,0:0:0:0:
344,140,26949,2,0,L|407:114,1,48.750001859665,8|0,0:2|0:2,0:0:0:0:
419,200,27249,1,2,0:2:0:0:
419,200,27399,2,0,L|469:154,2,48.750001859665,2|8|0,0:2|0:2|0:2,0:0:0:0:
356,252,27849,1,2,0:2:0:0:
230,266,28149,6,0,L|235:210,2,48.750001859665,8|2|0,0:2|0:2|0:2,0:0:0:0:
68,342,28749,1,10,0:2:0:0:
61,293,28899,1,2,0:2:0:0:
54,244,29049,1,2,0:2:0:0:
188,148,29349,6,0,L|305:159,1,97.50000371933,8|2,0:2|0:2,0:0:0:0:
368,196,29799,1,0,0:2:0:0:
412,215,29949,2,0,L|472:208,1,48.750001859665,8|0,0:2|0:2,0:0:0:0:
512,278,30249,2,0,L|490:375,1,97.50000371933,2|8,0:2|0:2,0:0:0:0:
385,384,30699,2,0,L|377:278,1,97.50000371933,2|2,0:2|0:2,0:0:0:0:
419,185,31149,1,8,0:2:0:0:
427,137,31299,1,0,0:2:0:0:
436,89,31449,6,0,L|426:35,1,48.750001859665,0|0,0:2|0:2,0:0:0:0:
348,89,31749,2,0,L|321:44,1,48.750001859665,8|0,0:2|0:2,0:0:0:0:
264,110,32049,2,0,L|211:85,1,48.750001859665,2|2,0:2|0:2,0:0:0:0:
208,176,32349,2,0,L|151:179,1,48.750001859665,8|0,0:2|0:2,0:0:0:0:
76,181,32649,1,2,0:2:0:0:
164,362,32949,5,8,0:2:0:0:
174,315,33099,1,2,0:2:0:0:
183,267,33249,1,0,0:2:0:0:
345,201,33549,2,0,L|358:305,1,97.50000371933,10|0,0:2|0:2,0:0:0:0:
431,353,33999,1,0,0:2:0:0:
442,305,34149,2,0,L|455:243,1,48.750001859665,10|0,0:2|0:2,0:0:0:0:
436,175,34449,2,0,L|428:106,1,48.750001859665,2|2,0:2|0:2,0:0:0:0:
419,45,34749,2,0,L|428:-8,1,48.750001859665,10|0,0:2|0:2,0:0:0:0:
509,1,35049,1,2,0:2:0:0:
319,70,35349,5,8,0:2:0:0:
275,48,35499,1,2,0:2:0:0:
227,59,35649,2,0,L|238:177,1,97.50000371933,0|8,0:0|0:2,0:0:0:0:
248,237,36099,1,0,0:2:0:0:
239,284,36249,1,2,0:2:0:0:
62,314,36549,6,0,L|68:255,1,48.750001859665,8|0,0:2|0:2,0:0:0:0:
151,238,36849,1,2,0:2:0:0:
156,286,36999,2,0,L|161:341,1,48.750001859665,2|8,0:2|0:2,0:0:0:0:
236,377,37299,1,0,0:2:0:0:
283,364,37449,1,2,0:2:0:0:
387,191,37749,6,0,L|453:197,2,48.750001859665,8|2|0,0:2|0:2|0:2,0:0:0:0:
237,90,38349,1,8,0:2:0:0:
189,80,38499,1,0,0:2:0:0:
113,64,38649,6,0,L|120:215,1,130,0|0,1:2|1:2,0:0:0:0:
71,291,39099,1,0,0:2:0:0:
147,276,39249,2,0,L|239:282,1,65,8|2,0:2|0:2,0:0:0:0:
385,287,39549,2,0,L|293:293,1,65,8|2,0:2|0:2,0:0:0:0:
263,359,39849,2,0,L|273:174,1,130,4|0,1:3|0:2,0:0:0:0:
274,127,40299,1,0,0:2:0:0:
334,78,40449,1,10,0:2:0:0:
381,140,40599,1,0,0:2:0:0:
321,190,40749,2,0,L|267:230,1,65,10|2,0:2|1:2,0:0:0:0:
211,271,41049,5,0,1:2:0:0:
361,367,41349,2,0,P|356:333|362:279,2,65,2|0|8,0:2|1:2|0:2,0:0:0:0:
497,382,41799,1,2,0:2:0:0:
497,382,41949,2,0,P|504:348|503:294,1,65,8|2,0:2|0:2,0:0:0:0:
431,330,42249,2,0,L|438:147,1,130,4|8,1:3|0:2,0:0:0:0:
209,43,42849,1,2,1:2:0:0:
291,35,42999,2,0,L|298:218,1,130,8|0,0:2|1:2,0:0:0:0:
319,279,43449,6,0,P|255:296|169:259,1,130,0|0,1:2|0:2,0:0:0:0:
121,229,43899,1,0,1:2:0:0:
130,151,44049,2,0,L|144:47,1,65,8|0,0:2|0:2,0:0:0:0:
49,180,44349,2,0,L|27:105,1,65,8|2,0:2|0:2,0:0:0:0:
0,265,44649,6,0,B|48:281|48:281|153:243,1,130,4|0,1:3|0:2,0:0:0:0:
216,210,45099,1,0,0:2:0:0:
216,210,45249,1,8,0:2:0:0:
269,266,45399,1,2,1:2:0:0:
295,192,45549,2,0,L|317:121,1,65,8|2,0:2|1:2,0:0:0:0:
341,56,45849,5,0,1:2:0:0:
455,162,46149,1,0,0:2:0:0:
389,204,46299,1,2,1:2:0:0:
458,238,46449,1,8,0:2:0:0:
367,364,46749,2,0,L|266:345,1,65,8|2,0:2|1:2,0:0:0:0:
226,333,47049,5,4,1:3:0:0:
187,181,47349,2,0,L|170:78,1,65,8|0,0:2|0:2,0:0:0:0:
99,148,47649,1,0,1:2:0:0:
212,161,47799,2,0,L|195:58,1,65,8|0,0:2|0:2,0:0:0:0:
86,181,48099,1,0,1:2:0:0:
128,251,48249,6,0,P|189:275|261:228,1,130,0|0,1:2|1:2,0:0:0:0:
349,223,48699,1,2,0:2:0:0:
349,223,48849,2,0,L|340:298,1,65,8|0,0:2|0:2,0:0:0:0:
275,163,49149,2,0,L|259:81,1,65,8|2,0:2|0:2,0:0:0:0:
360,138,49449,2,0,P|420:116|497:156,1,130,4|2,1:3|0:2,0:0:0:0:
504,211,49899,1,2,0:2:0:0:
504,211,50049,2,0,L|499:299,2,65,8|0|8,0:2|1:2|0:2,0:0:0:0:
479,137,50499,1,0,1:2:0:0:
493,60,50649,5,0,1:2:0:0:
341,24,50949,2,0,L|251:30,1,65,2|2,0:2|0:2,0:0:0:0:
198,35,51249,1,8,0:2:0:0:
235,103,51399,1,0,0:2:0:0:
193,168,51549,1,10,0:2:0:0:
259,309,51849,6,0,L|154:317,1,65,4|0,1:3|0:0,0:0:0:0:
139,252,52149,1,8,0:2:0:0:
139,252,52449,1,0,1:2:0:0:
79,186,52599,2,0,L|15:191,1,65,8|0,0:2|0:2,0:0:0:0:
147,67,53049,6,0,P|205:44|290:81,1,130,0|2,1:2|0:2,0:0:0:0:
326,114,53499,1,0,1:2:0:0:
393,74,53649,2,0,P|424:66|476:70,1,65,8|0,0:2|0:2,0:0:0:0:
343,206,53949,2,0,P|311:213|260:210,1,65,8|2,0:2|0:2,0:0:0:0:
395,149,54249,2,0,P|449:174|512:228,1,130,4|0,1:3|1:2,0:0:0:0:
501,296,54699,1,2,0:2:0:0:
501,296,54849,1,8,0:2:0:0:
427,320,54999,1,0,0:2:0:0:
354,292,55149,2,0,P|319:287|274:301,1,65,8|2,0:2|0:2,0:0:0:0:
219,326,55449,5,4,1:2:0:0:
185,173,55749,2,0,L|175:91,1,65,0|2,1:2|0:2,0:0:0:0:
256,45,56049,2,0,L|255:115,1,65,8|0,0:2|0:2,0:0:0:0:
102,117,56349,2,0,L|79:50,1,65,8|2,0:2|0:2,0:0:0:0:
166,26,56649,1,4,1:3:0:0:
120,215,56949,2,0,L|122:296,1,65,8|0,0:2|0:2,0:0:0:0:
149,370,57249,1,0,1:2:0:0:
157,279,57399,2,0,L|155:198,1,65,8|0,0:2|0:2,0:0:0:0:
315,57,57849,6,0,B|351:137|270:215|317:310,1,243.750009298325,6|0,3:2|0:0,0:0:0:0:
368,342,58749,1,0,0:2:0:0:
432,308,58899,1,0,0:2:0:0:
392,246,59049,2,0,P|325:234|226:231,1,146.250005578995,2|0,3:2|0:2,0:0:0:0:
219,313,59649,2,0,P|146:309|73:297,1,146.250005578995,2|0,3:2|0:2,0:0:0:0:
14,194,60249,6,0,L|20:243,1,48.750001859665,2|0,3:2|0:2,0:0:0:0:
87,181,60549,2,0,L|93:230,1,48.750001859665,0|0,3:2|0:2,0:0:0:0:
175,169,60849,2,0,L|181:218,1,48.750001859665,0|0,3:2|0:2,0:0:0:0:
248,156,61149,2,0,L|254:205,1,48.750001859665,0|0,3:2|0:2,0:0:0:0:
329,145,61449,6,0,P|328:99|337:-5,1,146.250005578995,2|0,0:2|0:2,0:0:0:0:
407,41,62049,2,0,P|408:87|399:191,1,146.250005578995,2|0,0:2|0:2,0:0:0:0:
333,223,62649,2,0,P|326:271|326:326,1,97.50000371933,2|0,0:2|0:2,0:0:0:0:
282,379,63099,1,2,0:2:0:0:
117,293,63399,1,2,0:2:0:0:
203,175,63699,1,0,3:2:0:0:
163,113,63849,2,0,P|156:68|153:7,1,97.50000371933,2|2,0:2|0:2,0:0:0:0:
51,48,64299,1,0,0:2:0:0:
70,122,64449,2,0,P|77:190|65:268,1,146.250005578995,2|0,0:2|0:2,0:0:0:0:
140,313,65049,6,0,B|188:358|324:277|391:326,1,243.750009298325,2|0,0:2|0:2,0:0:0:0:
467,353,65949,2,0,P|459:323|456:291,1,48.750001859665,2|0,0:2|0:2,0:0:0:0:
403,249,66249,2,0,B|358:201|439:65|390:-2,1,243.750009298325,0|0,3:2|0:0,0:0:0:0:
323,2,67149,1,8,0:2:0:0:
256,32,67299,1,2,0:2:0:0:
186,10,67449,6,0,B|159:89|258:115|179:261,1,243.750009298325,0|0,3:2|0:2,0:0:0:0:
132,301,68349,2,0,P|108:299|85:293,1,48.750001859665,0|0,3:2|0:2,0:0:0:0:
40,235,68649,2,0,P|44:199|111:98,1,146.250005578995,2|0,0:2|0:2,0:0:0:0:
184,141,69249,2,0,P|180:105|113:4,1,146.250005578995,2|0,0:2|0:2,0:0:0:0:
48,25,69849,6,0,L|0:20,1,48.750001859665,0|0,3:2|0:2,0:0:0:0:
51,101,70149,2,0,L|99:105,1,48.750001859665,0|0,3:2|0:2,0:0:0:0:
78,188,70449,2,0,L|29:183,1,48.750001859665,2|2,0:2|0:2,0:0:0:0:
81,264,70749,2,0,L|129:268,1,48.750001859665,0|0,0:2|3:2,0:0:0:0:
213,328,71049,6,0,P|204:281|199:175,1,146.250005578995,2|0,3:2|0:2,0:0:0:0:
287,223,71649,2,0,P|278:176|273:70,1,146.250005578995,10|0,0:2|0:2,0:0:0:0:
323,24,72249,2,0,P|375:11|432:28,1,97.50000371933,2|0,3:2|0:0,0:0:0:0:
468,72,72699,1,2,0:2:0:0:
395,199,72999,1,2,0:2:0:0:
462,328,73299,1,0,0:2:0:0:
394,355,73449,2,0,P|349:361|248:344,1,146.250005578995,2|2,0:2|0:2,0:0:0:0:
185,275,74049,2,0,P|230:269|331:286,1,146.250005578995,2|2,0:2|0:2,0:0:0:0:
322,195,74649,6,0,P|253:73|182:194,1,341.250013017655,2|0,3:2|0:2,0:0:0:0:
254,229,75849,2,0,P|236:195|155:327,1,341.250013017655,0|10,3:2|0:2,0:0:0:0:
175,246,77049,6,0,L|270:348,1,130,4|0,1:3|0:2,0:0:0:0:
336,297,77499,1,0,1:2:0:0:
410,336,77649,2,0,L|433:179,1,130,8|0,1:1|1:2,0:0:0:0:
364,152,78099,1,0,1:2:0:0:
298,205,78249,2,0,B|263:210|263:210|226:191,2,65,2|0|0,2:0|1:2|1:2,0:0:0:0:
371,159,78699,1,2,0:2:0:0:
371,159,78849,2,0,L|380:86,1,65,8|0,0:1|0:2,0:0:0:0:
282,123,79149,1,2,1:2:0:0:
282,123,79299,1,2,1:2:0:0:
201,72,79449,6,0,P|143:56|67:82,1,130,0|0,1:0|0:2,0:0:0:0:
39,149,79899,1,0,1:2:0:0:
88,217,80049,2,0,P|151:227|212:203,1,130,8|0,0:1|0:2,0:0:0:0:
260,134,80499,1,0,0:2:0:0:
307,245,80649,6,0,L|314:332,1,65,2|2,1:2|1:2,0:0:0:0:
358,166,80949,2,0,L|351:79,1,65,2|2,1:2|1:2,0:0:0:0:
435,237,81249,1,8,0:1:0:0:
435,237,81399,1,2,1:2:0:0:
484,161,81549,2,0,L|477:74,1,65,2|2,1:2|1:2,0:0:0:0:
392,21,81849,6,0,P|332:16|251:29,1,130,0|0,1:2|0:2,0:0:0:0:
194,74,82299,1,0,1:2:0:0:
234,148,82449,2,0,P|236:187|234:234,1,65,8|0,0:1|0:2,0:0:0:0:
148,213,82749,2,0,P|146:252|148:299,1,65,0|0,1:2|0:2,0:0:0:0:
176,373,83049,6,0,L|91:380,2,65,2|0|2,0:2|1:2|1:2,0:0:0:0:
256,339,83499,1,2,1:2:0:0:
256,339,83574,1,0,1:2:0:0:
256,339,83649,2,0,L|398:350,1,130,8|2,0:1|1:2,0:0:0:0:
385,349,84099,1,2,1:2:0:0:
343,257,84249,6,0,P|328:186|342:103,1,130,0|0,1:2|0:2,0:0:0:0:
389,65,84699,1,2,1:2:0:0:
317,20,84849,2,0,L|227:26,1,65,8|0,0:1|0:2,0:0:0:0:
170,55,85149,1,2,1:2:0:0:
222,120,85299,1,2,1:2:0:0:
124,168,85449,6,0,L|124:253,1,65,2|2,1:2|1:2,0:0:0:0:
22,227,85749,2,0,L|21:318,1,65,2|2,1:2|1:2,0:0:0:0:
135,256,86049,2,0,L|135:341,1,65,8|2,0:1|1:2,0:0:0:0:
255,220,86349,2,0,L|254:311,1,65,2|0,1:2|1:2,0:0:0:0:
351,266,86649,6,0,P|417:267|504:261,1,130,0|0,1:2|0:2,0:0:0:0:
480,263,87099,1,0,1:2:0:0:
512,177,87249,2,0,P|472:175|377:182,1,130,8|0,0:1|1:2,0:0:0:0:
297,183,87699,1,0,1:2:0:0:
249,95,87849,6,0,L|243:15,2,65,0|0|0,1:2|1:2|1:2,0:0:0:0:
204,167,88299,1,2,0:2:0:0:
121,149,88449,2,0,L|42:129,1,65,8|0,0:1|1:2,0:0:0:0:
22,56,88749,1,2,1:2:0:0:
22,56,88899,1,2,1:2:0:0:
39,138,89049,6,0,P|54:204|88:267,1,130,0|0,1:2|1:2,0:0:0:0:
164,235,89499,1,0,1:2:0:0:
258,226,89649,2,0,P|243:292|209:355,1,130,8|0,0:1|0:2,0:0:0:0:
214,347,90099,1,2,1:2:0:0:
91,341,90249,6,0,L|16:340,1,65,2|0,1:2|1:2,0:0:0:0:
99,234,90549,2,0,L|174:235,1,65,2|0,1:2|1:2,0:0:0:0:
64,129,90849,2,0,L|-11:128,1,65,8|2,0:1|1:2,0:0:0:0:
72,22,91149,2,0,L|147:23,1,65,2|2,1:2|1:2,0:0:0:0:
196,83,91449,6,0,B|257:98|257:98|350:73,1,130,0|0,1:2|1:2,0:0:0:0:
419,84,91899,1,2,1:2:0:0:
480,154,92049,2,0,B|419:169|419:169|326:144,1,130,8|0,0:1|1:2,0:0:0:0:
273,124,92499,1,0,1:2:0:0:
265,208,92649,6,0,L|257:287,1,65,2|0,1:2|1:2,0:0:0:0:
243,356,92949,1,0,1:2:0:0:
323,381,93099,1,2,1:2:0:0:
323,381,93174,1,0,1:2:0:0:
323,381,93249,2,0,L|167:357,1,130,8|0,0:1|1:2,0:0:0:0:
111,345,93699,1,8,0:2:0:0:
155,264,93849,6,0,P|157:228|148:176,1,65,0|0,1:2|0:0,0:0:0:0:
236,259,94149,2,0,P|250:225|259:173,1,65,0|2,0:2|1:2,0:0:0:0:
314,282,94449,2,0,P|338:255|365:210,1,65,8|2,0:1|1:2,0:0:0:0:
379,331,94749,2,0,P|411:314|451:280,1,65,0|2,1:2|1:2,0:0:0:0:
505,239,95049,5,2,1:2:0:0:
478,158,95199,1,2,1:2:0:0:
404,115,95349,1,2,1:2:0:0:
319,117,95499,1,2,1:2:0:0:
250,167,95649,2,0,P|211:175|158:177,1,65,8|0,0:1|0:2,0:0:0:0:
89,149,95949,2,0,P|57:152|26:160,1,65,0|0,0:2|0:2,0:0:0:0:
14,288,96249,6,0,L|4:356,1,65,6|0,1:2|0:2,0:0:0:0:
114,324,96549,2,0,L|124:256,1,65,2|0,0:2|0:2,0:0:0:0:
231,288,96849,1,8,0:1:0:0:
197,210,96999,1,8,0:2:0:0:
279,191,97149,2,0,P|310:196|365:200,1,65,0|8,1:2|0:2,0:0:0:0:
512,222,97449,6,0,L|496:308,1,65,2|0,1:2|0:2,0:0:0:0:
430,189,97749,2,0,L|414:103,1,65,2|0,0:2|1:2,0:0:0:0:
309,48,98049,1,8,0:1:0:0:
321,125,98199,1,8,0:2:0:0:
243,113,98349,2,0,P|207:111|167:115,1,65,0|8,0:2|0:2,0:0:0:0:
111,195,98649,6,0,L|30:175,1,65,2|0,1:2|0:2,0:0:0:0:
176,243,98949,2,0,L|257:223,1,65,2|0,0:2|0:2,0:0:0:0:
101,277,99249,1,8,0:1:0:0:
63,345,99399,1,0,0:2:0:0:
138,363,99549,2,0,P|205:375|289:360,1,130,0|2,0:2|0:2,0:0:0:0:
339,312,99999,1,0,1:2:0:0:
421,347,100149,2,0,L|412:265,1,65,0|2,0:2|0:2,0:0:0:0:
410,243,100374,1,2,0:2:0:0:
410,243,100449,1,8,0:1:0:0:
398,165,100599,2,0,L|445:178,2,32.5,0|8|0,0:2|0:2|0:0,0:0:0:0:
403,86,100899,1,0,1:2:0:0:
303,112,101049,6,0,L|220:105,1,65,2|0,1:2|0:2,0:0:0:0:
123,45,101349,2,0,L|206:38,1,65,2|0,0:2|0:2,0:0:0:0:
162,126,101649,1,8,0:1:0:0:
138,200,101799,1,8,0:2:0:0:
79,148,101949,2,0,P|52:129|1:108,1,65,0|8,0:2|0:2,0:0:0:0:
46,256,102249,6,0,L|54:338,1,65,2|0,1:2|0:2,0:0:0:0:
163,270,102549,2,0,L|171:352,1,65,2|0,0:2|1:2,0:0:0:0:
176,366,102774,1,0,1:2:0:0:
176,366,102849,1,8,0:1:0:0:
243,327,102999,1,8,0:2:0:0:
315,355,103149,2,0,P|319:329|318:268,1,65,0|8,0:2|0:2,0:0:0:0:
309,196,103449,6,0,L|241:216,1,65,2|0,1:2|0:2,0:0:0:0:
387,200,103749,2,0,L|454:211,1,65,2|0,0:2|0:0,0:0:0:0:
457,114,104049,1,8,0:1:0:0:
389,59,104199,1,0,0:2:0:0:
326,107,104349,2,0,P|262:124|180:96,1,130,2|2,0:2|0:2,0:0:0:0:
159,43,104799,1,0,1:2:0:0:
105,99,104949,2,0,P|70:106|33:96,1,65,2|0,0:2|1:2,0:0:0:0:
16,70,105174,1,8,0:2:0:0:
16,70,105249,1,8,0:1:0:0:
82,28,105399,2,0,L|73:-11,2,32.5,0|8|0,0:2|0:2|0:0,0:0:0:0:
105,99,105699,1,0,0:2:0:0:
105,202,105849,6,0,L|87:288,1,65,2|0,1:2|0:2,0:0:0:0:
126,369,106149,2,0,L|189:355,1,65,2|0,0:2|0:2,0:0:0:0:
280,316,106449,1,8,0:1:0:0:
324,384,106599,1,8,0:2:0:0:
376,326,106749,2,0,P|387:293|382:252,1,65,0|8,0:2|0:2,0:0:0:0:
310,155,107049,6,0,L|314:76,1,65,2|0,1:2|0:2,0:0:0:0:
409,27,107349,2,0,L|488:31,1,65,2|0,0:2|0:2,0:0:0:0:
501,57,107574,1,0,0:0:0:0:
501,57,107649,1,8,0:1:0:0:
439,105,107799,1,8,0:2:0:0:
485,167,107949,2,0,P|496:200|491:241,1,65,0|8,1:2|0:2,0:0:0:0:
373,258,108249,6,0,L|281:248,1,65,2|0,1:2|0:2,0:0:0:0:
253,146,108549,2,0,L|161:156,1,65,2|0,0:2|0:2,0:0:0:0:
108,188,108849,2,0,L|118:39,1,130,8|0,0:1|0:2,0:0:0:0:
178,10,109299,1,2,0:2:0:0:
192,88,109449,2,0,L|188:153,1,65,2|0,1:2|1:2,0:0:0:0:
204,229,109749,1,2,1:2:0:0:
152,287,109899,1,0,1:2:0:0:
152,287,109974,1,8,0:2:0:0:
152,287,110049,2,0,L|73:357,1,97.5,8|8,0:1|0:2,0:0:0:0:
49,377,110349,1,8,1:2:0:0:
13,293,110499,1,8,0:2:0:0:
140,200,110649,6,0,L|198:172,1,65,2|0,1:2|0:2,0:0:0:0:
58,197,110949,2,0,L|0:169,1,65,2|0,0:2|0:2,0:0:0:0:
140,119,111249,1,8,1:1:0:0:
198,172,111399,1,8,0:2:0:0:
256,120,111549,2,0,P|282:111|337:119,1,65,0|8,0:2|0:2,0:0:0:0:
396,204,111849,2,0,L|386:126,2,65,2|0|2,1:2|1:2|0:2,0:0:0:0:
384,281,112299,1,0,0:2:0:0:
384,281,112374,1,0,0:2:0:0:
384,281,112449,2,0,L|464:295,1,65,8|0,0:2|0:2,0:0:0:0:
357,357,112749,1,0,1:2:0:0:
302,302,112899,1,8,0:2:0:0:
199,331,113049,6,0,L|121:316,1,65,2|0,1:2|0:0,0:0:0:0:
156,198,113349,2,0,L|144:129,1,65,2|0,0:2|0:0,0:0:0:0:
71,66,113649,1,8,0:1:0:0:
137,25,113799,1,0,0:2:0:0:
207,57,113949,2,0,P|262:69|341:49,1,130,0|2,0:2|1:2,0:0:0:0:
408,36,114399,1,0,1:2:0:0:
459,94,114549,2,0,P|464:130|451:176,1,65,2|0,1:2|1:2,0:0:0:0:
395,202,114849,2,0,P|389:238|403:284,1,65,8|0,0:1|1:2,0:0:0:0:
471,338,115149,2,0,L|478:291,3,32.5,0|8|8|0,1:2|1:2|1:2|1:2,0:0:0:0:
497,270,115449,5,4,1:2:0:0:
330,306,115749,2,0,L|206:294,1,104,10|0,0:3|0:2,0:0:0:0:
186,235,116199,1,2,1:2:0:0:
189,162,116349,2,0,L|123:142,1,52,8|2,0:2|0:2,0:0:0:0:
69,127,116649,1,0,1:2:0:0:
246,83,116949,5,10,0:3:0:0:
280,168,117099,1,0,0:2:0:0:
280,168,117174,1,0,1:2:0:0:
280,168,117249,2,0,L|277:230,1,52,4|8,1:2|0:2,0:0:0:0:
332,99,117549,2,0,L|335:37,1,52,0|8,0:2|0:2,0:0:0:0:
412,80,117849,6,0,P|458:89|523:70,1,104,4|10,1:3|0:3,0:0:0:0:
485,179,118299,2,0,P|438:169|374:189,1,104,4|10,1:3|0:2,0:0:0:0:
356,260,118749,2,0,L|359:324,1,52,0|0,0:2|0:2,0:0:0:0:
289,366,119049,2,0,L|222:360,2,52,8|0|10,0:2|1:2|0:3,0:0:0:0:
270,281,119499,1,2,0:2:0:0:
270,281,119574,1,2,0:2:0:0:
270,281,119649,2,0,L|275:208,1,52,8|8,0:2|0:2,0:0:0:0:
281,156,119949,1,8,0:2:0:0:
289,83,120099,1,8,0:2:0:0:
195,151,120249,6,0,P|162:153|120:146,1,52,0|0,1:3|0:2,0:0:0:0:
64,145,120549,2,0,P|49:94|52:33,1,104,10|2,0:3|0:2,0:0:0:0:
118,0,120999,1,0,1:2:0:0:
173,46,121149,1,10,0:2:0:0:
173,118,121299,1,8,0:2:0:0:
134,179,121449,1,2,0:2:0:0:
29,280,121749,5,10,0:3:0:0:
82,329,121899,1,0,1:2:0:0:
141,287,122049,2,0,L|217:295,1,52,10|0,0:2|1:2,0:0:0:0:
264,364,122349,2,0,L|340:356,1,52,0|2,1:2|0:2,0:0:0:0:
353,355,122574,1,2,0:2:0:0:
353,355,122649,1,0,1:2:0:0:
429,338,122799,2,0,L|430:266,2,52,8|10|8,0:2|1:3|0:2,0:0:0:0:
347,272,123249,6,0,P|330:227|329:150,1,104,4|0,1:3|0:2,0:0:0:0:
413,204,123699,1,8,0:2:0:0:
403,132,123849,2,0,P|383:88|329:33,1,104,4|0,1:3|0:3,0:0:0:0:
280,98,124299,2,0,P|236:78|181:24,1,104,4|8,1:3|0:2,0:0:0:0:
174,10,124674,1,8,0:2:0:0:
174,10,124749,1,8,0:2:0:0:
256,0,124899,1,8,0:2:0:0:
329,22,125049,1,0,1:2:0:0:
394,151,125349,6,0,P|404:206|402:267,1,104,10|0,0:3|0:2,0:0:0:0:
401,326,125799,1,0,0:2:0:0:
335,357,125949,2,0,P|301:352|266:341,1,52,10|8,0:0|0:2,0:0:0:0:
231,296,126249,1,2,1:2:0:0:
194,155,126549,5,10,0:3:0:0:
122,120,126699,1,0,1:2:0:0:
122,120,126774,1,0,1:2:0:0:
122,120,126849,2,0,L|110:178,1,52,0|8,1:2|0:2,0:0:0:0:
28,151,127149,2,0,L|35:213,1,52,2|8,1:2|0:2,0:0:0:0:
166,239,127449,6,0,P|200:243|282:235,1,104,4|10,1:3|0:3,0:0:0:0:
351,270,127899,2,0,P|355:236|347:154,1,104,4|10,1:3|0:2,0:0:0:0:
325,86,128349,2,0,L|383:89,1,52,0|0,1:2|1:2,0:0:0:0:
452,62,128649,2,0,L|460:130,1,52,0|0,1:2|1:2,0:0:0:0:
471,185,128949,1,10,1:3:0:0:
488,264,129099,1,2,0:2:0:0:
488,264,129174,1,2,0:2:0:0:
488,264,129249,1,8,0:2:0:0:
505,336,129399,2,0,L|511:366,2,26,8|8|8,0:2|0:2|0:2,0:0:0:0:
433,320,129699,1,10,0:2:0:0:
356,349,129849,6,0,P|323:353|293:351,1,52,0|0,1:2|0:2,0:0:0:0:
233,335,130149,2,0,P|221:284|245:216,1,104,10|2,0:3|0:2,0:0:0:0:
282,180,130599,1,2,1:2:0:0:
259,110,130749,2,0,P|227:100|194:96,1,52,10|0,0:2|0:0,0:0:0:0:
136,103,131049,1,2,1:2:0:0:
49,220,131349,5,10,0:3:0:0:
22,287,131499,1,0,0:2:0:0:
64,346,131649,2,0,L|136:333,1,52,10|0,0:2|0:2,0:0:0:0:
179,301,131949,1,10,0:0:0:0:
253,338,132099,1,2,0:2:0:0:
253,338,132174,1,2,0:2:0:0:
253,338,132249,2,0,L|317:348,1,52,0|8,1:2|0:2,0:0:0:0:
376,357,132549,1,10,1:3:0:0:
359,286,132699,1,8,0:2:0:0:
425,206,132849,6,0,B|434:158|434:158|418:88,1,104,4|0,1:3|0:2,0:0:0:0:
334,55,133299,1,10,0:2:0:0:
334,55,133449,2,0,B|281:72|281:72|221:60,1,104,4|0,1:3|0:3,0:0:0:0:
142,75,133899,2,0,L|162:189,1,104,4|8,1:3|0:2,0:0:0:0:
159,177,134274,1,8,0:2:0:0:
159,177,134349,1,10,0:2:0:0:
238,207,134499,1,10,0:2:0:0:
298,166,134649,2,0,L|373:154,1,52,0|0,1:2|0:2,0:0:0:0:
435,97,134949,6,0,L|423:221,1,104,10|0,0:3|0:2,0:0:0:0:
454,266,135399,1,0,1:2:0:0:
383,283,135549,1,8,0:2:0:0:
311,293,135699,1,8,0:2:0:0:
239,304,135849,1,0,1:2:0:0:
241,158,136149,5,10,0:3:0:0:
269,91,136299,1,0,1:2:0:0:
269,91,136374,1,0,1:2:0:0:
269,91,136449,2,0,L|260:27,1,52,0|8,1:2|0:2,0:0:0:0:
184,43,136749,2,0,L|193:107,1,52,0|8,1:2|0:2,0:0:0:0:
136,179,137049,6,0,P|85:192|21:171,1,104,4|10,1:3|0:3,0:0:0:0:
41,281,137499,2,0,P|92:268|156:289,1,104,4|10,1:3|0:2,0:0:0:0:
221,316,137949,2,0,L|211:251,1,52,0|0,1:2|1:2,0:0:0:0:
254,143,138249,2,0,L|251:203,1,52,0|0,1:2|1:2,0:0:0:0:
177,189,138549,1,10,1:3:0:0:
166,116,138699,1,2,0:2:0:0:
166,116,138774,1,2,0:2:0:0:
166,116,138849,1,8,0:2:0:0:
103,57,138999,2,0,L|108:13,2,26,8|8|8,0:2|0:2|0:2,0:0:0:0:
92,129,139299,1,8,0:2:0:0:
182,39,139449,6,0,P|210:34|257:38,1,52,0|0,1:2|0:2,0:0:0:0:
278,109,139749,2,0,P|325:120|391:104,1,104,10|2,0:3|1:2,0:0:0:0:
434,62,140199,1,0,1:2:0:0:
491,107,140349,1,10,0:2:0:0:
489,179,140499,1,0,0:0:0:0:
451,241,140649,1,2,0:2:0:0:
316,184,140949,5,10,0:3:0:0:
244,172,141099,1,0,1:2:0:0:
174,195,141249,2,0,P|122:207|65:210,1,104,8|8,0:2|0:2,0:0:0:0:
29,139,141699,1,0,1:2:0:0:
29,139,141774,1,0,1:2:0:0:
29,139,141849,2,0,P|56:131|94:130,1,52,0|8,0:2|0:2,0:0:0:0:
152,126,142149,1,10,1:3:0:0:
174,195,142299,1,8,0:2:0:0:
136,285,142449,6,0,L|255:293,1,104,4|0,1:3|0:2,0:0:0:0:
342,341,142899,1,8,0:2:0:0:
342,341,143049,2,0,L|357:222,1,104,4|0,1:3|0:3,0:0:0:0:
265,138,143499,2,0,L|271:207,1,52,4|0,1:3|0:2,0:0:0:0:
355,151,143799,1,8,0:2:0:0:
355,151,143874,1,8,0:2:0:0:
355,151,143949,2,0,L|349:85,1,52,10|10,0:2|0:2,0:0:0:0:
396,25,144249,6,0,P|361:20|329:18,1,52,0|0,1:2|0:2,0:0:0:0:
275,58,144549,2,0,P|213:72|123:34,1,156,10|2,0:3|1:2,0:0:0:0:
63,8,145149,1,10,0:2:0:0:
0,45,145299,1,10,0:2:0:0:
51,96,145449,1,0,1:2:0:0:
188,143,145749,5,10,0:3:0:0:
248,94,145899,1,0,0:2:0:0:
248,94,145974,1,0,1:2:0:0:
248,94,146049,2,0,L|298:123,1,52,6|8,1:2|0:2,0:0:0:0:
343,62,146349,2,0,L|394:89,1,52,2|10,1:2|0:2,0:0:0:0:
477,128,146649,6,0,P|488:180|470:242,1,104,4|10,1:3|0:3,0:0:0:0:
388,349,147099,2,0,P|376:296|395:235,1,104,4|0,1:3|0:2,0:0:0:0:
397,162,147549,2,0,L|339:168,1,52,8|0,0:2|0:2,0:0:0:0:
300,232,147849,2,0,L|249:225,2,52,0|0|10,1:2|1:2|1:3,0:0:0:0:
355,303,148299,1,0,0:2:0:0:
355,303,148374,1,0,0:2:0:0:
355,303,148449,1,8,0:2:0:0:
281,334,148599,2,0,L|266:303,2,26,8|8|8,0:2|0:2|0:2,0:0:0:0:
199,278,148899,1,8,0:2:0:0:
87,274,149049,6,0,L|19:288,1,52,2|0,1:2|0:0,0:0:0:0:
33,191,149349,2,0,P|88:177|141:206,1,104,10|0,0:3|0:2,0:0:0:0:
184,244,149799,1,10,0:2:0:0:
246,281,149949,2,0,P|275:290|314:284,1,52,2|8,1:2|0:2,0:0:0:0:
360,253,150249,1,2,1:2:0:0:
396,112,150549,6,0,L|399:57,1,52,10|0,0:3|0:2,0:0:0:0:
308,21,150849,2,0,L|321:137,1,104,0|10,1:2|0:2,0:0:0:0:
252,157,151299,1,8,0:2:0:0:
252,157,151374,1,8,0:2:0:0:
252,157,151449,1,10,0:2:0:0:
175,126,151599,2,0,L|182:53,1,52,8|10,0:2|0:3,0:0:0:0:
187,0,151899,1,8,0:2:0:0:
111,32,152049,6,0,P|77:44|2:34,1,104,4|0,1:3|0:2,0:0:0:0:
75,124,152499,1,10,0:2:0:0:
126,191,152649,2,0,P|110:223|50:269,1,104,4|0,1:3|0:2,0:0:0:0:
177,271,153099,2,0,P|201:280|238:275,1,52,4|0,1:3|0:2,0:0:0:0:
298,225,153399,1,10,0:2:0:0:
298,225,153474,1,0,0:2:0:0:
298,225,153549,1,2,1:2:0:0:
362,191,153699,1,2,1:2:0:0:
423,229,153849,1,2,1:2:0:0:
469,6,154149,6,0,L|475:124,1,104,10|0,0:3|0:2,0:0:0:0:
391,66,154599,1,8,0:2:0:0:
340,132,154749,1,0,1:2:0:0:
281,76,154899,1,8,0:2:0:0:
220,132,155049,1,0,1:2:0:0:
103,271,155349,6,0,L|97:203,1,52,10|0,0:3|0:2,0:0:0:0:
98,219,155574,1,0,0:2:0:0:
98,219,155649,1,8,0:2:0:0:
185,249,155799,1,0,0:2:0:0:
263,220,155949,2,0,L|257:281,1,52,0|8,1:2|0:2,0:0:0:0:
347,334,156249,6,0,L|341:276,1,52,0|0,1:2|0:2,0:0:0:0:
431,351,156549,2,0,L|437:239,1,104,10|0,0:3|0:2,0:0:0:0:
473,172,156999,1,8,0:2:0:0:
397,136,157149,1,0,1:2:0:0:
465,88,157299,1,8,0:2:0:0:
392,47,157449,1,0,1:2:0:0:
193,88,157749,5,10,0:3:0:0:
240,156,157899,1,0,1:2:0:0:
240,156,157974,1,0,1:2:0:0:
240,156,158049,2,0,L|234:214,1,52,8|0,0:2|0:2,0:0:0:0:
151,226,158349,2,0,L|157:168,1,52,0|8,1:2|0:2,0:0:0:0:
109,83,158649,6,0,L|68:140,1,52,0|0,1:2|0:2,0:0:0:0:
2,33,158949,2,0,L|-8:149,1,104,10|0,0:3|0:2,0:0:0:0:
4,219,159399,1,8,0:2:0:0:
4,219,159549,1,0,1:2:0:0:
87,216,159699,1,8,0:2:0:0:
45,288,159849,6,0,L|50:358,1,52,0|0,1:2|0:2,0:0:0:0:
151,360,160149,2,0,L|163:255,1,104,10|0,0:3|0:2,0:0:0:0:
152,173,160599,1,8,0:2:0:0:
152,173,160749,1,0,1:2:0:0:
234,165,160899,1,8,0:2:0:0:
193,92,161049,6,0,L|197:32,1,52,0|0,1:2|0:2,0:0:0:0:
290,19,161349,2,0,L|304:126,1,104,10|0,0:3|0:2,0:0:0:0:
297,205,161799,1,8,0:2:0:0:
297,205,161949,1,0,1:2:0:0:
380,209,162099,1,8,0:2:0:0:
338,281,162249,6,0,L|345:338,1,52,0|0,1:2|0:2,0:0:0:0:
457,355,162549,2,0,L|476:237,1,104,10|0,0:3|0:2,0:0:0:0:
510,177,162999,1,8,0:2:0:0:
510,177,163149,1,0,1:2:0:0:
427,165,163299,1,8,0:2:0:0:
380,87,163449,6,0,L|374:19,1,52,0|0,1:2|0:2,0:0:0:0:
295,54,163749,2,0,L|289:122,1,52,0|0,1:2|0:2,0:0:0:0:
209,102,164049,2,0,L|203:34,1,52,0|0,1:2|0:2,0:0:0:0:
124,69,164349,2,0,L|118:137,1,52,0|0,1:2|0:2,0:0:0:0:
114,204,164649,2,0,L|120:272,1,52,0|0,1:2|0:2,0:0:0:0:
199,237,164949,2,0,L|205:169,1,52,0|0,1:2|0:2,0:0:0:0:
285,189,165249,2,0,L|291:257,1,52,0|0,1:2|0:2,0:0:0:0:
370,222,165549,2,0,L|376:154,1,52,0|0,1:2|0:2,0:0:0:0:
414,311,165849,5,0,1:2:0:0:
414,311,165999,1,0,1:2:0:0:
331,324,166149,2,0,L|274:334,1,52,0|0,1:2|1:2,0:0:0:0:
201,333,166449,1,0,1:2:0:0:
201,333,166599,1,0,1:2:0:0:
214,250,166749,2,0,L|224:193,1,52,0|0,1:2|1:2,0:0:0:0:
240,118,167049,1,0,1:2:0:0:
240,118,167199,1,0,1:2:0:0:
157,131,167349,2,0,L|100:141,1,52,0|0,1:2|1:2,0:0:0:0:
25,150,167649,1,0,1:2:0:0:
25,150,167799,1,0,1:2:0:0:
38,67,167949,2,0,L|48:10,1,52,0|0,1:2|1:2,0:0:0:0:
256,192,168249,12,0,170349,1:0:0:0:
256,192,170649,12,0,172149,1:2:0:0:
505,112,173049,6,0,L|395:103,1,77.999997619629,2|0,0:0|0:0,0:0:0:0:
317,101,173349,1,8,0:0:0:0:
354,178,173499,2,0,L|343:285,1,77.999997619629,2|0,0:0|0:0,0:0:0:0:
261,304,173799,2,0,L|263:202,1,77.999997619629,10|0,0:3|0:0,0:0:0:0:
183,260,174099,1,2,0:0:0:0:
165,175,174249,2,0,L|140:-2,1,155.999995239258,2|0,0:3|0:0,0:0:0:0:
61,55,174699,5,10,0:3:0:0:
61,85,174774,1,8,0:0:0:0:
60,112,174849,1,8,0:0:0:0:
7,176,174999,1,8,0:0:0:0:
88,190,175149,2,0,L|182:171,1,77.999997619629,0|2,0:0|0:3,0:0:0:0:
254,78,175449,6,0,L|246:245,1,155.999995239258,2|8,0:0|0:0,0:0:0:0:
239,319,175899,1,0,0:0:0:0:
239,319,176049,1,2,0:2:0:0:
315,283,176199,1,8,0:0:0:0:
397,287,176349,1,0,0:0:0:0:
471,324,176499,1,2,0:2:0:0:
475,156,176799,5,2,0:3:0:0:
403,120,176949,1,8,0:0:0:0:
403,120,177024,1,2,0:2:0:0:
403,120,177099,1,8,0:0:0:0:
340,172,177249,2,0,L|331:259,1,77.999997619629,0|8,0:0|0:0,0:0:0:0:
250,182,177549,2,0,L|239:94,1,77.999997619629,8|8,0:0|0:0,0:0:0:0:
82,98,177849,5,2,0:3:0:0:
153,138,177999,1,2,0:2:0:0:
85,180,178149,2,0,L|96:270,1,77.999997619629,8|0,0:0|0:0,0:0:0:0:
14,314,178449,2,0,L|3:224,1,77.999997619629,2|8,0:3|0:2,0:0:0:0:
8,150,178749,1,2,0:2:0:0:
180,231,179049,6,0,L|283:242,1,77.999997619629,2|0,0:0|0:0,0:0:0:0:
326,301,179349,1,8,0:0:0:0:
376,236,179499,1,10,0:0:0:0:
381,208,179574,1,8,0:0:0:0:
386,181,179649,1,8,0:0:0:0:
467,172,179799,2,0,L|484:252,2,77.999997619629,10|2|2,0:0|0:3|0:0,0:0:0:0:
434,69,180249,6,0,P|361:42|265:65,1,155.999995239258,2|8,0:0|0:0,0:0:0:0:
153,122,180699,2,0,P|199:127|240:114,1,77.999997619629,2|0,0:0|0:0,0:0:0:0:
127,40,180999,2,0,P|81:35|40:48,1,77.999997619629,10|0,0:0|0:0,0:0:0:0:
50,42,181299,1,2,0:0:0:0:
15,121,181449,5,2,0:3:0:0:
77,180,181599,1,2,0:2:0:0:
29,248,181749,2,0,L|87:316,1,77.999997619629,10|2,0:3|0:2,0:0:0:0:
139,364,182049,1,2,0:3:0:0:
190,301,182199,1,8,0:3:0:0:
190,301,182274,1,2,0:3:0:0:
190,301,182349,2,0,L|188:251,2,38.9999988098145,8|2|8,0:3|0:3|0:3,0:0:0:0:
283,330,182649,6,0,B|352:344|352:344|462:313,1,155.999995239258,10|8,0:0|0:0,0:0:0:0:
434,320,183099,1,0,0:0:0:0:
427,242,183249,2,0,L|420:190,2,38.9999988098145,0|2|8,0:0|0:2|0:0,0:0:0:0:
342,206,183549,2,0,L|335:258,2,38.9999988098145,0|2|0,0:0|0:2|0:0,0:0:0:0:
308,115,183849,1,2,0:2:0:0:
308,115,183999,2,0,L|211:131,1,77.999997619629,2|8,0:2|0:0,0:0:0:0:
142,131,184299,1,8,0:0:0:0:
147,105,184374,1,8,0:0:0:0:
152,79,184449,1,8,0:0:0:0:
65,96,184599,2,0,L|53:-4,1,77.999997619629,8|0,0:0|0:0,0:0:0:0:
55,18,184899,1,0,0:0:0:0:
0,144,185049,6,0,P|-13:202|1:317,1,155.999995239258,2|8,0:0|0:0,0:0:0:0:
74,264,185499,2,0,P|112:256|182:277,1,77.999997619629,2|0,0:0|0:0,0:0:0:0:
218,315,185799,1,10,0:0:0:0:
290,360,185949,2,0,P|328:367|398:347,1,77.999997619629,2|2,0:2|0:0,0:0:0:0:
445,276,186249,6,0,L|437:181,1,77.999997619629,2|0,0:0|0:0,0:0:0:0:
431,105,186549,1,8,0:0:0:0:
361,153,186699,1,10,0:0:0:0:
352,179,186774,1,8,0:0:0:0:
343,205,186849,1,8,0:0:0:0:
265,234,186999,2,0,L|255:134,2,77.999997619629,10|8|10,0:0|0:0|0:0,0:0:0:0:
236,322,187449,6,0,B|186:335|186:335|67:308,1,155.999995239258,2|8,0:0|0:0,0:0:0:0:
27,218,187899,2,0,L|43:380,1,155.999995239258,2|10,0:0|0:0,0:0:0:0:
122,242,188349,2,0,L|132:154,1,77.999997619629,0|2,0:0|0:0,0:0:0:0:
113,80,188649,1,2,0:0:0:0:
194,104,188799,1,0,0:0:0:0:
275,80,188949,2,0,L|353:82,1,77.999997619629,8|10,0:0|0:0,0:0:0:0:
368,105,189174,1,8,0:0:0:0:
382,127,189249,2,0,L|477:136,1,77.999997619629,8|10,0:0|0:0,0:0:0:0:
405,209,189549,2,0,L|310:218,1,77.999997619629,2|2,0:3|0:0,0:0:0:0:
187,207,189849,6,0,P|163:240|168:287,1,77.999997619629
227,356,190149,2,0,P|251:323|246:276,1,77.999997619629,8|0,0:0|0:0,0:0:0:0:
142,269,190449,6,0,P|137:309|165:347,1,77.999997619629,0|8,0:0|0:0,0:0:0:0:
275,297,190749,2,0,P|279:256|251:218,1,77.999997619629,0|2,0:0|0:2,0:0:0:0:
178,187,191049,5,2,2:3:0:0:
164,134,191199,1,2,2:0:0:0:
171,79,191349,2,0,P|180:39|170:1,1,77.999997619629,2|2,2:0|2:0,0:0:0:0:
276,54,191649,2,0,L|365:55,1,77.999997619629,2|2,2:0|2:0,0:0:0:0:
360,140,191949,2,0,L|281:140,1,77.999997619629,2|2,2:0|2:0,0:0:0:0:
229,231,192249,5,2,0:1:0:0:
301,277,192399,2,0,L|310:216,2,38.9999988098145,2|2|8,0:2|0:2|0:0,0:0:0:0:
207,310,192699,1,2,0:0:0:0:
279,356,192849,2,0,L|288:295,2,38.9999988098145,2|2|8,0:2|0:2|0:0,0:0:0:0:
168,384,193149,2,0,L|80:361,1,77.999997619629,2|0,0:3|0:0,0:0:0:0:
72,268,193449,6,0,B|62:219|62:219|77:88,1,155.999995239258,2|8,0:2|0:0,0:0:0:0:
146,66,193899,1,8,0:0:0:0:
172,74,193974,1,0,0:0:0:0:
198,82,194049,1,0,0:0:0:0:
277,53,194199,1,8,0:0:0:0:
277,53,194349,2,0,L|266:167,1,77.999997619629,0|0,0:2|0:0,0:0:0:0:
197,171,194649,6,0,B|168:201|168:201|158:328,1,155.999995239258,2|10,0:0|0:3,0:0:0:0:
249,291,195099,2,0,L|352:310,1,77.999997619629,2|2,0:1|0:2,0:0:0:0:
433,329,195399,1,10,0:1:0:0:
423,243,195549,2,0,L|410:140,1,77.999997619629,2|2,0:2|0:0,0:0:0:0:
483,82,195849,6,0,B|431:38|431:38|335:38,1,155.999995239258,2|8,0:0|0:0,0:0:0:0:
248,91,196299,2,0,L|147:105,1,77.999997619629,10|0,0:0|0:0,0:0:0:0:
67,124,196599,1,10,0:0:0:0:
62,151,196674,1,8,0:0:0:0:
58,178,196749,1,8,0:0:0:0:
124,225,196899,1,10,0:0:0:0:
190,177,197049,6,0,B|256:166|256:166|359:174,1,155.999995239258,2|10,0:0|0:3,0:0:0:0:
319,329,197499,2,0,L|228:342,1,77.999997619629,2|2,0:0|0:2,0:0:0:0:
259,247,197799,1,10,0:0:0:0:
342,251,197949,1,2,0:2:0:0:
425,255,198099,1,2,0:0:0:0:
469,182,198249,6,0,L|484:94,2,77.999997619629,2|2|8,0:0|0:3|0:0,0:0:0:0:
380,160,198699,1,10,0:0:0:0:
352,165,198774,1,8,0:0:0:0:
325,171,198849,1,8,0:0:0:0:
314,91,198999,1,10,0:0:0:0:
240,53,199149,2,0,L|129:50,1,77.999997619629,0|2,0:0|0:0,0:0:0:0:
43,16,199449,6,0,L|53:104,1,77.999997619629,2|0,0:3|0:0,0:0:0:0:
66,187,199749,1,8,0:0:0:0:
140,227,199899,2,0,L|150:136,1,77.999997619629,2|0,0:3|0:0,0:0:0:0:
240,53,200199,2,0,L|250:141,1,77.999997619629,10|0,0:3|0:0,0:0:0:0:
335,206,200499,1,2,0:2:0:0:
335,206,200574,1,2,0:2:0:0:
335,206,200649,6,0,L|436:215,2,77.999997619629,2|0|8,0:0|0:0|0:0,0:0:0:0:
268,254,201099,1,10,0:0:0:0:
271,281,201174,1,8,0:0:0:0:
274,308,201249,1,8,0:0:0:0:
357,323,201399,2,0,L|366:277,2,38.9999988098145,10|8|8,0:0|0:0|0:0,0:0:0:0:
432,359,201699,1,10,0:0:0:0:
488,304,201849,6,0,L|458:119,1,155.999995239258,2|8,0:0|0:0,0:0:0:0:
414,79,202299,1,2,0:2:0:0:
355,142,202449,1,2,0:2:0:0:
313,67,202599,2,0,L|212:93,2,77.999997619629,8|2|0,0:0|0:2|0:0,0:0:0:0:
190,13,203049,6,0,B|133:7|133:7|34:54,1,155.999995239258,2|8,0:0|0:0,0:0:0:0:
141,96,203499,2,0,L|138:174,1,77.999997619629,10|0,0:0|0:0,0:0:0:0:
198,265,203799,1,10,0:0:0:0:
198,265,203949,2,0,L|243:198,1,77.999997619629,0|2,0:0|0:0,0:0:0:0:
289,123,204249,5,2,0:3:0:0:
345,63,204399,1,2,0:2:0:0:
427,63,204549,1,10,0:3:0:0:
482,124,204699,1,2,0:2:0:0:
355,240,204999,1,2,0:3:0:0:
201,163,205299,1,0,1:0:0:0:
234,242,205449,6,0,L|228:341,1,77.999997619629,2|0,0:0|0:0,0:0:0:0:
141,243,205749,1,8,0:0:0:0:
69,290,205899,2,0,L|-1:343,1,77.999997619629,10|0,0:0|0:0,0:0:0:0:
46,193,206199,1,10,0:0:0:0:
47,165,206274,1,8,0:0:0:0:
49,137,206349,1,8,0:0:0:0:
25,58,206499,1,10,0:0:0:0:
107,71,206649,6,0,B|146:83|146:83|261:65,1,155.999995239258,2|8,0:0|0:0,0:0:0:0:
379,41,207099,1,0,0:0:0:0:
336,115,207249,2,0,P|324:143|330:214,1,77.999997619629,2|8,0:2|0:0,0:0:0:0:
400,239,207549,2,0,P|412:267|406:338,1,77.999997619629,2|0,0:2|0:0,0:0:0:0:
358,371,207849,1,2,0:0:0:0:
212,272,208149,5,8,0:0:0:0:
242,197,208299,1,10,0:0:0:0:
241,169,208374,1,8,0:0:0:0:
240,141,208449,1,8,0:0:0:0:
282,72,208599,2,0,L|383:45,2,77.999997619629,10|0|2,0:0|0:0|0:0,0:0:0:0:
181,49,209049,6,0,B|119:26|119:26|20:45,1,155.999995239258,2|8,0:0|0:0,0:0:0:0:
67,188,209499,2,0,L|82:105,1,77.999997619629,2|0,0:0|0:0,0:0:0:0:
158,207,209799,1,10,0:0:0:0:
217,150,209949,2,0,L|271:85,1,77.999997619629,0|2,0:0|0:0,0:0:0:0:
345,29,210249,5,2,2:0:0:0:
345,29,210399,1,2,2:0:0:0:
423,28,210549,1,2,2:0:0:0:
423,28,210699,1,2,2:0:0:0:
471,111,210849,6,0,L|364:139,1,77.999997619629,2|2,0:3|0:2,0:0:0:0:
302,222,211149,2,0,L|403:247,1,77.999997619629,2|2,0:3|0:2,0:0:0:0:
451,353,211449,1,4,0:0:0:0:
