osu file format v14

[General]
AudioFilename: audio.mp3
AudioLeadIn: 0
PreviewTime: 76976
Countdown: 0
SampleSet: Normal
StackLeniency: 0.2
Mode: 0
LetterboxInBreaks: 0
WidescreenStoryboard: 0

[Editor]
Bookmarks: 38576,76774,115289,153655,172838,211376
DistanceSpacing: 0.7
BeatDivisor: 4
GridSize: 32
TimelineZoom: 3.199999

[Metadata]
Title:Geist
TitleUnicode:Geist
Artist:Harito
ArtistUnicode:Harito
Creator:MaridiuS
Version:Expert
Source:
Tags:instrumental [MaRy] Artcore Electronic edm Sin:cK Street
BeatmapID:2124292
BeatmapSetID:1015012

[Difficulty]
HPDrainRate:6
CircleSize:4.2
OverallDifficulty:9
ApproachRate:9.4
SliderMultiplier:1.9
SliderTickRate:1

[Events]
//Background and Video events
0,0,"39b7fdb9-66a9-4c28-cc82-fa6fe792ac2d.jpg",0,0
//Break Periods
//Storyboard Layer 0 (Background)
//Storyboard Layer 1 (Fail)
//Storyboard Layer 2 (Pass)
//Storyboard Layer 3 (Foreground)
//Storyboard Layer 4 (Overlay)
//Storyboard Sound Samples

[TimingPoints]
19449,300,4,2,0,70,1,0
19449,-133.333333333333,4,2,0,50,0,0
38649,-100,4,2,1,70,0,0
57849,-200,4,2,0,70,0,0
75849,-133.333333333333,4,2,3,70,0,0
77049,-100,4,2,1,70,0,0
115449,-125,4,2,1,70,0,0
173049,-83.3333333333333,4,1,1,80,0,1
191649,-133.333333333333,4,1,1,70,0,0
191724,-133.333333333333,4,1,1,5,0,0
191799,-133.333333333333,4,1,1,70,0,0
191874,-133.333333333333,4,1,1,5,0,0
191949,-133.333333333333,4,1,1,70,0,0
192024,-133.333333333333,4,1,1,5,0,0
192099,-133.333333333333,4,1,1,70,0,0
192174,-133.333333333333,4,1,1,5,0,0
192249,-83.3333333333333,4,1,1,80,0,1
210249,-133.333333333333,4,1,1,70,0,0
210324,-133.333333333333,4,1,1,5,0,0
210399,-133.333333333333,4,1,1,70,0,0
210474,-133.333333333333,4,1,1,5,0,0
210549,-133.333333333333,4,1,1,70,0,0
210624,-133.333333333333,4,1,1,5,0,0
210699,-133.333333333333,4,1,1,70,0,0
210774,-133.333333333333,4,1,1,5,0,0
210849,-133.333333333333,4,1,1,70,0,0

[Colours]
Combo1 : 188,149,12
Combo2 : 215,147,172
Combo3 : 6,203,219
Combo4 : 97,173,50
Combo5 : 204,0,5

[HitObjects]
260,263,19449,6,0,P|300:255|407:276,1,142.500005435944,4|8,0:2|0:2,0:2:0:0:
326,347,19899,1,0,0:2:0:0:
260,263,20049,2,0,L|250:189,1,71.2500027179719,2|0,0:2|0:2,0:2:0:0:
125,182,20349,2,2,L|135:108,1,71.2500027179719,8|0,0:2|0:2,0:2:0:0:
313,21,20649,5,2,0:2:0:0:
313,21,20799,2,0,L|321:100,1,71.2500027179719,0|8,0:2|0:2,0:2:0:0:
224,102,21099,1,2,0:2:0:0:
214,5,21249,2,0,L|46:21,1,142.500005435944,2|8,0:2|0:2,0:2:0:0:
72,19,21699,1,0,0:2:0:0:
54,139,21849,6,0,P|56:174|76:226,1,71.2500027179719,0|0,0:2|0:2,0:2:0:0:
38,345,22149,2,0,P|67:324|102:281,1,71.2500027179719,8|0,0:2|0:2,0:2:0:0:
229,258,22449,1,2,0:2:0:0:
229,258,22599,2,0,P|196:242|141:233,1,71.2500027179719,2|8,0:2|0:2,0:2:0:0:
162,234,22899,1,0,0:2:0:0:
263,337,23049,6,0,L|272:186,1,142.500005435944,2|8,0:2|0:2,0:2:0:0:
355,259,23499,2,0,L|386:255,3,23.7500009059906,2|0|0|0,0:2|0:2|0:2|0:2,0:2:0:0:
166,64,23949,6,0,L|162:101,5,23.7500009059906,10|0|0|0|0|0,0:2|0:2|0:2|0:2|0:2|0:2,0:2:0:0:
160,31,24249,2,0,P|189:28|243:40,1,71.2500027179719,0|0,0:2|0:2,0:2:0:0:
282,264,24549,1,10,0:2:0:0:
229,119,24699,1,0,0:2:0:0:
183,217,24849,1,2,0:2:0:0:
328,165,24999,1,2,0:2:0:0:
255,191,25149,6,0,L|165:174,1,71.2500027179719,8|0,0:2|0:2,0:2:0:0:
235,277,25449,1,2,0:2:0:0:
329,255,25599,2,0,L|332:327,1,71.2500027179719,0|8,0:2|0:2,0:2:0:0:
235,277,25899,1,2,0:2:0:0:
417,269,26049,2,0,B|519:240|519:240|452:226,1,142.500005435944,2|8,0:2|0:2,0:2:0:0:
329,255,26499,1,0,0:2:0:0:
396,176,26649,6,0,L|388:105,1,71.2500027179719,0|0,0:2|0:2,0:2:0:0:
240,138,26949,2,0,L|290:83,1,71.2500027179719,8|0,0:2|0:2,0:2:0:0:
161,20,27249,1,2,0:2:0:0:
161,20,27399,2,0,L|236:7,1,71.2500027179719,2|8,0:2|0:2,0:2:0:0:
353,12,27699,1,0,0:2:0:0:
287,85,27849,6,0,B|300:167|261:149|271:227,1,142.500005435944,2|8,0:2|0:2,0:2:0:0:
359,202,28299,2,0,L|390:201,3,23.7500009059906,2|0|0|0,0:2|0:2|0:2|0:2,0:2:0:0:
205,121,28749,5,10,0:2:0:0:
114,141,28899,1,2,0:2:0:0:
109,126,28974,1,0,0:2:0:0:
113,111,29049,1,2,0:2:0:0:
164,273,29199,5,0,0:2:0:0:
231,219,29349,2,0,L|80:230,1,142.500005435944,8|2,0:2|0:2,0:2:0:0:
231,219,29799,2,0,P|251:249|271:286,1,71.2500027179719,0|8,0:2|0:2,0:2:0:0:
303,166,30099,1,0,0:2:0:0:
512,210,30249,6,0,L|356:218,1,142.500005435944,2|8,0:2|0:2,0:2:0:0:
359,306,30699,2,0,L|437:302,1,71.2500027179719,2|0,0:2|0:2,0:2:0:0:
453,125,30999,2,0,L|375:129,1,71.2500027179719,2|8,0:2|0:2,0:2:0:0:
382,129,31299,1,0,0:2:0:0:
272,206,31449,6,0,P|288:168|295:134,1,71.2500027179719,0|0,0:2|0:2,0:2:0:0:
199,19,31749,2,0,P|223:51|249:75,1,71.2500027179719,8|0,0:2|0:2,0:2:0:0:
397,49,32049,1,2,0:2:0:0:
397,49,32199,2,0,P|361:52|327:62,1,71.2500027179719,2|8,0:2|0:2,0:2:0:0:
294,138,32499,1,0,0:2:0:0:
197,144,32649,6,0,B|179:212|179:212|203:280,1,142.500005435944,2|8,0:2|0:2,0:2:0:0:
291,214,33099,2,0,L|259:211,3,23.7500009059906,2|0|0|0,0:2|0:2|0:2|0:2,0:2:0:0:
36,239,33549,6,0,L|33:203,5,23.7500009059906,10|0|0|0|0|0,0:2|0:2|0:2|0:2|0:2|0:2,0:2:0:0:
21,261,33849,2,0,L|99:271,1,71.2500027179719,0|0,0:2|0:2,0:2:0:0:
138,145,34149,2,0,L|229:143,1,71.2500027179719,8|0,0:2|0:2,0:2:0:0:
222,271,34449,2,0,L|313:273,2,71.2500027179719,2|0|8,0:2|0:2|0:2,0:2:0:0:
318,185,34899,5,0,0:2:0:0:
432,256,35049,2,0,B|350:243|368:282|289:272,1,142.500005435944,2|8,0:2|0:2,0:2:0:0:
293,273,35499,2,0,L|282:356,1,72.0000027465821,2|0,0:2|0:2,0:2:0:0:
432,256,35799,2,0,L|441:184,1,72.0000027465821,2|8,0:2|0:2,0:2:0:0:
456,59,36099,1,0,0:2:0:0:
327,50,36249,6,0,B|299:116|299:116|324:206,1,142.500005435944,0|8,0:2|0:2,0:2:0:0:
400,123,36699,1,0,0:2:0:0:
317,184,36849,2,0,L|239:190,1,71.2500027179719,2|2,0:2|0:2,0:2:0:0:
327,50,37149,2,0,L|249:44,1,71.2500027179719,8|0,0:2|0:2,0:2:0:0:
103,116,37449,5,2,0:2:0:0:
178,115,37599,2,0,L|255:116,1,71.2500027179719,0|8,0:2|0:2,0:2:0:0:
361,164,37899,2,0,L|357:131,3,23.7500009059906,2|0|0|0,0:2|0:2|0:2|0:2,0:2:0:0:
184,216,38349,5,8,0:2:0:0:
203,56,38499,1,0,0:2:0:0:
189,51,38574,1,0,0:2:0:0:
175,52,38649,6,0,B|160:96|160:96|179:160,1,95,0|0,1:2|0:2,0:2:0:0:
276,283,38949,2,0,B|291:239|291:239|272:175,1,95,0|0,1:2|0:2,0:2:0:0:
101,229,39249,2,0,L|211:236,1,95,8|2,0:2|0:2,0:2:0:0:
248,114,39549,1,8,0:2:0:0:
166,313,39699,1,2,0:2:0:0:
149,61,39849,6,0,P|144:101|162:170,1,95,4|0,1:3|0:2,0:2:0:0:
338,251,40149,2,0,P|343:211|325:142,1,95,0|0,0:2|0:2,0:2:0:0:
320,44,40449,1,10,0:2:0:0:
249,199,40599,1,0,0:2:0:0:
414,97,40749,1,10,0:2:0:0:
233,102,40899,1,2,1:2:0:0:
390,201,41049,6,0,P|442:202|502:187,2,95,0|0|2,1:2|0:2|0:2,0:2:0:0:
294,286,41499,1,0,1:2:0:0:
327,118,41649,2,0,P|339:78|333:8,1,95,8|2,0:2|0:2,0:2:0:0:
236,185,41949,2,0,P|197:196|126:191,1,95,8|2,0:2|0:2,0:2:0:0:
108,326,42249,5,4,1:3:0:0:
108,326,42549,2,0,P|61:302|65:235,1,95,8|0,0:2|0:2,0:2:0:0:
218,370,42849,1,2,1:2:0:0:
142,195,42999,2,0,P|188:218|185:286,1,95,8|0,0:2|0:2,0:2:0:0:
147,93,43299,1,0,1:2:0:0:
334,56,43449,6,0,L|218:70,2,95,0|0|0,1:2|0:2|0:2,0:2:0:0:
229,163,43899,1,0,1:2:0:0:
52,81,44049,2,0,L|168:95,1,95,8|0,0:2|0:2,0:2:0:0:
323,173,44349,2,0,L|210:161,1,95,8|2,0:2|0:2,0:2:0:0:
214,384,44649,6,0,B|200:339|200:339|214:294,1,95,4|0,1:3|0:2,0:2:0:0:
323,173,44949,2,0,B|336:220|336:220|322:264,1,95,0|0,0:2|0:2,0:2:0:0:
89,187,45249,5,8,0:2:0:0:
241,209,45399,1,2,1:2:0:0:
115,319,45549,5,8,0:2:0:0:
284,339,45699,1,2,1:2:0:0:
436,312,45849,6,0,P|351:279|283:339,1,190,0|0,1:2|0:2,0:2:0:0:
367,359,46299,1,2,1:2:0:0:
341,240,46449,2,0,P|330:194|330:138,1,95,8|0,0:2|0:2,0:2:0:0:
425,183,46749,1,8,0:2:0:0:
252,242,46899,1,2,1:2:0:0:
316,7,47049,6,0,P|334:111|320:180,1,142.5,4|0,1:3|0:2,0:2:0:0:
332,167,47349,2,0,P|283:160|215:173,1,95,8|0,0:2|0:2,0:2:0:0:
316,7,47649,1,0,1:2:0:0:
332,183,47799,2,0,P|283:176|215:189,1,95,8|0,0:2|0:2,0:2:0:0:
279,89,48099,1,0,1:2:0:0:
239,349,48249,5,0,1:2:0:0:
332,183,48399,1,2,0:2:0:0:
318,313,48549,1,0,1:2:0:0:
255,230,48699,1,2,0:2:0:0:
87,292,48849,6,0,B|135:302|135:302|217:272,1,95,8|0,0:2|0:2,0:2:0:0:
370,83,49149,2,0,B|322:73|322:73|240:103,1,95,8|2,0:2|0:2,0:2:0:0:
318,352,49449,6,0,P|265:284|332:176,1,190,4|2,1:3|0:2,0:2:0:0:
410,335,49899,1,2,0:2:0:0:
204,194,50049,2,0,P|251:186|330:210,1,95,8|0,0:2|1:2,0:2:0:0:
503,333,50349,2,0,P|455:341|376:316,1,95,8|0,0:2|1:2,0:2:0:0:
353,269,50649,5,0,1:2:0:0:
462,97,50799,1,2,0:2:0:0:
267,95,50949,1,2,0:2:0:0:
267,95,51099,1,2,0:2:0:0:
428,200,51249,2,0,P|390:179|317:165,2,95,8|0|10,0:2|0:2|0:2,0:2:0:0:
0,300,51849,6,0,B|57:287|57:287|176:327,1,142.5,4|0,1:3|0:2,0:2:0:0:
153,335,52149,2,0,P|146:277|156:203,1,95,8|0,0:2|0:2,0:2:0:0:
51,371,52449,1,0,1:2:0:0:
58,118,52599,2,0,P|65:176|55:250,1,95,8|0,0:2|0:2,0:2:0:0:
148,142,52899,1,2,1:2:0:0:
380,204,53049,6,0,L|266:191,2,95,0|0|2,1:2|0:2|0:2,0:2:0:0:
405,117,53499,1,0,1:2:0:0:
369,298,53649,2,0,L|382:184,1,95,8|0,0:2|0:2,0:2:0:0:
295,6,53949,2,0,L|285:101,1,95,8|2,0:2|0:2,0:2:0:0:
186,274,54249,6,0,B|230:259|230:259|294:278,1,95,4|0,1:3|0:2,0:2:0:0:
140,180,54549,1,0,1:2:0:0:
273,185,54699,1,2,0:2:0:0:
60,222,54849,2,0,B|45:178|45:178|64:114,1,95,8|0,0:2|0:2,0:2:0:0:
350,139,55149,2,0,B|365:183|365:183|346:247,1,95,8|2,0:2|0:2,0:2:0:0:
203,79,55449,5,4,1:2:0:0:
210,267,55599,1,2,0:2:0:0:
60,222,55749,5,0,1:2:0:0:
350,139,55899,1,2,0:2:0:0:
105,138,56049,2,0,L|227:164,1,95,8|0,0:2|0:2,0:2:0:0:
407,246,56349,2,0,L|285:220,1,95,8|2,0:2|0:2,0:2:0:0:
34,69,56649,6,0,P|15:145|36:229,1,142.5,4|0,1:3|0:2,0:2:0:0:
42,231,56949,2,0,P|90:231|161:200,1,95,8|0,0:2|0:2,0:2:0:0:
177,69,57249,1,0,1:2:0:0:
300,168,57399,2,0,P|252:168|181:137,1,95,8|0,0:2|0:2,0:2:0:0:
354,242,57699,1,2,1:2:0:0:
506,149,57849,6,0,P|409:118|320:94,1,190,6|0,3:2|0:2,0:2:0:0:
231,95,58749,2,0,P|238:119|246:156,1,47.5,0|0,0:2|0:2,0:2:0:0:
158,144,59049,2,0,P|147:190|140:237,1,95,2|0,3:2|0:2,0:2:0:0:
131,343,59499,1,0,0:2:0:0:
131,343,59649,2,0,P|87:312|19:247,1,142.5,2|0,3:2|0:2,0:2:0:0:
72,46,60249,6,0,P|74:76|79:109,1,47.5,2|0,3:2|0:2,0:2:0:0:
100,223,60549,2,0,P|97:192|93:160,1,47.5,0|0,3:2|0:2,0:2:0:0:
146,10,60849,6,0,P|148:40|153:73,1,47.5,0|0,3:2|0:2,0:2:0:0:
183,250,61149,2,0,P|180:219|176:187,1,47.5,0|0,3:2|0:2,0:2:0:0:
163,132,61449,6,0,P|217:124|315:129,1,142.5,2|0,0:2|0:2,0:2:0:0:
270,213,62049,2,0,P|334:232|419:265,1,142.5,2|0,0:2|0:2,0:2:0:0:
478,224,62574,1,2,0:2:0:0:
476,210,62649,6,0,P|471:176|474:99,1,95,2|0,0:2|0:2,0:2:0:0:
471,115,63099,1,2,0:2:0:0:
308,35,63399,1,2,0:2:0:0:
347,175,63699,1,0,3:2:0:0:
378,89,63849,5,2,0:2:0:0:
232,123,64149,1,2,0:2:0:0:
232,123,64299,1,0,0:2:0:0:
307,49,64449,2,0,B|287:134|325:120|302:207,1,142.5,2|0,0:2|0:2,0:2:0:0:
314,284,65049,2,0,P|307:240|306:184,1,95,2|0,0:2|3:2,0:2:0:0:
305,189,65499,1,0,0:2:0:0:
225,249,65649,2,0,P|205:247|174:244,1,47.5,2|0,0:2|0:2,0:2:0:0:
395,288,65949,2,0,P|414:286|446:283,1,47.5,2|0,0:2|0:2,0:2:0:0:
314,284,66249,5,0,3:2:0:0:
312,125,66549,1,2,0:2:0:0:
298,201,66699,1,2,0:2:0:0:
312,203,66774,1,2,0:2:0:0:
326,201,66849,1,2,0:2:0:0:
179,10,67149,5,8,0:2:0:0:
131,129,67299,1,2,0:2:0:0:
190,88,67449,6,0,P|131:87|44:97,1,142.5,0|0,3:2|0:2,0:2:0:0:
15,176,68049,2,0,P|44:175|71:171,1,47.5,2|0,0:2|0:2,0:2:0:0:
195,169,68349,2,0,P|166:170|139:174,1,47.5,0|0,3:2|0:2,0:2:0:0:
103,238,68649,6,0,P|106:292|102:387,1,142.5,2|0,0:2|0:2,0:2:0:0:
31,311,69249,2,0,P|104:310|191:319,1,142.5,2|0,0:2|0:2,0:2:0:0:
269,361,69849,2,0,P|263:334|260:308,1,47.5,0|0,3:2|0:2,0:2:0:0:
358,285,70149,2,0,P|364:258|367:232,1,47.5,0|0,3:2|0:2,0:2:0:0:
229,228,70449,1,2,0:2:0:0:
229,228,70599,2,0,P|223:201|220:175,1,47.5,2|0,0:2|0:2,0:2:0:0:
349,150,70899,1,0,3:2:0:0:
255,82,71049,6,0,P|297:47|396:25,1,142.5,2|0,3:2|0:2,0:2:0:0:
354,112,71649,2,0,P|407:102|504:133,1,142.5,10|0,0:2|0:2,0:2:0:0:
418,329,72249,2,0,P|423:258|426:187,1,142.5,2|0,3:2|0:2,0:2:0:0:
342,238,72849,1,2,0:2:0:0:
344,252,72924,1,2,0:2:0:0:
346,266,72999,1,2,0:2:0:0:
441,254,73149,2,0,P|465:255|489:259,1,47.5,0|0,3:2|0:2,0:2:0:0:
248,252,73449,5,2,0:2:0:0:
248,252,73599,2,0,P|247:221|248:191,1,47.5,0|0,0:2|0:2,0:2:0:0:
232,125,73899,1,2,0:2:0:0:
232,125,74049,2,0,P|213:123|201:123,4,23.75,2|0|0|0|2,0:2|0:2|0:2|0:2|3:2,0:2:0:0:
257,50,74499,1,2,0:2:0:0:
79,9,74649,6,0,P|81:64|68:163,1,142.5,2|0,3:2|0:2,0:2:0:0:
24,226,75249,2,0,P|53:230|77:235,1,47.5,2|0,0:2|0:2,0:2:0:0:
49,308,75549,2,0,P|53:337|57:360,1,47.5,2|0,0:2|0:2,0:2:0:0:
174,273,75849,6,0,L|248:281,1,71.2500027179719,0|0,3:2|0:2,0:2:0:0:
294,96,76149,2,0,L|220:88,1,71.2500027179719,2|0,0:2|0:2,0:2:0:0:
154,174,76449,2,0,L|228:182,1,71.2500027179719,2|0,0:2|0:2,0:2:0:0:
322,184,76749,1,2,1:2:0:0:
207,16,76899,1,10,0:2:0:0:
111,81,77049,6,0,P|176:106|320:85,1,190,4|0,1:3|0:2,0:2:0:0:
374,16,77499,1,0,1:2:0:0:
475,146,77649,2,0,P|395:139|356:99,2,95,8|0|0,1:1|0:2|1:2,0:2:0:0:
475,146,78099,1,0,1:2:0:0:
246,218,78249,5,2,0:2:0:0:
367,235,78399,1,0,1:2:0:0:
367,235,78549,1,0,1:2:0:0:
298,304,78699,1,2,0:2:0:0:
319,150,78849,2,0,P|312:102|316:44,1,95,8|0,0:1|0:2,0:2:0:0:
187,290,79149,2,0,P|193:337|190:396,1,95,2|2,1:2|1:2,0:2:0:0:
28,184,79449,6,0,B|13:136|13:136|46:48|46:48|33:-15,1,190,0|0,1:0|0:2,0:2:0:0:
36,3,79899,1,0,1:2:0:0:
117,139,80049,2,0,B|164:157|164:157|205:141,1,95,8|0,0:1|0:2,0:2:0:0:
263,55,80349,2,0,B|216:37|216:37|174:54,1,95,0|0,1:2|0:2,0:2:0:0:
512,179,80649,6,0,L|481:144,1,47.5,2|0,1:2|0:2,0:2:0:0:
407,114,80799,2,0,L|360:108,1,47.5,2|0,1:2|0:2,0:2:0:0:
284,133,80949,2,0,L|244:159,1,47.5,2|0,1:2|0:2,0:2:0:0:
201,226,81099,2,0,L|187:272,1,47.5,2|0,1:2|0:2,0:2:0:0:
200,357,81249,1,8,0:1:0:0:
359,186,81399,6,0,L|390:221,1,47.5,2|0,1:2|0:2,0:2:0:0:
400,305,81549,2,0,L|353:315,1,47.5,2|0,1:2|0:2,0:2:0:0:
278,281,81699,2,0,L|292:235,1,47.5,2|0,1:2|0:2,0:2:0:0:
189,49,81849,6,0,L|102:-4,2,95,0|0|0,1:2|0:2|0:2,0:2:0:0:
189,49,82299,1,0,1:2:0:0:
48,146,82449,2,0,L|141:129,1,95,8|0,0:1|0:2,0:2:0:0:
124,280,82749,2,0,L|183:206,1,95,0|0,1:2|0:2,0:2:0:0:
230,127,83049,5,2,0:2:0:0:
280,337,83199,1,0,1:2:0:0:
279,201,83349,1,2,1:2:0:0:
194,351,83499,1,2,1:2:0:0:
194,351,83574,1,0,1:2:0:0:
194,351,83649,1,8,0:1:0:0:
228,272,83799,1,2,0:2:0:0:
411,356,83949,1,2,1:2:0:0:
358,293,84099,1,2,1:2:0:0:
504,193,84249,6,0,L|401:204,1,95,0|0,1:2|0:2,0:2:0:0:
306,214,84549,1,0,0:2:0:0:
348,108,84699,1,2,1:2:0:0:
189,63,84849,2,0,L|220:167,1,95,8|0,0:1|0:2,0:2:0:0:
200,363,85149,2,0,L|231:259,1,95,2|2,1:2|1:2,0:2:0:0:
69,157,85449,6,0,L|8:136,1,47.5,2|0,1:2|0:2,0:2:0:0:
63,240,85599,2,0,L|2:261,1,47.5,2|0,1:2|0:2,0:2:0:0:
74,144,85749,2,0,L|20:107,1,47.5,2|0,1:2|0:2,0:2:0:0:
68,253,85899,2,0,L|14:289,1,47.5,2|0,1:2|0:2,0:2:0:0:
143,205,86049,1,8,0:1:0:0:
26,145,86199,6,0,L|71:161,1,47.5,2|0,1:2|1:2,1:2:0:0:
20,251,86349,2,0,L|65:236,1,47.5,2|0,1:2|1:2,1:2:0:0:
229,202,86499,5,0,1:2:0:0:
229,202,86574,1,0,1:2:0:0:
229,202,86649,2,0,P|271:195|334:55,1,190,0|0,1:2|0:2,0:2:0:0:
340,78,87099,1,0,1:2:0:0:
368,287,87249,2,0,P|349:233|346:180,1,95,8|0,0:1|0:2,0:2:0:0:
325,370,87549,2,0,P|283:336|248:302,1,95,0|0,1:2|1:2,0:2:0:0:
472,285,87849,5,0,1:2:0:0:
502,88,87999,1,0,1:2:0:0:
502,88,88149,1,0,1:2:0:0:
430,177,88299,1,2,0:2:0:0:
486,298,88449,1,8,0:1:0:0:
439,157,88599,1,0,1:2:0:0:
310,238,88749,2,0,L|210:248,1,95,2|2,1:2|1:2,0:2:0:0:
65,73,89049,6,0,P|40:183|93:221,1,190,0|0,1:2|1:2,0:2:0:0:
91,220,89499,1,0,1:2:0:0:
254,100,89649,2,0,P|303:94|348:111,2,95,8|0|0,0:1|0:2|0:2,0:2:0:0:
157,137,90099,1,2,1:2:0:0:
242,288,90249,6,0,L|229:211,1,47.5,2|0,1:2|0:2,0:2:0:0:
328,307,90399,2,0,L|315:230,1,47.5,0|0,1:2|0:2,0:2:0:0:
425,314,90549,2,0,L|412:237,1,47.5,2|0,1:2|0:2,0:2:0:0:
511,333,90699,2,0,L|498:256,1,47.5,0|0,1:2|0:2,0:2:0:0:
348,180,90849,6,0,L|296:136,1,47.5,8|0,0:1|0:2,0:2:0:0:
357,73,90999,2,0,L|350:17,1,47.5,2|0,1:2|0:2,0:2:0:0:
455,185,91149,6,0,L|507:141,1,47.5,2|0,1:2|0:2,0:2:0:0:
446,78,91299,2,0,L|453:22,1,47.5,2|0,1:2|0:2,0:2:0:0:
233,113,91449,5,0,1:2:0:0:
233,113,91524,1,2,0:2:0:0:
216,17,91674,1,2,0:2:0:0:
216,17,91749,1,0,1:2:0:0:
219,213,91899,5,2,1:2:0:0:
130,304,92049,2,0,B|175:321|175:321|236:301,1,95,8|0,0:1|0:2,0:2:0:0:
398,222,92349,2,0,B|353:205|353:205|292:225,1,95,0|0,1:2|1:2,0:2:0:0:
350,304,92649,5,2,1:2:0:0:
177,223,92799,1,0,1:2:0:0:
315,136,92949,1,0,1:2:0:0:
263,287,93099,1,2,1:2:0:0:
263,287,93174,1,0,1:2:0:0:
263,287,93249,2,0,L|246:186,1,95,8|0,0:1|0:2,0:2:0:0:
159,87,93549,5,0,1:2:0:0:
352,96,93699,1,8,0:2:0:0:
262,4,93849,6,0,P|253:103|247:198,1,190,0|0,1:2|0:2,0:2:0:0:
262,286,94299,1,2,1:2:0:0:
247,193,94449,1,8,0:1:0:0:
262,286,94599,1,2,1:2:0:0:
170,265,94749,1,0,1:2:0:0:
262,286,94899,1,2,1:2:0:0:
432,210,95049,6,0,L|445:124,1,47.5,2|0,1:2|0:2,0:2:0:0:
419,295,95199,2,0,L|406:381,1,47.5,2|0,1:2|0:2,0:2:0:0:
349,201,95349,6,0,L|362:115,1,47.5,2|0,1:2|0:2,0:2:0:0:
336,286,95499,2,0,L|323:372,1,47.5,2|0,1:2|0:2,0:2:0:0:
222,54,95649,6,0,P|219:96|220:149,1,95,8|0,0:1|0:2,0:2:0:0:
228,224,95874,1,0,0:2:0:0:
228,224,95949,1,0,0:2:0:0:
178,314,96099,2,0,L|181:341,3,23.75,0|0|0|0,0:2|0:2|0:2|0:2,0:2:0:0:
189,290,96249,6,0,P|145:290|81:283,1,95,6|0,1:2|0:2,0:2:0:0:
361,351,96549,2,0,P|408:356|456:356,1,95,2|0,0:2|0:2,0:2:0:0:
319,197,96849,5,8,0:1:0:0:
281,322,96999,1,8,0:2:0:0:
236,98,97149,5,0,1:2:0:0:
238,228,97299,1,8,0:2:0:0:
158,112,97449,6,0,L|141:4,1,95,2|0,1:2|0:2,0:2:0:0:
66,231,97749,2,0,L|49:339,1,95,2|0,0:2|1:2,0:2:0:0:
80,216,97974,1,0,1:2:0:0:
94,204,98049,5,8,0:1:0:0:
178,283,98199,1,8,0:2:0:0:
113,123,98349,5,0,1:2:0:0:
229,122,98499,1,8,0:2:0:0:
340,71,98649,6,0,P|346:122|348:174,1,95,2|0,1:2|0:2,0:2:0:0:
300,347,98949,2,0,P|294:296|292:244,1,95,2|0,0:2|0:2,0:2:0:0:
490,241,99249,2,0,L|396:248,1,95,8|0,0:1|0:2,0:2:0:0:
250,149,99549,2,0,L|249:132,14,11.875,0|0|0|0|0|0|0|0|0|0|0|0|0|0|0,0:2|0:2|0:2|0:2|0:2|0:2|0:2|0:2|0:2|0:2|0:2|0:2|0:2|0:2|0:2,0:2:0:0:
255,157,99849,6,0,P|244:106|247:42,2,95,2|0|0,0:2|1:2|0:2,0:2:0:0:
335,299,100299,1,2,0:2:0:0:
335,299,100374,1,2,0:2:0:0:
335,299,100449,1,8,0:1:0:0:
386,196,100599,1,0,0:2:0:0:
376,198,100674,1,8,0:2:0:0:
210,264,100824,1,8,0:2:0:0:
219,262,100899,1,0,0:2:0:0:
299,230,101049,6,0,B|292:277|292:277|304:345,1,95,2|0,1:2|0:2,0:2:0:0:
391,113,101349,2,0,B|398:66|398:66|386:-2,1,95,2|0,0:2|0:2,0:2:0:0:
191,23,101649,5,8,0:1:0:0:
291,69,101799,1,8,0:2:0:0:
412,196,101949,5,0,1:2:0:0:
312,150,102099,1,8,0:2:0:0:
122,220,102249,6,0,L|171:116,1,95,2|0,1:2|0:2,0:2:0:0:
266,336,102549,2,0,L|167:362,1,95,2|0,0:2|1:2,0:2:0:0:
218,291,102774,1,0,1:2:0:0:
241,313,102849,5,8,0:1:0:0:
265,139,102999,1,8,0:2:0:0:
328,283,103149,5,0,1:2:0:0:
166,187,103299,1,8,0:2:0:0:
337,106,103449,6,0,P|371:121|441:116,1,95,2|0,1:2|0:2,0:2:0:0:
253,60,103674,1,0,0:2:0:0:
253,60,103749,2,0,P|223:72|108:68,1,142.5,2|0,0:2|0:2,0:2:0:0:
89,53,104049,2,0,L|82:161,1,95,8|0,0:1|0:2,0:2:0:0:
158,199,104349,2,0,L|156:177,14,11.875,0|0|0|0|0|0|0|0|0|0|0|0|0|0|0,0:2|0:2|0:2|0:2|0:2|0:2|0:2|0:2|0:2|0:2|0:2|0:2|0:2|0:2|0:2,0:2:0:0:
153,177,104649,6,0,L|140:275,2,95,2|0|2,0:2|1:2|0:2,0:2:0:0:
256,162,105099,1,0,1:2:0:0:
256,162,105174,1,8,0:2:0:0:
256,162,105249,1,8,0:1:0:0:
52,226,105399,1,0,0:2:0:0:
42,227,105474,1,8,0:2:0:0:
218,291,105624,1,8,0:2:0:0:
228,290,105699,2,0,L|288:286,1,47.5,0|0,0:2|0:2,0:2:0:0:
149,204,105849,6,0,P|137:153|127:98,1,95,2|0,1:2|0:2,0:2:0:0:
352,26,106149,2,0,P|343:72|332:118,1,95,2|0,0:2|0:2,0:2:0:0:
133,14,106449,5,8,0:1:0:0:
264,46,106599,1,8,0:2:0:0:
209,265,106749,5,0,1:2:0:0:
241,134,106899,1,8,0:2:0:0:
329,341,107049,6,0,L|308:236,1,95,2|0,1:2|0:2,0:2:0:0:
500,128,107349,2,0,L|479:233,1,95,2|0,0:2|0:2,0:2:0:0:
378,165,107649,5,8,0:1:0:0:
415,34,107799,1,8,0:2:0:0:
413,297,107949,5,0,1:2:0:0:
378,165,108099,1,8,0:2:0:0:
187,202,108249,6,0,B|140:221|140:221|88:213,1,95,2|0,1:2|0:2,0:2:0:0:
223,83,108549,2,0,B|270:64|270:64|322:72,1,95,2|0,0:2|0:2,0:2:0:0:
276,262,108849,2,0,L|279:159,1,95,8|0,0:1|0:2,0:2:0:0:
193,326,109149,2,0,L|194:343,14,11.875,0|0|0|0|0|0|0|0|0|0|0|0|0|0|0,0:2|0:2|0:2|0:2|0:2|0:2|0:2|0:2|0:2|0:2|0:2|0:2|0:2|0:2|0:2,0:2:0:0:
203,347,109449,6,0,P|158:333|102:323,1,95,2|0,1:2|0:2,0:2:0:0:
15,188,109749,2,0,P|59:174|116:164,1,95,2|0,1:2|1:2,0:2:0:0:
191,164,109974,1,8,0:2:0:0:
191,164,110049,1,8,0:1:0:0:
158,255,110199,1,8,1:2:0:0:
157,246,110274,1,8,0:2:0:0:
155,237,110349,1,8,1:2:0:0:
138,81,110499,1,8,0:2:0:0:
283,145,110649,6,0,L|385:125,1,95,2|0,1:2|0:2,0:2:0:0:
337,332,110949,2,0,L|243:313,1,95,2|0,0:2|0:2,0:2:0:0:
430,213,111249,5,8,1:1:0:0:
346,232,111399,1,8,0:2:0:0:
481,328,111549,5,0,1:2:0:0:
410,293,111699,1,8,0:2:0:0:
477,75,111849,6,0,P|438:51|386:2,1,95,2|0,1:2|0:2,0:2:0:0:
250,141,112149,2,0,P|260:96|262:25,1,95,2|0,0:2|1:2,0:2:0:0:
206,111,112374,1,0,1:2:0:0:
227,130,112449,5,8,0:2:0:0:
264,322,112599,1,8,0:2:0:0:
142,189,112749,5,0,0:2:0:0:
345,212,112899,1,8,0:2:0:0:
150,301,113049,5,2,1:2:0:0:
150,301,113124,2,0,P|105:284|41:294,1,95,2|0,1:2|0:2,0:2:0:0:
222,242,113349,1,2,0:2:0:0:
222,242,113424,2,0,P|213:194|225:134,1,95,0|0,1:2|0:2,0:2:0:0:
301,290,113649,2,0,L|293:392,1,95,8|0,0:1|0:2,0:2:0:0:
380,255,113949,2,0,L|378:235,14,11.875,0|0|0|0|0|0|0|0|0|0|0|0|0|0|0,0:2|0:2|0:2|0:2|0:2|0:2|0:2|0:2|0:2|0:2|0:2|0:2|0:2|0:2|0:2,0:2:0:0:
390,272,114249,5,2,1:2:0:0:
283,93,114399,1,0,1:2:0:0:
465,154,114549,1,2,1:2:0:0:
243,207,114699,1,0,1:2:0:0:
248,0,114849,5,8,0:1:0:0:
374,196,114999,1,0,1:2:0:0:
366,174,115074,1,8,1:2:0:0:
362,151,115149,1,0,1:2:0:0:
366,128,115224,1,8,1:2:0:0:
374,106,115299,1,8,1:2:0:0:
373,83,115374,1,0,1:2:0:0:
368,60,115449,1,4,1:2:0:0:
120,335,115749,6,0,B|137:248|104:268|122:183,1,152,10|0,0:3|0:2,0:2:0:0:
39,289,116199,1,2,1:2:0:0:
234,211,116349,1,8,0:2:0:0:
146,181,116499,1,2,0:2:0:0:
140,208,116574,1,0,0:2:0:0:
145,236,116649,2,0,P|150:276|153:335,1,76,0|0,1:2|0:2,0:2:0:0:
285,136,116949,6,0,P|280:96|277:37,1,76,10|0,0:3|0:2,0:2:0:0:
275,37,117174,1,0,1:2:0:0:
277,14,117249,1,4,1:2:0:0:
369,85,117399,1,8,0:2:0:0:
186,206,117549,1,0,0:2:0:0:
279,292,117699,1,8,0:2:0:0:
285,136,117849,6,0,L|281:237,1,76,4|0,1:3|0:2,0:2:0:0:
190,305,118149,1,10,0:3:0:0:
374,298,118299,2,0,L|473:301,1,76,4|0,1:3|0:2,0:2:0:0:
279,292,118599,1,10,0:2:0:0:
171,226,118749,6,0,L|154:224,14,9.5,0|0|0|0|0|0|0|0|0|0|0|0|0|0|0,0:2|0:2|0:2|0:2|0:2|0:2|0:2|0:2|0:2|0:2|0:2|0:2|0:2|0:2|0:2,0:2:0:0:
145,210,119049,1,8,0:2:0:0:
148,322,119199,1,0,1:2:0:0:
260,319,119349,1,10,0:3:0:0:
257,207,119499,1,2,0:2:0:0:
244,225,119574,1,2,0:2:0:0:
231,243,119649,1,8,0:2:0:0:
180,120,119799,1,8,0:2:0:0:
202,123,119874,1,8,0:2:0:0:
224,126,119949,1,8,0:2:0:0:
168,196,120099,1,8,0:2:0:0:
8,154,120249,6,0,P|13:114|16:55,1,76,0|0,1:3|0:2,0:2:0:0:
177,304,120549,2,0,P|179:341|184:379,1,76,10|2,0:3|0:2,0:2:0:0:
93,144,120849,1,2,0:2:0:0:
98,306,120999,1,0,1:2:0:0:
184,220,121149,1,10,0:2:0:0:
9,232,121299,1,8,0:2:0:0:
96,224,121449,5,2,0:2:0:0:
335,161,121749,1,10,0:3:0:0:
254,131,121899,1,0,1:2:0:0:
246,152,121974,1,0,1:2:0:0:
249,174,122049,1,10,0:2:0:0:
415,167,122199,2,0,P|455:172|514:175,1,76,0|0,1:2|1:2,0:2:0:0:
336,75,122499,5,2,0:2:0:0:
336,75,122574,1,2,0:2:0:0:
336,75,122649,2,0,L|340:122,1,38,0|0,1:2|0:2,0:2:0:0:
330,294,122799,2,0,L|334:247,1,38,8|0,0:2|0:2,0:2:0:0:
429,70,122949,5,10,1:3:0:0:
277,153,123099,1,8,0:2:0:0:
414,193,123249,2,0,L|246:169,1,152,4|0,1:3|0:2,0:2:0:0:
178,156,123699,1,8,0:2:0:0:
422,283,123849,2,0,L|246:293,1,152,4|0,1:3|0:3,0:2:0:0:
441,364,124299,2,0,L|365:381,1,76,4|0,1:3|0:2,0:2:0:0:
189,319,124599,5,8,0:2:0:0:
181,296,124674,1,8,0:2:0:0:
185,273,124749,1,8,0:2:0:0:
270,291,124899,1,8,0:2:0:0:
214,82,125049,6,0,P|216:41|223:-16,1,76,0|0,1:2|0:2,0:2:0:0:
329,159,125349,2,0,B|242:153|268:184|156:170,1,152,10|0,0:3|0:2,0:2:0:0:
94,171,125799,1,0,0:2:0:0:
214,82,125949,1,10,0:0:0:0:
31,103,126099,1,8,0:2:0:0:
122,0,126249,1,2,1:2:0:0:
157,316,126549,6,0,P|151:279|151:233,1,76,10|0,0:3|1:2,0:2:0:0:
154,218,126774,1,0,1:2:0:0:
160,196,126849,1,0,1:2:0:0:
74,341,126999,1,8,0:2:0:0:
238,257,127149,1,2,1:2:0:0:
73,183,127299,1,8,0:2:0:0:
262,332,127449,6,0,P|235:261|254:189,1,152,4|10,1:3|0:3,0:2:0:0:
357,345,127899,2,0,P|359:309|380:247,1,76,4|0,1:3|0:2,0:2:0:0:
435,384,128199,1,10,0:2:0:0:
369,182,128349,6,0,L|370:170,14,9.5,0|0|0|0|0|0|0|0|0|0|0|0|0|0|0,1:2|1:2|1:2|1:2|1:2|1:2|1:2|1:2|1:2|1:2|1:2|1:2|1:2|1:2|1:2,1:2:0:0:
374,192,128649,1,0,1:2:0:0:
241,64,128799,1,0,1:2:0:0:
424,73,128949,1,10,1:3:0:0:
258,165,129099,1,2,0:2:0:0:
253,188,129174,1,2,0:2:0:0:
248,211,129249,1,8,0:2:0:0:
345,118,129399,1,8,0:2:0:0:
340,95,129474,1,8,0:2:0:0:
335,72,129549,1,8,0:2:0:0:
389,0,129699,1,10,0:2:0:0:
103,183,129849,22,0,P|63:178|4:175,1,76,0|0,1:2|0:2,0:2:0:0:
188,7,130149,2,0,P|229:12|287:15,1,76,10|0,0:3|0:2,0:2:0:0:
346,62,130449,1,2,0:2:0:0:
205,179,130599,1,2,1:2:0:0:
155,94,130749,2,0,B|59:64|97:109|-6:79,1,152,10|2,0:2|1:2,0:2:0:0:
245,91,131199,1,2,1:2:0:0:
323,243,131349,6,0,P|316:203|310:157,1,76,10|0,0:3|0:2,0:2:0:0:
495,259,131649,2,0,P|502:298|508:345,1,76,10|0,0:2|0:2,0:2:0:0:
282,325,131949,1,10,0:0:0:0:
412,304,132099,1,2,0:2:0:0:
393,318,132174,1,2,0:2:0:0:
379,336,132249,1,0,1:2:0:0:
408,218,132399,1,8,0:2:0:0:
298,145,132549,2,0,P|303:185|306:244,1,76,10|8,1:3|0:2,0:2:0:0:
62,323,132849,6,0,L|77:152,1,152,4|0,1:3|0:2,0:2:0:0:
139,83,133299,1,10,0:2:0:0:
154,305,133449,2,0,L|201:145,1,152,4|0,1:3|0:3,0:2:0:0:
235,351,133899,2,0,L|286:261,1,76,4|0,1:3|0:2,0:2:0:0:
371,234,134199,1,8,0:2:0:0:
368,256,134274,1,8,0:2:0:0:
365,278,134349,1,10,0:2:0:0:
287,195,134499,1,10,0:2:0:0:
436,48,134649,6,0,P|474:49|512:54,1,76,0|0,1:2|0:2,0:2:0:0:
512,166,134949,2,0,P|451:151|353:137,1,152,10|0,0:3|0:2,0:2:0:0:
223,166,135399,1,0,1:2:0:0:
365,40,135549,1,8,0:2:0:0:
363,213,135699,1,8,0:2:0:0:
238,76,135849,2,0,P|200:71|162:70,1,76,0|0,1:2|0:2,0:2:0:0:
302,131,136149,1,10,0:3:0:0:
85,233,136299,5,0,1:2:0:0:
85,233,136374,1,0,1:2:0:0:
85,233,136449,2,0,P|50:211|9:182,1,76,0|8,1:2|0:2,0:2:0:0:
159,228,136749,2,0,P|192:209|223:187,1,76,0|8,1:2|0:2,0:2:0:0:
127,301,137049,6,0,L|123:149,1,152,4|10,1:3|0:3,0:2:0:0:
240,336,137499,2,0,L|249:248,1,76,4|0,1:3|0:2,0:2:0:0:
338,371,137799,1,10,0:2:0:0:
344,155,137949,6,0,L|346:145,14,9.5,0|0|0|0|0|0|0|0|0|0|0|0|0|0|0,1:2|1:2|1:2|1:2|1:2|1:2|1:2|1:2|1:2|1:2|1:2|1:2|1:2|1:2|1:2,1:2:0:0:
357,172,138249,2,0,L|351:90,2,76,0|0|10,1:2|1:2|1:3,0:2:0:0:
439,219,138699,1,2,0:2:0:0:
433,241,138774,1,2,0:2:0:0:
427,263,138849,1,8,0:2:0:0:
428,126,138999,1,8,0:2:0:0:
434,104,139074,1,8,0:2:0:0:
440,82,139149,1,8,0:2:0:0:
401,0,139299,1,8,0:2:0:0:
179,48,139449,6,0,P|181:88|186:127,1,76,0|0,1:2|0:2,0:2:0:0:
130,320,139749,2,0,P|123:280|118:237,1,76,10|2,0:3|0:2,0:2:0:0:
0,261,140049,1,2,1:2:0:0:
82,126,140199,1,0,1:2:0:0:
196,205,140349,2,0,B|283:192|259:220|358:209,1,152,10|0,0:2|1:2,0:2:0:0:
377,133,140799,5,2,1:2:0:0:
346,210,140949,1,10,0:3:0:0:
503,227,141099,1,0,1:2:0:0:
430,287,141249,2,0,P|420:242|415:191,1,76,8|0,0:2|0:2,0:2:0:0:
355,303,141549,1,8,0:2:0:0:
377,133,141699,1,0,1:2:0:0:
414,125,141774,1,0,1:2:0:0:
450,134,141849,1,0,0:2:0:0:
417,213,141999,1,8,0:2:0:0:
268,125,142149,6,0,P|271:81|277:37,1,76,10|8,1:3|0:2,0:2:0:0:
147,197,142449,2,0,L|160:354,1,152,4|0,1:3|0:2,0:2:0:0:
282,232,142899,1,8,0:2:0:0:
29,114,143049,2,0,L|54:266,1,152,4|0,1:3|0:3,0:2:0:0:
117,44,143499,2,0,L|161:109,1,76,4|0,1:3|0:2,0:2:0:0:
279,48,143799,1,8,0:2:0:0:
256,45,143874,1,8,0:2:0:0:
233,42,143949,1,10,0:2:0:0:
364,0,144099,1,10,0:2:0:0:
259,147,144249,6,0,P|323:135|364:132,1,76,0|0,1:2|0:2,0:2:0:0:
481,167,144549,2,0,P|390:141|320:132,1,152,10|0,0:3|0:2,0:2:0:0:
323,346,144999,1,2,1:2:0:0:
296,218,145149,1,10,0:2:0:0:
381,278,145299,1,10,0:2:0:0:
235,293,145449,2,0,P|185:290|139:284,1,76,0|0,1:2|0:2,0:2:0:0:
0,256,145749,6,0,P|49:258|96:265,1,76,10|0,0:3|0:2,0:2:0:0:
97,267,145974,1,0,1:2:0:0:
118,275,146049,1,6,1:2:0:0:
35,347,146199,1,8,0:2:0:0:
56,171,146349,1,2,1:2:0:0:
0,256,146499,1,10,0:2:0:0:
80,27,146649,6,0,L|-16:11,1,76,4|0,1:3|0:2,0:2:0:0:
146,115,146949,1,10,0:3:0:0:
233,239,147099,2,0,L|242:86,1,152,4|0,1:3|0:2,0:2:0:0:
326,26,147549,2,0,L|322:37,14,9.5,0|0|0|0|0|0|0|0|0|0|0|0|0|0|0,0:2|0:2|0:2|0:2|0:2|0:2|0:2|0:2|0:2|0:2|0:2|0:2|0:2|0:2|0:2,0:2:0:0:
317,17,147849,5,0,1:2:0:0:
420,64,147999,1,0,1:2:0:0:
318,129,148149,1,10,1:3:0:0:
428,190,148299,1,0,0:2:0:0:
450,194,148374,1,0,0:2:0:0:
472,198,148449,1,8,0:2:0:0:
367,261,148599,1,8,0:2:0:0:
345,257,148674,1,8,0:2:0:0:
323,253,148749,1,8,0:2:0:0:
441,314,148899,1,8,0:2:0:0:
230,300,149049,5,2,1:2:0:0:
230,300,149349,2,0,B|203:215|247:229|225:138,1,152,10|0,0:3|0:2,0:2:0:0:
71,29,149799,1,10,0:2:0:0:
139,183,149949,1,2,1:2:0:0:
206,63,150099,1,8,0:2:0:0:
22,115,150249,1,2,1:2:0:0:
359,62,150549,6,0,P|363:107|361:142,1,76,10|0,0:3|0:2,0:2:0:0:
351,310,150849,1,0,1:2:0:0:
265,151,150999,1,0,1:2:0:0:
409,212,151149,1,10,0:2:0:0:
214,246,151299,1,8,0:2:0:0:
236,247,151374,1,8,0:2:0:0:
258,249,151449,1,10,0:2:0:0:
132,294,151599,1,8,0:2:0:0:
114,180,151749,5,10,0:3:0:0:
68,364,151899,1,8,0:2:0:0:
7,183,152049,2,0,L|36:27,1,152,4|0,1:3|0:2,0:2:0:0:
104,266,152499,1,10,0:2:0:0:
297,94,152649,2,0,L|213:257,1,152,4|0,1:3|0:2,0:2:0:0:
166,16,153099,2,0,L|144:115,1,76,4|0,1:3|0:2,0:2:0:0:
83,253,153399,6,0,P|86:281|91:316,1,38,10|0,0:2|0:2,0:2:0:0:
155,197,153549,1,2,1:2:0:0:
124,184,153624,1,8,0:2:0:0:
91,177,153699,1,2,1:2:0:0:
57,177,153774,1,8,0:2:0:0:
23,183,153849,1,2,1:2:0:0:
284,81,154149,6,0,L|253:234,1,152,10|0,0:3|0:2,0:2:0:0:
280,315,154599,1,8,0:2:0:0:
192,296,154749,2,0,P|153:290|113:289,1,76,0|8,1:2|0:2,0:2:0:0:
340,250,155049,2,0,P|379:256|419:257,1,76,0|0,1:2|0:2,0:2:0:0:
170,189,155349,5,10,0:3:0:0:
253,229,155499,1,0,0:2:0:0:
262,197,155574,1,0,0:2:0:0:
258,163,155649,1,8,0:2:0:0:
81,186,155799,1,0,0:2:0:0:
173,93,155949,1,0,1:2:0:0:
169,280,156099,1,8,0:2:0:0:
284,81,156249,6,0,L|300:-11,1,76,0|0,1:2|0:2,0:2:0:0:
284,81,156549,2,0,L|293:236,1,152,10|0,0:3|0:2,0:2:0:0:
340,308,156999,1,8,0:2:0:0:
250,312,157149,2,0,P|210:316|171:325,1,76,0|8,1:2|0:2,0:2:0:0:
381,229,157449,2,0,P|420:224|459:215,1,76,0|0,1:2|0:2,0:2:0:0:
203,215,157749,5,10,0:3:0:0:
293,232,157899,1,0,1:2:0:0:
293,198,157974,1,0,1:2:0:0:
281,167,158049,1,8,0:2:0:0:
116,235,158199,1,0,0:2:0:0:
180,122,158349,1,0,1:2:0:0:
224,303,158499,1,8,0:2:0:0:
285,83,158649,6,0,L|276:-10,1,76,0|0,1:2|0:2,0:2:0:0:
285,83,158949,2,0,L|334:231,1,152,10|0,0:3|0:2,0:2:0:0:
397,287,159399,1,8,0:2:0:0:
311,314,159549,2,0,P|274:328|239:347,1,76,0|8,1:2|0:2,0:2:0:0:
195,83,159849,6,0,L|162:-4,1,76,0|0,1:2|0:2,0:2:0:0:
195,83,160149,2,0,L|281:213,1,152,10|0,0:3|0:2,0:2:0:0:
355,251,160599,1,8,0:2:0:0:
279,299,160749,2,0,P|247:322|218:349,1,76,0|8,1:2|0:2,0:2:0:0:
107,110,161049,6,0,L|53:33,1,76,0|0,1:2|0:2,0:2:0:0:
107,110,161349,2,0,L|224:213,1,152,10|0,0:3|0:2,0:2:0:0:
300,231,161799,1,8,0:2:0:0:
239,297,161949,2,0,P|214:327|193:361,1,76,0|8,1:2|0:2,0:2:0:0:
63,180,162249,6,0,B|37:150|37:150|-8:120,1,76,0|0,1:2|0:2,0:2:0:0:
63,180,162549,2,0,B|124:224|124:224|202:249,1,152,10|0,0:3|0:2,0:2:0:0:
285,244,162999,1,8,0:2:0:0:
245,318,163149,2,0,B|227:350|231:362|209:396,1,76,0|8,1:2|0:2,0:2:0:0:
285,83,163449,6,0,L|276:-10,1,76,0|0,1:2|0:2,0:2:0:0:
195,83,163749,6,0,L|162:-4,1,76,0|0,1:2|0:2,0:2:0:0:
107,110,164049,6,0,L|53:33,1,76,0|0,1:2|0:2,0:2:0:0:
63,180,164349,6,0,L|-8:120,1,76,0|0,1:2|0:2,0:2:0:0:
226,202,164649,6,0,L|235:295,1,76,0|0,1:2|0:2,0:2:0:0:
316,202,164949,6,0,L|343:274,1,76,0|0,1:2|0:2,0:2:0:0:
404,175,165248,6,0,L|448:238,1,76,0|0,1:2|0:2,0:2:0:0:
448,105,165549,6,0,L|507:155,1,76,0|0,1:2|0:2,0:2:0:0:
346,289,165849,5,0,1:2:0:0:
229,236,165999,1,0,1:2:0:0:
315,187,166149,1,0,1:2:0:0:
260,338,166299,1,0,1:2:0:0:
360,264,166449,5,0,1:2:0:0:
234,243,166599,1,0,1:2:0:0:
304,173,166749,1,0,1:2:0:0:
290,333,166899,1,0,1:2:0:0:
368,236,167049,5,0,1:2:0:0:
240,248,167199,1,0,1:2:0:0:
290,163,167349,1,0,1:2:0:0:
318,321,167499,1,0,1:2:0:0:
366,208,167649,5,0,1:2:0:0:
245,253,167799,1,0,1:2:0:0:
271,157,167949,1,0,1:2:0:0:
339,303,168099,1,0,1:2:0:0:
255,155,168249,5,0,1:2:0:0:
230,136,168324,1,0,1:0:0:0:
199,137,168399,1,0,1:0:0:0:
175,155,168474,1,0,1:0:0:0:
174,185,168549,1,0,1:0:0:0:
189,210,168624,1,0,1:0:0:0:
218,217,168699,1,0,1:0:0:0:
248,213,168774,1,0,1:0:0:0:
274,197,168849,1,0,1:0:0:0:
304,193,168924,1,0,1:0:0:0:
333,200,168999,1,0,1:0:0:0:
348,225,169074,1,0,1:0:0:0:
347,255,169149,1,0,1:0:0:0:
323,273,169224,1,0,1:0:0:0:
292,274,169299,1,0,1:0:0:0:
267,255,169374,1,0,1:2:0:0:
257,226,169449,1,0,1:2:0:0:
262,195,169524,1,0,1:0:0:0:
284,174,169599,1,0,1:0:0:0:
314,170,169674,1,0,1:0:0:0:
336,190,169749,1,0,1:0:0:0:
343,218,169824,1,0,1:0:0:0:
327,244,169899,1,0,1:0:0:0:
303,262,169974,1,0,1:0:0:0:
277,277,170049,1,0,1:2:0:0:
258,302,170124,1,0,1:0:0:0:
259,333,170199,1,0,1:0:0:0:
277,357,170274,1,0,1:0:0:0:
307,358,170349,1,0,1:0:0:0:
332,343,170424,1,0,1:0:0:0:
339,314,170499,1,0,1:0:0:0:
335,284,170574,1,0,1:0:0:0:
330,253,170649,6,0,L|326:221,6,19,0|0|0|0|0|0|0,1:2|1:2|1:2|1:2|1:2|1:2|1:2,1:2:0:0:
250,224,170949,2,0,L|246:192,6,19,0|0|0|0|0|0|0,1:2|1:2|1:2|1:2|1:2|1:2|1:2,1:2:0:0:
264,300,171249,2,0,L|268:332,6,19,0|0|0|0|0|0|0,1:2|1:2|1:2|1:2|1:2|1:2|1:2,1:2:0:0:
170,231,171549,2,0,L|166:199,6,19,0|0|0|0|0|0|0,1:2|1:2|1:2|1:2|1:2|1:2|1:2,1:2:0:0:
184,307,171849,2,0,L|188:339,6,19,0|0|0|0|0|0|0,1:2|1:2|1:2|1:2|1:2|1:2|1:2,1:2:0:0:
114,282,172149,6,0,L|99:285,16,9.5,0|0|0|0|0|0|0|0|0|0|0|0|0|0|0|0|0,1:2|1:2|1:2|1:2|1:2|1:2|1:2|1:2|1:2|1:2|1:2|1:2|1:2|1:2|1:2|1:2|1:2,1:2:0:0:
356,27,173049,6,0,B|375:106|375:106|361:206,1,170.999994781494,2|0,0:0|0:0,0:0:0:0:
359,218,173349,1,8,0:0:0:0:
258,63,173499,2,0,B|203:45|203:45|126:69,1,113.999996520996,2|0,0:0|0:0,0:0:0:0:
150,326,173799,1,10,0:3:0:0:
241,208,173949,2,0,L|247:281,1,56.9999982604981
139,210,174099,2,0,L|132:136,1,56.9999982604981
480,228,174249,6,0,L|350:219,2,113.999996520996,2|0|0,0:3|0:0|0:0,0:0:0:0:
318,152,174699,1,10,0:3:0:0:
343,221,174774,1,8,0:0:0:0:
318,291,174849,1,8,0:0:0:0:
293,38,174999,1,8,0:0:0:0:
249,222,175149,1,0,0:0:0:0:
408,144,175299,1,2,0:3:0:0:
94,139,175449,6,0,B|173:153|173:153|233:125|233:125|328:138,1,227.999993041992,2|8,0:0|0:0,0:0:0:0:
152,54,175899,1,2,0:0:0:0:
249,222,176049,5,2,0:2:0:0:
140,249,176199,1,8,0:0:0:0:
173,347,176349,1,0,0:0:0:0:
282,322,176499,1,2,0:2:0:0:
444,34,176799,5,2,0:3:0:0:
452,159,176949,1,8,0:0:0:0:
454,195,177024,1,2,0:2:0:0:
454,228,177099,2,0,L|387:197,1,56.9999982604981,8|0,0:0|0:0,0:0:0:0:
321,269,177249,1,2,0:3:0:0:
239,115,177399,1,8,0:0:0:0:
234,188,177474,1,8,0:0:0:0:
228,261,177549,2,0,L|222:357,1,56.9999982604981,8|0,0:0|0:0,0:0:0:0:
328,109,177699,2,0,L|334:13,1,56.9999982604981,8|0,0:0|0:0,0:0:0:0:
245,14,177849,5,2,0:3:0:0:
423,107,177999,1,2,0:2:0:0:
234,188,178149,1,8,0:0:0:0:
328,109,178299,1,0,0:0:0:0:
347,205,178449,5,2,0:3:0:0:
213,94,178599,1,8,0:2:0:0:
360,14,178749,2,0,B|416:0|416:0|475:14,1,113.999996520996
41,152,179049,6,0,L|53:86,1,56.9999982604981,2|0,0:0|0:0,0:0:0:0:
234,204,179199,2,0,L|221:269,1,56.9999982604981
117,309,179349,2,0,L|128:179,1,113.999996520996,8|10,0:0|0:0,0:0:0:0:
133,121,179574,1,8,0:0:0:0:
140,47,179649,1,8,0:0:0:0:
375,102,179799,1,10,0:0:0:0:
218,89,179949,2,0,L|279:94,1,56.9999982604981,2|0,0:3|0:0,0:0:0:0:
342,205,180099,5,2,0:0:0:0:
342,205,180174,1,0,0:0:0:0:
342,205,180249,2,0,B|317:147|317:147|333:33,1,170.999994781494,2|0,0:0|0:0,0:0:0:0:
338,0,180549,1,8,0:0:0:0:
446,182,180699,2,0,L|438:321,1,113.999996520996,2|0,0:0|0:0,0:0:0:0:
436,335,180924,1,0,0:0:0:0:
434,374,180999,1,10,0:0:0:0:
248,228,181149,2,0,L|309:328,1,113.999996520996,0|2,0:0|0:0,0:0:0:0:
347,171,181449,6,0,L|340:92,1,56.9999982604981,2|0,0:3|0:0,0:0:0:0:
142,17,181599,2,0,L|147:86,1,56.9999982604981,2|0,0:2|0:0,0:0:0:0:
140,165,181749,6,0,L|218:158,1,56.9999982604981,10|0,0:3|0:0,0:0:0:0:
336,16,181899,2,0,L|266:21,1,56.9999982604981,2|0,0:2|0:0,0:0:0:0:
246,97,182049,1,2,0:3:0:0:
211,292,182199,5,8,0:3:0:0:
255,327,182274,1,2,0:3:0:0:
310,339,182349,1,8,0:3:0:0:
366,330,182424,1,2,0:3:0:0:
408,292,182499,1,8,0:3:0:0:
246,97,182649,54,0,B|306:112|306:112|336:141|336:141|406:158,1,170.999994781494,8|0,0:0|0:0,0:0:0:0:
412,140,182949,1,8,0:0:0:0:
318,297,183099,2,0,L|324:234,1,56.9999982604981
504,173,183249,1,0,0:0:0:0:
504,173,183324,1,0,0:0:0:0:
504,173,183399,2,0,L|497:237,1,56.9999982604981,8|0,0:0|0:0,0:0:0:0:
312,215,183549,1,0,0:0:0:0:
430,346,183699,1,0,0:0:0:0:
210,252,183849,6,0,L|87:259,2,113.999996520996,0|2|8,0:0|0:2|0:0,0:0:0:0:
73,185,184299,1,8,0:0:0:0:
67,258,184374,1,8,0:0:0:0:
61,331,184449,1,8,0:0:0:0:
199,164,184599,2,0,L|187:42,1,113.999996520996,10|0,0:0|0:0,0:0:0:0:
210,252,184899,1,2,0:0:0:0:
480,81,185049,6,0,B|435:50|435:50|277:99,1,170.999994781494,2|0,0:0|0:0,0:0:0:0:
289,96,185349,1,8,0:0:0:0:
470,291,185499,2,0,L|512:328,1,56.9999982604981,2|0,0:0|0:0,0:0:0:0:
401,197,185649,2,0,L|412:141,1,56.9999982604981,0|0,0:0|0:0,0:0:0:0:
357,300,185799,1,10,0:0:0:0:
210,194,185949,6,0,L|204:161,6,28.4999991302491,0|0|0|0|2|0|0,0:0|0:0|0:0|0:0|0:0|0:0|0:0,0:0:0:0:
215,219,186249,1,2,0:0:0:0:
309,46,186399,2,0,L|276:104,1,56.9999982604981
63,92,186549,2,0,L|121:125,1,56.9999982604981,8|0,0:0|0:0,0:0:0:0:
231,293,186699,1,10,0:0:0:0:
215,219,186774,1,8,0:0:0:0:
198,146,186849,1,8,0:0:0:0:
331,310,186999,1,10,0:0:0:0:
345,255,187074,1,8,0:0:0:0:
360,200,187149,1,8,0:0:0:0:
419,360,187299,2,0,L|464:317,1,56.9999982604981,10|0,0:0|0:0,0:0:0:0:
145,345,187449,6,0,B|72:226|72:226|127:157,1,227.999993041992,2|8,0:0|0:0,0:0:0:0:
231,293,187899,2,0,B|250:237|250:237|322:200,1,113.999996520996,2|0,0:0|0:0,0:0:0:0:
356,331,188199,2,0,L|291:277,1,56.9999982604981,10|0,0:0|0:0,0:0:0:0:
172,219,188349,2,0,L|159:253,6,28.4999991302491,0|0|0|0|2|0|0,0:0|0:0|0:0|0:0|0:0|0:0|0:0,0:0:0:0:
281,131,188649,6,0,L|315:18,2,113.999996520996,2|0|8,0:0|0:0|0:0,0:0:0:0:
480,226,189099,1,8,0:0:0:0:
405,228,189174,1,8,0:0:0:0:
330,231,189249,1,8,0:0:0:0:
505,124,189399,1,8,0:0:0:0:
442,313,189549,1,2,0:3:0:0:
373,131,189699,1,0,0:0:0:0:
243,246,189849,5,0,0:0:0:0:
182,150,189999,1,0,0:0:0:0:
86,211,190149,1,8,0:0:0:0:
147,307,190299,1,0,0:0:0:0:
348,292,190449,5,0,0:0:0:0:
327,375,190599,1,8,0:0:0:0:
462,293,190749,5,0,0:0:0:0:
478,366,190899,1,2,0:2:0:0:
429,154,191049,5,2,2:3:0:0:
418,108,191199,1,2,2:0:0:0:
377,108,191349,1,2,2:0:0:0:
388,154,191499,1,2,2:0:0:0:
488,60,191649,6,0,L|476:25,1,35.625001358986,2|0,2:0|2:0,2:0:0:0:
493,74,191799,2,0,L|504:108,1,35.625001358986,2|0,2:0|2:0,2:0:0:0:
299,92,191949,6,0,L|300:55,1,35.625001358986,2|0,2:0|2:0,2:0:0:0:
299,107,192099,2,0,L|297:143,1,35.625001358986,2|0,2:0|2:0,2:0:0:0:
126,55,192249,5,2,0:1:0:0:
181,225,192399,1,2,0:2:0:0:
181,225,192474,1,2,0:2:0:0:
181,225,192549,1,8,0:0:0:0:
48,132,192699,1,2,0:0:0:0:
115,316,192849,1,2,0:2:0:0:
115,316,192924,1,2,0:2:0:0:
115,316,192999,1,8,0:0:0:0:
463,181,193149,6,0,P|379:189|270:249,1,170.999994781494,2|0,0:3|0:0,0:0:0:0:
203,116,193449,2,0,P|228:134|251:176,1,56.9999982604981,2|0,0:2|0:0,0:0:0:0:
356,45,193599,2,0,P|343:73|344:120,1,56.9999982604981,2|0,0:2|0:0,0:0:0:0:
293,281,193749,6,0,L|305:194,1,56.9999982604981,8|0,0:0|0:0,0:0:0:0:
470,124,193899,2,0,L|458:211,1,56.9999982604981,8|0,0:0|0:0,0:0:0:0:
374,321,194049,1,0,0:0:0:0:
405,287,194124,1,2,0:2:0:0:
405,241,194199,1,8,0:0:0:0:
377,205,194274,1,0,0:0:0:0:
349,169,194349,1,0,0:2:0:0:
349,123,194424,1,2,0:2:0:0:
380,89,194499,1,0,0:0:0:0:
158,89,194649,5,0,0:0:0:0:
202,102,194724,1,0,0:0:0:0:
233,135,194799,1,2,0:2:0:0:
247,178,194874,1,2,0:2:0:0:
244,223,194949,2,0,L|240:288,1,56.9999982604981,10|0,0:3|0:0,0:0:0:0:
158,89,195099,2,0,L|162:24,1,56.9999982604981,0|0,0:1|0:0,0:0:0:0:
75,151,195249,5,2,0:2:0:0:
113,175,195324,1,2,0:2:0:0:
158,181,195399,1,8,0:1:0:0:
202,171,195474,1,0,0:0:0:0:
242,150,195549,1,2,0:2:0:0:
287,139,195624,1,2,0:2:0:0:
327,156,195699,1,0,0:0:0:0:
414,346,195849,6,0,B|395:284|395:284|429:130,1,170.999994781494,2|0,0:0|0:0,0:0:0:0:
405,136,196149,1,8,0:0:0:0:
308,329,196299,2,0,L|307:256,3,56.9999982604981,10|0|0|0,0:0|0:0|0:0|0:0,0:0:0:0:
222,346,196599,1,10,0:0:0:0:
208,273,196674,1,8,0:0:0:0:
194,200,196749,1,8,0:0:0:0:
147,384,196899,1,10,0:0:0:0:
58,22,197049,6,0,B|78:78|78:78|55:156,1,113.999996520996,2|0,0:0|0:0,0:0:0:0:
28,202,197274,1,2,0:3:0:0:
70,269,197349,2,0,P|102:275|145:265,1,56.9999982604981,10|0,0:3|0:0,0:0:0:0:
237,71,197499,1,2,0:2:0:0:
384,178,197649,5,2,0:2:0:0:
358,216,197724,1,2,0:2:0:0:
315,234,197799,1,8,0:2:0:0:
271,221,197874,1,0,0:0:0:0:
244,185,197949,1,0,0:0:0:0:
217,149,198024,1,2,0:2:0:0:
173,136,198099,1,2,0:2:0:0:
130,154,198174,1,2,0:2:0:0:
104,192,198249,2,0,L|108:259,1,56.9999982604981,2|0,0:2|0:0,0:0:0:0:
311,145,198399,2,0,L|307:78,1,56.9999982604981,2|0,0:3|0:0,0:0:0:0:
211,266,198549,5,8,0:0:0:0:
217,25,198699,1,8,0:0:0:0:
207,98,198774,1,8,0:0:0:0:
199,172,198849,1,8,0:0:0:0:
181,363,198999,1,8,0:0:0:0:
221,192,199149,2,0,L|212:79,1,113.999996520996,2|0,0:2|0:0,0:0:0:0:
116,104,199449,6,0,P|60:106|2:99,1,113.999996520996,2|0,0:3|0:0,0:0:0:0:
260,14,199749,1,8,0:0:0:0:
364,205,199899,2,0,P|420:207|478:200,1,113.999996520996,2|0,0:3|0:0,0:0:0:0:
171,313,200199,2,0,P|115:315|57:308,1,113.999996520996,10|0,0:3|0:0,0:0:0:0:
14,324,200424,1,2,0:2:0:0:
35,284,200499,1,2,0:2:0:0:
35,238,200574,1,2,0:2:0:0:
16,196,200649,5,2,0:0:0:0:
204,180,200799,1,0,0:0:0:0:
51,69,200949,1,8,0:0:0:0:
240,50,201099,1,10,0:0:0:0:
182,96,201174,1,8,0:0:0:0:
125,143,201249,1,8,0:0:0:0:
317,136,201399,1,10,0:0:0:0:
305,191,201474,1,8,0:0:0:0:
294,246,201549,1,8,0:0:0:0:
459,140,201699,2,0,L|472:202,1,56.9999982604981,10|0,0:0|0:0,0:0:0:0:
362,349,201849,6,0,B|398:268|398:268|382:178,1,170.999994781494,2|0,0:0|0:0,0:0:0:0:
377,145,202149,1,8,0:0:0:0:
219,265,202299,1,0,0:0:0:0:
420,279,202449,1,2,0:2:0:0:
275,144,202599,1,8,0:0:0:0:
322,351,202749,2,0,L|329:223,1,113.999996520996,2|0,0:2|0:0,0:0:0:0:
316,39,202974,1,0,0:0:0:0:
317,23,203049,6,0,B|245:60|245:60|132:34,1,170.999994781494,2|0,0:0|0:0,0:0:0:0:
66,41,203349,2,0,L|81:108,1,56.9999982604981,8|0,0:0|0:0,0:0:0:0:
273,188,203499,2,0,L|246:64,1,113.999996520996,10|0,0:0|0:0,0:0:0:0:
161,157,203799,1,10,0:0:0:0:
356,100,203949,1,0,0:0:0:0:
312,288,204099,2,0,L|297:347,1,56.9999982604981,2|0,0:0|0:0,0:0:0:0:
447,275,204249,5,2,0:3:0:0:
362,198,204399,1,2,0:2:0:0:
248,203,204549,1,10,0:3:0:0:
195,304,204699,2,0,B|165:184|262:206|217:79,1,227.999993041992,2|2,0:0|0:3,0:0:0:0:
63,50,205149,2,0,L|57:79,2,28.4999991302491,0|0|0,1:0|1:0|1:0,1:0:0:0:
139,108,205299,2,0,L|144:136,2,28.4999991302491,0|0|0,1:0|1:0|1:0,1:0:0:0:
283,14,205449,5,2,0:0:0:0:
248,203,205599,1,0,0:0:0:0:
445,168,205749,2,0,L|380:142,1,56.9999982604981,8|0,0:0|0:0,0:0:0:0:
217,84,205899,2,0,B|281:110|281:110|379:68,1,170.999994781494,10|0,0:0|0:0,0:0:0:0:
397,0,206199,1,10,0:0:0:0:
395,73,206274,1,8,0:0:0:0:
393,147,206349,1,8,0:0:0:0:
460,263,206499,1,10,0:0:0:0:
458,308,206574,1,8,0:0:0:0:
454,353,206649,6,0,B|383:321|383:321|313:331|313:331|234:294,1,227.999993041992,2|8,0:0|0:0,0:0:0:0:
267,155,207099,1,2,0:2:0:0:
226,378,207249,2,0,L|230:304,1,56.9999982604981,2|0,0:2|0:0,0:0:0:0:
321,241,207399,2,0,L|317:315,1,56.9999982604981,8|0,0:0|0:0,0:0:0:0:
186,232,207549,2,0,P|157:224|125:232,1,56.9999982604981,2|0,0:2|0:0,0:0:0:0:
49,280,207699,5,0,0:0:0:0:
49,280,207774,1,0,0:0:0:0:
49,280,207849,2,0,B|28:223|28:223|48:158,1,113.999996520996,2|0,0:0|0:0,0:0:0:0:
180,143,208149,1,8,0:0:0:0:
55,84,208299,1,10,0:0:0:0:
83,152,208374,1,8,0:0:0:0:
112,220,208449,1,8,0:0:0:0:
61,57,208599,1,10,0:0:0:0:
176,176,208749,1,0,0:0:0:0:
205,179,208824,1,0,0:0:0:0:
234,181,208899,1,2,0:0:0:0:
263,183,208974,1,0,0:0:0:0:
292,186,209049,6,0,B|255:132|255:132|266:15,1,170.999994781494,2|0,0:0|0:0,0:0:0:0:
270,0,209349,1,8,0:0:0:0:
376,225,209499,2,0,L|491:245,1,113.999996520996,2|0,0:0|0:0,0:0:0:0:
369,20,209799,2,0,L|373:84,1,56.9999982604981,10|0,0:0|0:0,0:0:0:0:
459,139,209949,2,0,L|455:75,1,56.9999982604981,0|0,0:0|0:0,0:0:0:0:
292,149,210099,1,2,0:0:0:0:
192,354,210249,6,0,P|210:356|233:354,1,35.625001358986,2|0,2:0|2:0,2:0:0:0:
305,355,210399,2,0,P|307:337|305:314,1,35.625001358986,2|0,2:0|2:0,2:0:0:0:
313,227,210549,2,0,P|295:229|272:227,1,35.625001358986,2|0,2:0|2:0,2:0:0:0:
200,228,210699,2,0,P|198:210|200:187,1,35.625001358986,2|0,2:0|2:0,2:0:0:0:
384,162,210849,5,2,0:3:0:0:
119,152,210999,1,2,0:2:0:0:
292,51,211149,1,2,0:3:0:0:
277,308,211299,1,2,0:2:0:0:
266,152,211449,5,4,0:0:0:0:
